#TITLE:kioku [unconnected];
#SUBTITLE:;
#ARTIST:atmbzk;
#TITLETRANSLIT:;
#SUBTITLETRANSLIT:;
#ARTISTTRANSLIT:;
#CREDIT:;
#BANNER:banner.png;
#BACKGROUND:bg.png;
#LYRICSPATH:;
#CDTITLE:;
#MUSIC:kioku [unconnected].mp3;
#OFFSET:2.720;
#SAMPLESTART:15.480;
#SAMPLELENGTH:12.000;
#SELECTABLE:YES;
#DISPLAYBPM:70.000:280.000;
#BPMS:0.000=140.000,38.000=70.000,39.500=140.000,40.000=140.000,40.500=280.001,143.000=280.001,164.000=140.001,166.000=280.001,286.000=572.997,302.000=144.001,310.000=142.501,317.000=140.001,318.000=135.001,322.000=140.001,334.000=140.001,364.750=300.001,365.000=70.000;
#STOPS:151.000=0.440
;
#BGCHANGES:2.500=kioku [unconnected].avi=1.000=0=0=1,
367.000=bg.png=1.000=1=0=1,
99999=-nosongbg-=1.000=0=0=0 // don't automatically add -songbackground-
;

//---------------dance-single - ----------------
#NOTES:
     dance-single:
     :
     Easy:
     6:
     0.402,0.506,0.010,0.351,0.015: // measure 1
0000
0000
0000
0000
,  // measure 2
0000
0000
0000
0000
,  // measure 3
0000
0000
0000
0000
,  // measure 4
0000
0000
0000
0000
,  // measure 5
0000
0000
0000
0000
,  // measure 6
0000
0000
0000
0000
,  // measure 7
1000
0000
0001
1000
0001
0000
0000
0000
,  // measure 8
1000
0000
0001
1000
0001
0000
0000
0000
,  // measure 9
1000
0000
1000
0001
1000
0000
0000
0000
,  // measure 10
0000
0000
0002
0000
,  // measure 11
0000
0000
0013
0000
,  // measure 12
0001
0000
0100
0010
,  // measure 13
1000
0000
0100
0000
,  // measure 14
1000
0000
0010
0100
,  // measure 15
0001
0000
1000
0000
,  // measure 16
0100
0000
0010
0001
,  // measure 17
1000
0000
0001
0000
,  // measure 18
0100
0000
0010
1000
,  // measure 19
0001
0000
1000
0000
,  // measure 20
0010
0000
0100
0001
,  // measure 21
1000
0000
0100
0000
,  // measure 22
0010
0000
0100
1000
,  // measure 23
0010
0000
0100
0000
,  // measure 24
0001
0000
0010
0100
,  // measure 25
0001
0000
0100
0000
,  // measure 26
0010
0000
0001
0100
,  // measure 27
0010
0000
1000
0000
,  // measure 28
0100
0000
1000
0010
,  // measure 29
0100
0000
0001
0000
,  // measure 30
0010
0000
0100
1000
,  // measure 31
0010
0000
0100
0000
,  // measure 32
0001
0000
0010
0100
,  // measure 33
1000
0000
0010
0000
,  // measure 34
0100
0000
0001
0000
,  // measure 35
1000
0001
0010
0000
,  // measure 36
0100
0000
1000
0000
,  // measure 37
0000
0000
0010
0000
,  // measure 38
0100
0000
0002
0003
,  // measure 39
0010
0000
0001
0000
,  // measure 40
0100
0010
1000
0000
,  // measure 41
0001
0000
0010
0000
,  // measure 42
0200
0000
1300
0010
,  // measure 43
0200
0000
0301
0010
,  // measure 44
0200
0000
0310
0001
,  // measure 45
0200
0000
0310
1000
,  // measure 46
0002
0000
1003
0010
,  // measure 47
0200
0000
0301
0010
,  // measure 48
0002
0000
0103
0010
,  // measure 49
2000
0000
3001
1000
,  // measure 50
0020
0000
0130
0001
,  // measure 51
0020
0000
0031
0100
,  // measure 52
0020
0000
1030
0100
,  // measure 53
2000
0000
3001
0100
,  // measure 54
0020
0000
1030
0001
,  // measure 55
0020
0000
0130
0010
,  // measure 56
0002
0000
0103
0010
,  // measure 57
2000
0000
3100
1000
,  // measure 58
0020
0000
0130
0001
,  // measure 59
0020
0000
0031
0100
,  // measure 60
0020
0000
1030
0100
,  // measure 61
2000
0000
3001
0100
,  // measure 62
0020
0000
1030
0001
,  // measure 63
0020
0000
0130
0010
,  // measure 64
0002
0000
0103
0010
,  // measure 65
2000
0000
3100
1000
,  // measure 66
0002
0000
0103
0010
,  // measure 67
2000
0000
3001
0010
,  // measure 68
0200
0000
0310
0001
,  // measure 69
0200
0000
0310
1000
,  // measure 70
0002
0000
0013
0100
,  // measure 71
2000
0000
3001
0000
,  // measure 72
0100
0000
0220
0000
,  // measure 73
0000
0000
0000
0000
,  // measure 74
0000
0000
0000
0000
,  // measure 75
0000
0000
0000
0000
,  // measure 76
0000
0000
0330
1000
,  // measure 77
0100
1000
0010
0000
0100
0000
0001
0000
,  // measure 78
0010
0000
0010
0001
,  // measure 79
0100
0001
0010
0000
0100
0000
1000
0000
,  // measure 80
0001
0000
0100
0010
,  // measure 81
1000
0100
1000
0000
0001
0000
0100
0000
,  // measure 82
0010
0000
0010
1000
,  // measure 83
0100
1000
0001
0000
0100
0000
0010
0000
,  // measure 84
1000
0000
0001
0010
,  // measure 85
0100
0010
0100
0000
1000
0000
0010
0000
,  // measure 86
0100
0001
0100
0000
0010
0000
1000
0000
,  // measure 87
0001
1000
0001
0000
0010
0000
0100
0000
,  // measure 88
1000
0000
1000
0010
,  // measure 89
0100
0001
0100
0000
0010
0000
1000
0000
,  // measure 90
0001
0010
0001
0000
0100
0000
0010
0000
,  // measure 91
1000
0000
0001
0000
0010
0000
0000
0000
0100
0000
0000
0000
0000
0000
0000
1000
,  // measure 92
0000
0100
0000
2000
0000
0000
0000
0000
0000
0000
0000
0000
3000
0000
0000
0000
;

//---------------dance-single - ----------------
#NOTES:
     dance-single:
     :
     Medium:
     8:
     0.457,0.643,0.010,0.050,0.025: // measure 1
0000
0000
0000
0000
,  // measure 2
0000
0000
0000
0000
,  // measure 3
0000
0000
0000
0000
,  // measure 4
0000
0000
0000
0000
,  // measure 5
0000
0000
0000
0000
,  // measure 6
0000
0000
0000
0000
,  // measure 7
1000
0000
0010
0100
0001
0000
0000
0000
,  // measure 8
0100
0000
0010
1000
0001
0000
0000
0000
,  // measure 9
1000
0000
0100
0010
0001
0000
0000
0000
,  // measure 10
0000
0000
2000
0000
,  // measure 11
0000
0000
3001
0100
,  // measure 12
0010
0000
0100
0010
,  // measure 13
1000
0001
0010
0100
,  // measure 14
1000
0000
0100
0010
,  // measure 15
0001
0100
0010
1000
,  // measure 16
0001
0000
0010
0100
,  // measure 17
0001
0100
0010
0001
,  // measure 18
0100
0000
0010
1000
,  // measure 19
0001
0010
0100
1000
,  // measure 20
0010
0000
0100
1000
,  // measure 21
0100
0010
1000
0100
,  // measure 22
0010
0000
0100
1000
,  // measure 23
0001
0100
0010
1000
,  // measure 24
0001
0000
0010
0100
,  // measure 25
0001
0100
0010
0001
,  // measure 26
0100
0000
0010
1000
,  // measure 27
0100
0010
0100
1000
,  // measure 28
0010
0000
0100
1000
,  // measure 29
0100
0010
1000
0100
,  // measure 30
0010
0000
0100
1000
,  // measure 31
0010
0100
0001
1000
,  // measure 32
0100
0000
0010
0100
,  // measure 33
1000
0010
0100
0001
,  // measure 34
0100
0000
1000
0100
,  // measure 35
0001
0100
0010
1000
,  // measure 36
0001
0000
0010
0100
,  // measure 37
1000
0000
0100
0010
,  // measure 38
0001
0000
0100
0010
,  // measure 39
0010
0100
0001
0010
,  // measure 40
0100
1000
0100
0000
,  // measure 41
0010
0001
0100
0010
,  // measure 42
1000
1000
0002
0000
1003
0000
0010
0000
,  // measure 43
0100
0001
0010
0100
,  // measure 44
0010
0000
0001
0100
,  // measure 45
0010
1000
0001
0010
,  // measure 46
0100
0000
0010
0001
,  // measure 47
1000
0010
0100
0001
,  // measure 48
0100
0000
0010
1000
,  // measure 49
0100
0000
1000
0010
,  // measure 50
0100
0000
0001
0010
,  // measure 51
0100
0010
0001
0100
,  // measure 52
0010
0000
1000
0001
,  // measure 53
0010
0100
1000
0100
,  // measure 54
0010
0000
0001
0100
,  // measure 55
0010
1000
0001
0010
,  // measure 56
0100
0000
0010
0001
,  // measure 57
1000
0000
1000
0001
,  // measure 58
0010
0000
0010
0001
,  // measure 59
0100
0010
1000
0001
,  // measure 60
0010
0000
0001
0100
,  // measure 61
0010
1000
0100
1000
,  // measure 62
0001
0000
0100
0010
,  // measure 63
1000
0000
0001
0010
,  // measure 64
0100
0000
0010
0001
,  // measure 65
0100
0010
1000
0001
,  // measure 66
0010
0000
0010
0001
,  // measure 67
0010
0001
1000
0100
,  // measure 68
1000
0100
0001
0100
,  // measure 69
0001
0100
1000
0010
,  // measure 70
1000
0010
0100
0001
,  // measure 71
0100
0000
0001
0000
,  // measure 72
1000
0000
2002
0000
,  // measure 73
0000
0000
0000
0000
,  // measure 74
0000
0000
0000
0000
,  // measure 75
0000
0000
0000
0000
,  // measure 76
0000
3003
0000
1000
,  // measure 77
0100
0001
0100
0000
0010
0000
1000
0000
,  // measure 78
0100
0010
0100
0000
1000
0000
0001
0000
,  // measure 79
0100
0010
1000
0000
0001
0000
0010
0000
,  // measure 80
0100
1000
0100
0000
0010
0000
0001
0000
,  // measure 81
0100
0010
1000
0000
0100
0000
0001
0000
,  // measure 82
0100
0010
1000
0000
0100
0000
1000
0000
,  // measure 83
0010
0100
0001
0000
0010
0000
0100
0000
,  // measure 84
1000
0010
0000
0010
1000
0100
0001
0000
,  // measure 85
0000
0001
0100
1000
0010
0100
0001
0000
,  // measure 86
0000
0001
0100
0010
1000
0100
1000
0000
,  // measure 87
0000
0100
0010
0001
0100
0010
0000
0000
,  // measure 88
0010
0100
0000
0010
1000
0100
1000
0001
,  // measure 89
0000
0100
0010
1000
0001
0010
0100
1000
,  // measure 90
0000
0100
0010
0001
0100
0010
1000
0001
,  // measure 91
0000
0000
0001
0000
1000
0000
0010
0000
0000
0100
0000
0001
0000
0000
0000
1000
,  // measure 92
0000
0010
0000
0200
0000
0000
0000
0000
0000
0000
0000
0000
0300
0000
0000
0000
;

//---------------dance-single - ----------------
#NOTES:
     dance-single:
     :
     Hard:
     10:
     0.751,0.965,0.090,0.611,0.346: // measure 1
0000
0000
0000
0000
,  // measure 2
0000
0000
0000
0000
,  // measure 3
0000
0000
0000
0000
,  // measure 4
0000
0000
0000
0000
,  // measure 5
0000
0000
0000
0000
,  // measure 6
0000
0000
0000
0000
,  // measure 7
1010
0000
0000
0000
0010
0000
0100
0001
1000
0000
0001
0000
0000
0000
0000
0000
,  // measure 8
0011
0000
0000
0000
0010
0000
0100
1000
0001
0000
0100
0000
0000
0000
0000
0000
,  // measure 9
0110
0000
0000
0000
0010
0000
1000
0001
0010
0000
0100
0000
0000
0000
0000
0000
,  // measure 10
0000
0000
2002
0000
,  // measure 11
0000
3003
1000
0010
,  // measure 12
0100
0001
1000
0010
,  // measure 13
0100
0001
0000
0100
0001
0000
0100
0000
,  // measure 14
0010
1000
0001
0010
,  // measure 15
0100
1000
0000
0100
1000
0000
0010
0000
,  // measure 16
0100
0001
0100
0010
,  // measure 17
1000
0001
0000
1000
0001
0000
0010
0000
,  // measure 18
0100
0010
0001
1000
,  // measure 19
0010
0100
0000
0010
0100
0000
0001
0000
,  // measure 20
0010
0100
0001
0100
,  // measure 21
0010
1000
0000
0100
0001
0000
0100
0000
,  // measure 22
1000
0010
0100
0001
,  // measure 23
1000
0001
0000
0001
1000
0000
0001
0000
,  // measure 24
0100
0010
1000
0001
,  // measure 25
0010
0100
0000
1000
0001
0000
0100
0000
,  // measure 26
0010
1000
0001
0010
,  // measure 27
0100
0010
0000
0001
1000
0000
0010
0000
,  // measure 28
0100
0001
0100
0010
,  // measure 29
1000
0100
0000
0010
0001
0000
0010
0000
,  // measure 30
0100
0010
0001
1000
,  // measure 31
0010
1000
0000
0001
0100
0000
0001
0000
,  // measure 32
1000
0100
0010
0100
,  // measure 33
1000
0010
0000
0100
0001
0000
0100
0000
,  // measure 34
0010
1000
0001
0010
,  // measure 35
0100
1000
0000
0001
0010
0000
0001
0000
,  // measure 36
1000
0010
1000
0001
,  // measure 37
0100
0001
0000
1000
0010
0000
1000
0000
,  // measure 38
0001
0000
0000
0000
0010
0000
0000
0000
0100
0000
0000
0000
2000
3000
0100
0000
,  // measure 39
0001
0100
1000
0010
,  // measure 40
0100
0000
0001
0000
0010
0001
0000
0100
,  // measure 41
0010
1000
0001
0010
,  // measure 42
2000
0000
3020
0000
0031
0100
0000
0100
,  // measure 43
0001
1000
0000
1000
0010
0100
0000
0100
,  // measure 44
0001
0010
0000
0010
0100
0010
0000
0001
,  // measure 45
1000
0010
0000
0010
0100
0001
0000
0001
,  // measure 46
0010
0100
0000
0100
0020
0000
0032
0000
,  // measure 47
0203
0320
2030
3002
,  // measure 48
0023
0230
0302
0203
,  // measure 49
0320
0032
0203
0320
,  // measure 50
2030
0000
3002
0000
0013
0100
0000
0100
,  // measure 51
1000
0010
0000
0010
0100
0001
0000
0001
,  // measure 52
0010
0100
0000
0100
0010
0001
0000
0001
,  // measure 53
1000
0010
0000
0010
0100
0001
0000
0001
,  // measure 54
0100
0010
0000
0010
2000
0000
3200
0000
,  // measure 55
0320
0032
2003
3020
,  // measure 56
0230
2300
3200
0320
,  // measure 57
2030
3200
0320
0032
,  // measure 58
2003
0000
3020
0000
0130
0001
0000
0001
,  // measure 59
0100
0010
0000
0010
1000
0001
0000
0001
,  // measure 60
0010
0100
0000
0100
1000
0001
0000
0001
,  // measure 61
0100
1000
0000
1000
0100
0001
0000
0001
,  // measure 62
0010
0100
0000
0100
2000
0000
3002
0000
,  // measure 63
0203
0320
0230
0302
,  // measure 64
0023
0230
2300
3020
,  // measure 65
0230
0302
0023
0230
,  // measure 66
0320
0000
0032
0000
0103
0010
0000
0010
,  // measure 67
1000
0001
0000
0001
0010
0100
0000
0100
,  // measure 68
1000
0010
0000
0010
0100
0001
0000
0001
,  // measure 69
0010
1000
0000
1000
0010
0001
0000
0001
,  // measure 70
0100
0010
0000
0010
1000
0100
1000
0000
,  // measure 71
0001
0010
0001
0000
0022
0000
0033
0000
,  // measure 72
2200
3300
2002
0000
,  // measure 73
0000
0000
0000
0000
,  // measure 74
0000
0000
0000
0000
,  // measure 75
0000
0000
0000
0000
,  // measure 76
3003
0000
0000
0000
0000
0000
0000
0000
1000
0000
0001
0000
0100
0010
0000
1000
,  // measure 77
0000
0001
0010
0000
0100
0000
0010
0000
0001
0000
0100
0000
0010
1000
0000
0010
,  // measure 78
0000
0100
0001
0000
0010
0000
0100
0000
0010
0000
0001
0000
1000
0010
0000
0100
,  // measure 79
0000
1000
0100
0000
0010
0000
1000
0000
0001
0000
0010
0000
0100
1000
0000
0010
,  // measure 80
0000
1000
0100
0000
0110
0000
0000
0000
0010
0001
0100
0000
0010
1000
0000
0001
,  // measure 81
0000
0010
0100
0000
0010
0000
0001
0000
0100
0000
0010
0000
1000
0001
0000
0010
,  // measure 82
0000
0100
1000
0000
0100
0000
0010
0000
0001
0000
1000
0000
0010
0100
0000
0001
,  // measure 83
0000
0010
0000
0100
0001
0000
0100
0000
0010
0000
0001
0000
0100
0010
0000
1000
,  // measure 84
0000
0001
0000
1000
0010
0100
0000
0001
0100
0000
0010
1000
0000
0001
0000
0100
,  // measure 85
0010
0000
1000
0000
0001
0010
0000
0010
0001
0000
0100
0010
0000
1000
0000
0001
,  // measure 86
0100
0000
0010
0000
0100
0001
0000
0001
0100
0000
0010
1000
0000
0001
0000
0100
,  // measure 87
0010
0000
0100
0000
0001
0010
0000
0100
1000
0100
0000
0010
0000
0000
0000
0001
,  // measure 88
0000
0010
0000
0100
0001
0000
0100
0000
0010
0000
1000
0100
0000
1000
0000
0000
,  // measure 89
0010
0000
0100
0000
0001
0010
0000
0010
0001
0000
0100
0010
0000
1000
0000
0000
,  // measure 90
0001
0000
0010
0000
0100
1000
0000
1000
0100
0000
0010
0001
0000
1000
0000
0000
,  // measure 91
0010
0000
0100
0000
0001
0100
0000
0100
0010
1000
0000
0001
0000
0000
0000
0100
,  // measure 92
0000
0010
0000
2002
0000
0000
0000
0000
0000
0000
0000
0000
3003
0000
0000
0000
;

//---------------dance-single - ----------------
#NOTES:
     dance-single:
     :
     Challenge:
     10:
     0.915,1.000,0.852,0.130,0.521: // measure 1
0000
0000
0000
0000
,  // measure 2
0000
0000
0000
0000
,  // measure 3
0000
0000
0000
0000
,  // measure 4
0000
0000
0000
0000
,  // measure 5
0000
0000
0000
0000
,  // measure 6
0000
0000
0000
0000
,  // measure 7
1001
0000
0000
0000
1100
0000
0010
0100
1000
0000
0100
0000
0000
0000
0000
0000
,  // measure 8
0101
0000
0000
0000
1100
0000
0010
0100
0001
0000
0100
0000
0000
0000
0000
0000
,  // measure 9
1100
0000
0000
0000
1010
0000
1000
0010
0100
0000
0001
0000
0000
0000
0000
0000
,  // measure 10
0000
0000
2002
0000
,  // measure 11
0000
0000
3003
0000
0010
1000
0100
0000
,  // measure 12
1100
0000
1000
0010
0100
0001
0010
0000
,  // measure 13
0001
0100
0000
0110
0000
0010
1000
0000
,  // measure 14
1100
0000
1000
0001
0100
0010
1000
0000
,  // measure 15
0001
0010
0000
0010
0001
0100
0010
0000
,  // measure 16
1010
0000
1000
0100
0010
0100
1000
0000
,  // measure 17
0001
0010
0000
0011
0000
0001
0100
0000
,  // measure 18
0110
0000
0010
1000
0100
1000
0001
0000
,  // measure 19
0100
0010
0000
0110
0000
0010
1000
0000
,  // measure 20
1100
0000
0000
1000
0010
0100
0001
0000
,  // measure 21
0001
0100
0000
0110
0000
0010
1000
0000
,  // measure 22
0001
0000
0010
0100
0010
0000
0001
0000
,  // measure 23
0100
0010
0000
1010
0000
1000
0001
0000
,  // measure 24
0010
0000
0100
0010
0001
0000
0100
0000
,  // measure 25
0010
1000
0000
1001
0000
1000
0010
0000
,  // measure 26
0100
0001
0010
0100
1000
0000
0001
0000
,  // measure 27
0100
0010
0000
0120
0000
0000
1030
0000
,  // measure 28
0001
0010
0000
0010
0001
0000
0101
0000
,  // measure 29
0010
1010
0000
1001
0000
1000
0010
0000
,  // measure 30
0110
0000
0100
0001
0010
0000
1100
0000
,  // measure 31
0010
0110
0000
1001
0000
0001
0010
0000
,  // measure 32
0011
0000
0001
1000
0100
0000
1100
0000
,  // measure 33
1000
1001
0000
0011
0000
0001
0100
0000
,  // measure 34
0110
0000
0010
1000
0001
0010
0100
1000
,  // measure 35
0010
0110
0000
1001
0000
1000
0010
0000
,  // measure 36
0110
0000
0010
1000
0002
0000
0023
0000
,  // measure 37
0130
0010
0000
0011
0000
0001
0100
0000
,  // measure 38
0110
0000
0000
0000
0010
0000
1000
0000
0001
0000
0000
0000
2002
3003
1000
0000
,  // measure 39
0000
0010
0100
0000
0101
0000
0001
0010
,  // measure 40
0100
0000
1100
0000
1000
1010
0000
0101
,  // measure 41
0000
0001
0010
0000
0110
0000
0100
1000
,  // measure 42
0020
0000
0230
0000
0301
0010
0100
0001
,  // measure 43
0100
0010
0001
0100
0010
1000
0100
1000
,  // measure 44
0010
0100
1000
0100
0010
1000
0100
0010
,  // measure 45
0001
1000
0010
0100
0001
0010
0100
0010
,  // measure 46
0001
0100
0010
1000
0001
0011
0000
0011
,  // measure 47
0000
1100
0000
1100
0000
0101
0000
1100
,  // measure 48
0000
0011
0000
1010
0000
0101
0000
1010
,  // measure 49
0000
1100
0000
1000
0010
0100
0000
0001
,  // measure 50
0010
0000
0001
1000
0010
0100
0001
1000
,  // measure 51
0100
0010
0100
1000
0001
0100
0010
1000
,  // measure 52
0001
0010
0100
1000
0100
0010
0001
1000
,  // measure 53
0010
0100
0001
0100
0010
1000
0001
0010
,  // measure 54
0100
1000
0100
0010
0001
1000
0000
1010
,  // measure 55
0000
1001
0000
0101
0000
1001
0000
0011
,  // measure 56
0000
1001
0000
1000
0100
0000
1000
0010
,  // measure 57
0100
0001
0000
0001
1000
0010
0100
0000
,  // measure 58
0001
0010
0000
0001
0010
0001
0100
0010
,  // measure 59
1000
0100
1000
0010
0100
0001
0010
0100
,  // measure 60
0010
0001
0100
0010
1000
0100
1000
0001
,  // measure 61
0100
0010
0100
0001
1000
0100
0010
0100
,  // measure 62
1000
0001
0100
0010
1000
1100
0000
0101
,  // measure 63
0000
1100
0000
1010
0000
0011
0000
1010
,  // measure 64
0000
1001
0000
0110
0000
1001
0000
0101
,  // measure 65
0000
1010
0000
1000
0100
1000
0010
0000
,  // measure 66
0100
0001
0010
0000
0001
0010
0001
0100
,  // measure 67
0001
0100
0010
1000
0010
0100
1000
0100
,  // measure 68
0010
1000
0010
0100
0001
0100
0001
0010
,  // measure 69
0001
1000
0100
1000
0001
0010
0100
0010
,  // measure 70
0001
1000
0010
0100
0001
0011
0000
1000
,  // measure 71
1100
0000
0000
0001
0011
0000
0000
0100
,  // measure 72
0110
0000
0000
0010
2002
0000
0000
0000
,  // measure 73
0000
0000
0000
0000
,  // measure 74
0000
0000
0000
0000
,  // measure 75
0000
0000
0000
0000
,  // measure 76
3003
0000
0000
0000
0000
0000
0000
0000
1000
0010
0100
0000
0001
0010
0000
0011
,  // measure 77
0000
0001
0100
0000
0010
1000
0000
1000
0010
0100
0001
0000
0010
0100
0000
1100
,  // measure 78
0000
1000
0010
0000
0100
0001
0000
0001
0010
0001
0100
0000
0010
1000
0000
1100
,  // measure 79
0000
1000
0010
0000
0100
0001
0000
0001
0010
0001
0100
0000
0010
1000
0000
1100
,  // measure 80
0000
1000
0010
0000
0001
0000
0000
0000
0010
1000
0100
0000
1000
0010
0000
0110
,  // measure 81
0000
0100
0001
0000
0010
0100
0000
0001
0100
1000
0100
0000
0010
0100
0000
1100
,  // measure 82
0000
1000
0010
0000
0100
0001
0000
0001
0100
0010
1000
0000
0001
0010
0000
0011
,  // measure 83
0000
0001
0100
0000
0010
1000
0000
1000
0100
1000
0001
0000
0100
0010
0000
0110
,  // measure 84
0000
0010
1000
0000
0001
0010
0000
0010
0001
0000
0100
0010
0000
1000
0000
0001
,  // measure 85
0000
0010
0000
0001
0100
0010
0000
0010
1000
0000
0100
1000
0000
0010
0000
0100
,  // measure 86
0000
0001
0000
0010
0001
0100
0000
0010
1000
0000
0001
0010
0000
0001
0000
0100
,  // measure 87
0000
0010
0000
1000
0100
1000
0000
1000
0010
0100
0000
0001
0000
0010
0000
0011
,  // measure 88
0000
0010
0000
0001
1000
0010
0000
0100
1000
0000
0100
0010
0000
1000
0000
0100
,  // measure 89
0000
0010
0000
0001
0010
0100
0000
0001
0100
0000
0010
0001
0000
0100
0000
0010
,  // measure 90
0000
1000
0000
0001
0010
0100
0000
0100
0010
0000
0001
1000
0000
0010
0000
0100
,  // measure 91
0000
0001
0000
0010
0001
0100
0000
0100
0010
1000
0000
0001
0000
0000
0000
0100
,  // measure 92
0000
0010
0000
2002
0000
0000
0000
0000
0000
0000
0000
0000
3003
0000
0000
0000
;

//---------------dance-single - ----------------
#NOTES:
     dance-single:
     :
     Beginner:
     2:
     0.155,0.228,0.020,0.030,0.005: // measure 1
0000
0000
0000
0000
,  // measure 2
0000
0000
0000
0000
,  // measure 3
0000
0000
0000
0000
,  // measure 4
0000
0000
0000
0000
,  // measure 5
0000
0000
0000
0000
,  // measure 6
0000
0000
0000
0000
,  // measure 7
0000
0000
1001
0000
,  // measure 8
0000
0000
0010
0000
,  // measure 9
0000
0000
0100
0000
,  // measure 10
0000
0000
2000
0000
,  // measure 11
0000
0000
3000
0000
,  // measure 12
0000
0000
1000
0000
,  // measure 13
0000
0000
1000
0000
,  // measure 14
0000
0000
1000
0000
,  // measure 15
0000
0000
0001
0000
,  // measure 16
0000
0000
0001
0000
,  // measure 17
0000
0000
0001
0000
,  // measure 18
0000
0000
0001
0000
,  // measure 19
0000
0000
0100
0000
,  // measure 20
0000
0000
0100
0000
,  // measure 21
0000
0000
0010
0000
,  // measure 22
0000
0000
0010
0000
,  // measure 23
0000
0000
0001
0000
,  // measure 24
0000
0000
0001
0000
,  // measure 25
0000
0000
0010
0000
,  // measure 26
0000
0000
0010
0000
,  // measure 27
0000
0000
0100
0000
,  // measure 28
0000
0000
0100
0000
,  // measure 29
0000
0000
0001
0000
,  // measure 30
0000
0000
0001
0000
,  // measure 31
0000
0000
1000
0000
,  // measure 32
0000
0000
1000
0000
,  // measure 33
0000
0000
0010
0000
,  // measure 34
0000
0000
0010
0000
,  // measure 35
0000
0000
0100
0000
,  // measure 36
0000
0000
0001
0000
,  // measure 37
0000
0000
0010
0000
,  // measure 38
0000
0000
0100
0000
,  // measure 39
1000
0000
0000
0000
,  // measure 40
0010
0000
0000
0000
,  // measure 41
0100
0000
0000
0000
,  // measure 42
0001
0000
1000
0000
,  // measure 43
0001
0000
1000
0000
,  // measure 44
0000
0000
0010
0000
,  // measure 45
0100
0000
0010
0000
,  // measure 46
0000
0000
1000
0000
,  // measure 47
0100
0000
1000
0000
,  // measure 48
0000
0000
0001
0000
,  // measure 49
0010
0000
0001
0000
,  // measure 50
0000
0000
0100
0000
,  // measure 51
0010
0000
0100
0000
,  // measure 52
0000
0000
0001
0000
,  // measure 53
1000
0000
0001
0000
,  // measure 54
0000
0000
0010
0000
,  // measure 55
0001
0000
0010
0000
,  // measure 56
0000
0000
0100
0000
,  // measure 57
1000
0000
0100
0000
,  // measure 58
0000
0000
1000
0000
,  // measure 59
0010
0000
0100
0000
,  // measure 60
0000
0000
0001
0000
,  // measure 61
0010
0000
0100
0000
,  // measure 62
0000
0000
0010
0000
,  // measure 63
0001
0000
0100
0000
,  // measure 64
0000
0000
0010
0000
,  // measure 65
1000
0000
0001
0000
,  // measure 66
0000
0000
1000
0000
,  // measure 67
0010
0000
0100
0000
,  // measure 68
0000
0000
0001
0000
,  // measure 69
0010
0000
0100
0000
,  // measure 70
0000
0000
1000
0000
,  // measure 71
0000
0000
0001
0000
,  // measure 72
0000
0000
2002
0000
,  // measure 73
0000
0000
0000
0000
,  // measure 74
0000
0000
0000
0000
,  // measure 75
0000
0000
0000
0000
,  // measure 76
0000
0000
3003
0000
,  // measure 77
0000
0000
1000
0000
,  // measure 78
0000
0000
0010
0000
,  // measure 79
0000
0000
0100
0000
,  // measure 80
0000
0000
0001
0000
,  // measure 81
0000
0000
0010
0000
,  // measure 82
0000
0000
0100
0000
,  // measure 83
0000
0000
1000
0000
,  // measure 84
0000
0000
0000
0010
,  // measure 85
0000
0010
0000
0100
,  // measure 86
0000
0100
0000
0001
,  // measure 87
0000
0001
0000
1000
,  // measure 88
0000
1000
1000
1000
,  // measure 89
0000
0010
0000
0100
,  // measure 90
0000
0001
0000
1000
,  // measure 91
0000
1000
0000
0000
,  // measure 92
0000
0000
0000
0001
0000
0000
0000
0000
0000
0000
0000
0000
0000
0000
0000
0000
;
