#TITLE:alive;
#SUBTITLE:;
#ARTIST:くるぶっこちゃん;
#TITLETRANSLIT:;
#SUBTITLETRANSLIT:;
#ARTISTTRANSLIT:Kurubukko-chan;
#GENRE:;
#CREDIT:Meseki;
#MENUCOLOR:0.75,0.7,0.65,1.0;
#BANNER:alive-bn.png;
#BACKGROUND:alive-bg.png;
#LYRICSPATH:;
#CDTITLE:cdtitle.png;
#MUSIC:alive.mp3;
#OFFSET:-0.662;
#SAMPLESTART:76.354;
#SAMPLELENGTH:14.769;
#SELECTABLE:YES;
#LISTSORT:;
#BPMS:0.000=130.000;
#STOPS:;
#TICKCOUNT:0.000=2;
#BGCHANGES:;
#KEYSOUNDS:;
#ATTACKS:;

//---------------dance-single - ----------------
#NOTES:
     dance-single:
     :
     Medium:
     7:
     0.313,0.297,0.051,0.073,0.460:
0000
0000
0000
0000
,
0000
0000
0000
0000
,
0000
0000
0000
0000
,
0000
0001
0000
0000
0001
0000
0000
1000
0000
0000
1000
0000
0000
0001
0000
0000
,
0001
0000
0000
1000
0000
0000
1000
0000
0010
0000
0000
0010
0000
0000
0100
0000
,
0000
0100
0000
0000
0010
0000
0000
0010
0000
0000
0100
0000
0000
0200
0000
0300
,
0000
0001
0000
0000
0001
0000
0000
0100
0000
0000
0100
0000
0000
0001
0000
0000
,
0001
0000
0000
0100
0000
0000
0100
0000
0010
0000
0000
0010
0000
0000
1000
0000
,
0000
1000
0000
0000
0010
0000
0000
0010
0000
0000
1000
0000
0000
2000
0000
3000
,
0000
0010
0000
0000
0010
0000
0000
0100
0000
0000
0100
0000
0000
0001
0000
0000
,
0001
0000
0000
0100
0000
0000
0100
0000
0010
0000
0000
0010
0000
0000
1000
0000
,
0000
1000
0000
0000
0010
0000
0000
0010
0000
0000
0100
0000
0000
0200
0000
0300
,
0000
0001
0000
0000
0001
0000
0000
0100
0000
0000
0100
0000
0000
0000
0010
0000
,
0000
1000
0000
0000
1000
0000
0000
0001
0000
0000
0001
0000
0000
0000
0010
0000
,
0100
0000
0010
0000
0100
0000
0000
1000
0000
0000
1000
0000
0000
0000
0001
0000
,
0000
0010
0000
0000
0010
0000
0000
0100
0000
0000
0100
0000
0000
0000
1000
0000
,
0000
0100
0000
0000
0100
0000
0000
0001
0000
0000
0001
0000
0000
0000
0100
0000
,
0000
1000
0000
0000
1000
0000
0000
0001
0000
0000
0001
0000
0000
0000
0100
0000
,
0010
0000
0100
0000
0010
0000
0000
1000
0000
0000
1000
0000
0000
0000
0001
0000
,
0000
0010
0000
0000
0010
0000
0000
1000
0000
0000
1000
0000
0000
0000
0010
0000
,
0000
0001
0000
0000
0001
0000
0000
0000
0000
0000
0000
0000
0000
0000
0100
0000
,
0000
0010
0000
0000
1000
0000
0000
0000
0000
0001
0000
0000
0000
0000
0010
0000
,
0000
0000
0001
0000
1000
0000
0000
0000
0000
0010
0000
0000
0000
0000
0100
0000
,
0000
0001
0000
0000
0001
0000
0000
0000
0000
0010
0000
0000
0000
0000
0100
0000
,
0000
0010
0000
0001
0000
0010
0000
0001
,
0000
0010
0000
0001
0000
0100
0000
0010
,
0000
1000
0000
0010
0000
1000
0000
0010
,
0000
0000
0200
0000
0000
0000
0002
0000
0000
0000
0300
0000
0000
0000
0000
0003
,
1000
0000
0100
0000
0000
0000
0000
1000
0000
0100
0000
0000
0010
0000
0000
0000
,
0000
0000
0001
0000
0000
0000
0010
0000
0001
0000
0010
0000
0000
0000
0000
0001
,
0000
0010
0000
0000
0000
0000
0000
0100
0000
0000
0000
0000
0000
1000
0000
0100
,
0000
1000
0000
0000
0000
0000
0000
0010
0000
1000
0000
0000
0010
0000
0000
0000
,
0000
0000
0100
0000
0000
0000
0001
0000
0100
0000
0001
0000
0000
0000
0000
0100
,
0000
0001
0000
0000
0000
0000
0000
0010
0000
0000
0000
0000
0000
0100
0000
0000
,
1000
1001
0000
0110
,
0000
0000
0001
1000
0001
0000
1000
0000
,
0000
0001
0000
0001
0000
0000
0100
0000
,
1001
0000
0000
0000
,
0000
0000
0000
0000
0000
1000
0001
0000
0000
0000
0000
0000
,
0000
0000
0000
0000
,
0000
0000
0000
0000
1000
0100
0010
0000
,
0000
0001
0000
0000
0001
0000
0000
0100
0000
0000
0100
0000
0000
0010
0000
0000
,
0000
1000
0000
0000
1000
0000
0000
0100
0000
0000
0100
0000
0000
1000
0000
0000
,
0000
0010
0000
0000
0010
0000
0000
0100
0000
0000
0100
0000
0000
0001
0000
0000
,
0000
0010
0000
0000
0010
0000
0000
0001
0000
0000
0001
0000
0000
1000
0000
0000
,
0000
0100
0000
0000
0100
0000
0000
0001
0000
0000
0001
0000
0000
0100
0000
0000
,
0000
1000
0000
0000
1000
0000
0000
0001
0000
0000
0001
0000
0000
0100
0000
0000
,
0000
0010
0000
0000
0010
0000
0000
1000
0000
0000
1000
0000
0000
0001
0000
0000
,
0000
1000
0000
0000
1000
0000
0000
0100
0000
0000
0010
0000
0000
0001
0000
0000
,
0000
1000
0000
0000
1000
0000
0000
0001
0000
0000
0001
0000
0000
0100
0000
0000
,
0000
0010
0000
0000
0010
0000
0000
1000
0000
0000
1000
0000
0000
0001
0000
0000
,
0000
0010
0000
0000
0010
0000
0000
0001
0000
0000
0001
0000
0000
0100
0000
0000
,
0000
0010
0000
0000
0010
0000
0000
1000
0000
0000
1000
0000
0000
0001
0000
0000
,
0000
0100
0000
0000
0100
0000
0000
1000
0000
0000
1000
0000
0000
0100
0000
0000
,
0000
0001
0000
0000
0001
0000
0000
1000
0000
0000
1000
0000
0000
0100
0000
0000
,
0000
0010
0000
0000
0010
0000
0000
0001
0000
0000
0001
0000
0000
1000
0000
0000
,
0000
0010
0100
0010
0000
0100
0001
0100
,
0001
0000
0000
0000
0000
0000
0000
0010
0000
0001
0000
0000
0000
0020
0030
0100
,
0000
0000
0000
0000
0000
1000
0000
0000
0100
0000
1000
0000
0000
0000
0000
0010
,
0000
0100
0000
0000
0000
0002
0003
0010
0000
0000
0000
0000
0000
0001
0000
0000
,
0100
0000
1000
0000
0000
0000
0000
0100
0000
0010
0000
0000
0000
2000
3000
0001
,
0000
0000
0000
0000
0000
0010
0000
0000
0001
0000
0010
0000
0000
0000
0000
0100
,
0000
1000
0000
0000
0000
0020
0030
0100
0000
0000
0000
0000
0000
0001
0000
0000
,
1000
1001
0000
0110
,
0000
0000
0000
0000
0001
0000
0000
1000
0000
0000
0000
0000
0011
0000
0000
0000
,
0000
0000
1100
0000
0000
0001
0000
0001
,
0100
1000
0000
0000
0000
0000
0000
0000
,
0000
0000
0000
0100
0000
0100
0020
0000
0000
0030
0000
0000
;

//---------------dance-single - ----------------
#NOTES:
     dance-single:
     :
     Easy:
     4:
     0.180,0.198,0.007,0.058,0.325:
0000
0000
0000
0000
,
0000
0000
0000
0000
,
0000
0000
0000
0000
,
0000
0001
0000
0000
0000
0000
0000
1000
0000
0000
0000
0000
0000
0001
0000
0000
,
0000
0000
0000
1000
0000
0000
0000
0000
0001
0000
0000
0000
0000
0000
0100
0000
,
0000
0000
0001
0000
0000
0100
0000
0000
,
0000
0010
0000
0000
0000
0000
0000
1000
0000
0000
0000
0000
0000
0010
0000
0000
,
0000
0000
0000
1000
0000
0000
0000
0000
0010
0000
0000
0000
0000
0000
0100
0000
,
0000
0000
0010
0000
0000
0100
0000
0000
,
0000
0001
0000
0000
0000
0000
0000
1000
0000
0000
0000
0000
0000
0001
0000
0000
,
0000
0000
0000
1000
0000
0000
0000
0000
0010
0000
0000
0000
0000
0000
0100
0000
,
0000
0000
0010
0000
0000
0100
0000
0000
,
0000
0010
0000
0000
0000
0000
0000
1000
0000
0000
0000
0000
0000
0000
0100
0000
,
0000
1000
0000
0000
0000
0000
0000
0001
0000
0000
0000
0000
0000
0000
0010
0000
,
0000
0001
0000
0000
0000
0000
0000
1000
0000
0000
0000
0000
0000
0000
0010
0000
,
0000
1000
0000
0000
0000
0000
0000
0100
0000
0000
0000
0000
0000
0000
0010
0000
,
0000
0100
0000
0000
0000
0000
0000
1000
0000
0000
0000
0000
0000
0000
0010
0000
,
0000
0100
0000
0000
0000
0000
0000
1000
0000
0000
0000
0000
0000
0000
0100
0000
,
0000
0010
0000
0000
0000
0000
0000
1000
0000
0000
0000
0000
0000
0000
0001
0000
,
0000
1000
0000
0000
0000
0000
0000
0100
0000
0000
0000
0000
0000
0000
0010
0000
,
0000
0000
0001
0000
0000
0000
0000
1000
,
0000
0000
0000
0000
0001
0000
0000
0000
0000
0100
0000
0000
0000
0000
0100
0000
,
0000
0000
0000
0000
0010
0000
0000
0000
0000
1000
0000
0000
0000
0000
1000
0000
,
0000
0000
0000
0000
0100
0000
0000
0000
0000
0010
0000
0000
0000
0000
0010
0000
,
0000
0001
0000
0010
0000
0001
0000
0000
,
0000
1000
0000
0010
0000
0100
0000
0000
,
0000
0010
0000
1000
0000
0010
0000
0000
,
0000
0200
0000
0002
0300
0000
0000
0003
,
1000
0000
0000
0100
,
0000
0010
0000
0000
1000
0000
0000
0000
,
0000
0010
0000
0100
,
1000
0000
0000
0001
0000
0000
0000
0010
,
0000
0000
0001
0000
1000
0000
0000
0010
,
0000
1000
0000
0001
,
0100
0000
0000
0010
,
0000
1000
0100
0000
,
0000
0000
0010
0000
0000
0001
0000
0000
,
1001
0000
0000
0000
,
0000
0000
0000
0000
0000
1000
0000
0000
0000
0000
0000
0000
,
0000
0000
0000
0000
,
0020
0000
0000
0000
0000
0000
0000
0030
,
0000
1000
0000
0000
0000
0000
0000
0010
0000
0000
0000
0000
0000
1000
0000
0000
,
0000
0001
0000
0000
0000
0000
0000
0100
0000
0000
0000
0000
0000
0001
0000
0000
,
0000
0010
0000
0000
0000
0000
0000
0100
0000
0000
0000
0000
0000
1000
0000
0000
,
0000
0010
0000
0000
0000
0000
0000
0100
0000
0000
0000
0000
0000
0010
0000
0000
,
0000
0100
0000
0000
0000
0000
0000
1000
0000
0000
0000
0000
0000
0100
0000
0000
,
0000
0001
0000
0000
0000
0000
0000
1000
0000
0000
0000
0000
0000
0001
0000
0000
,
0000
1000
0000
0000
0000
0000
0000
0100
0000
0000
0000
0000
0000
0010
0000
0000
,
0000
0001
0000
0000
0000
0000
0000
0100
0000
0000
0000
0000
0000
0010
0000
0000
,
0000
1000
0000
0000
0000
0000
0000
0001
0000
0000
0000
0000
0000
0001
0000
0000
,
0000
0010
0000
0000
0000
0000
0000
0100
0000
0000
0000
0000
0000
0100
0000
0000
,
0000
1000
0000
0000
0000
0000
0000
0010
0000
0000
0000
0000
0000
0010
0000
0000
,
0000
0001
0000
0000
0000
0000
0000
0010
0000
0000
0000
0000
0000
0010
0000
0000
,
0000
0100
0000
0000
0000
0000
0000
0001
0000
0000
0000
0000
0000
0001
0000
0000
,
0000
0010
0000
0000
0000
0000
0000
0100
0000
0000
0000
0000
0000
0100
0000
0000
,
0000
1000
0000
0000
0000
0000
0000
0100
0000
0000
0000
0000
0000
0010
0000
0000
,
0000
0001
0010
0100
,
1000
0000
0000
0000
0000
0000
0000
0010
0000
0000
0000
0000
0000
0200
0300
0000
,
0000
0000
0000
0000
0000
0001
0000
0000
0000
0000
0000
0000
0000
0000
0000
0100
,
0000
0000
0000
0000
0000
0020
0030
0000
0000
0000
0000
0000
0000
1000
0000
0000
,
0000
0000
0000
0000
0000
0000
0000
0001
0000
0000
0000
0000
0000
0020
0030
0000
,
0000
0000
0000
0000
0000
0100
0000
0000
0000
0000
0000
0000
0000
0000
0000
1000
,
0000
0000
0000
0000
0000
0002
0003
0000
0000
0000
0000
0000
0000
1000
0000
0000
,
0001
0000
0000
0100
,
0000
0010
0000
0000
1000
0000
0100
0000
,
0000
0001
0000
0100
,
0010
0000
0000
0000
,
0000
0001
2000
3000
;

//---------------dance-single - ----------------
#NOTES:
     dance-single:
     :
     Hard:
     9:
     0.452,0.470,0.007,0.117,0.715:
0000
0000
0000
0000
,
0000
0000
0000
0000
,
0000
0000
0000
0000
,
1000
0001
0000
0000
0001
0000
0000
0100
0000
0000
0100
0000
0000
0001
0000
0000
,
0001
0000
0000
0100
0000
0000
0100
0000
0010
0000
0000
0010
0000
0000
1000
0000
,
0000
1000
0000
0000
0010
0000
0000
0010
0000
0000
0100
0000
0000
0100
0010
0100
,
0000
0001
0000
0000
0001
0000
0000
0010
0000
0000
0010
0000
0000
0001
0000
0000
,
0001
0000
0000
0010
0000
0000
0010
0000
0001
0000
0000
0001
0000
0000
0100
0000
,
0000
0100
0000
0000
0001
0000
0000
0001
0000
0000
0100
0000
0000
0100
0010
0100
,
0000
0010
0000
0000
0010
0000
0000
1000
0000
0000
1000
0000
0000
0010
0000
0000
,
0010
0000
0000
1000
0000
0000
1000
0000
0001
0000
0000
0001
0000
0000
0010
0000
,
0000
0010
0000
0000
0001
0000
0000
0001
0000
0000
1000
0000
0000
1000
0100
1000
,
0000
0001
0000
0000
0001
0000
0000
0100
0000
0010
0100
0000
0000
0000
0010
0000
,
0000
1000
0000
0000
1000
0000
0000
0001
0000
0010
0001
0000
0000
0000
0100
0000
,
0010
2000
3010
1000
0010
0000
0000
0100
0000
0001
0100
0000
0000
0000
0001
0000
,
0000
0010
0000
0000
0010
0000
0000
0100
0000
1000
0100
0000
0000
0000
1000
0000
,
0000
0001
0000
0000
0001
0000
0000
0100
0000
1000
0100
0000
0000
0000
0010
0000
,
0000
1000
0000
0000
1000
0000
0000
0100
0000
0001
0100
0000
0000
0000
1000
0000
,
0010
0200
0310
0100
0010
0000
0000
1000
0000
0001
1000
0000
0000
0000
0010
0000
,
0000
0001
0000
0000
0001
0000
0000
0010
0000
1000
0010
0000
0000
0000
0200
0301
,
0100
0010
0000
0000
1000
0100
1000
0100
0000
0000
1000
0000
0000
1000
0010
0000
,
1000
0010
0000
0000
0100
0000
0000
0001
0000
0010
0000
0001
0000
0000
0010
0000
,
0001
2000
3001
1000
0001
0000
0100
0000
0000
0010
0100
0000
0000
0000
0010
0000
,
0000
1000
0100
0000
1000
0000
0000
0010
0000
0100
0001
0000
0000
0000
0010
0000
,
0000
0000
0001
0000
1000
0001
1000
0001
0000
0000
0010
0000
0000
0000
0001
0010
,
0000
0000
0001
0000
0000
0000
0010
0000
0000
0000
0100
0000
0000
0000
1000
0100
,
0000
0010
0001
0000
0000
0000
0100
0000
0000
0000
0001
0000
0000
0000
0100
0010
,
0000
0000
2000
0000
0000
0000
0002
0000
0000
0000
3000
0000
0000
0000
0000
0003
,
1000
0010
1000
0000
0000
0010
0000
0100
0000
0001
0100
0000
0010
0000
0000
1000
,
0000
0100
1000
0000
0000
0000
0100
0000
0010
0000
0100
0000
0010
0000
0000
0001
,
0000
0010
0000
0000
0001
0000
0100
0010
0000
0000
1000
0000
1000
0001
0000
0100
,
0001
0100
0001
0000
0000
0010
0000
0001
0000
0100
0001
0000
0100
0000
0000
0010
,
0000
0010
1000
0000
0001
0000
1000
0000
0100
0000
1000
0000
0001
0000
0000
0010
,
0000
0001
0000
0000
0100
0000
0010
1000
0000
0000
0010
0000
0010
0100
0000
0100
,
0001
1000
0000
1000
0000
1000
0100
1000
,
0000
0100
0001
0100
0010
0000
0001
0000
,
1000
0000
0010
0000
1000
0000
0010
0000
1000
0000
0000
0100
0010
0000
0100
0000
,
1001
0000
0000
0000
,
0000
0000
0000
0000
0000
0000
0000
0000
0000
0000
0100
0010
0001
0000
0000
0000
0000
0000
0000
0000
0000
0000
0000
0000
,
0000
0000
0000
0000
,
2000
0000
0000
0000
0100
3100
0010
0001
,
1000
0010
0000
0000
0010
0000
0000
0100
0000
0001
0100
0000
0000
0010
0000
0000
,
0000
1000
0000
0000
1000
0000
0000
0100
0000
0010
0100
0000
0000
0010
0000
0000
,
0001
0200
0301
0100
0001
0000
0000
1000
0000
0010
1000
0000
0000
0100
0000
0000
,
0010
0001
0000
0000
0001
0000
0000
1000
0000
0100
1000
0000
0000
0010
0000
0000
,
0000
0001
0000
0000
0001
0000
0000
0010
0000
0100
0010
0000
0000
1000
0000
0000
,
0000
0001
0000
0000
0001
0000
0000
0100
0000
0010
0100
0000
0000
0001
0000
0000
,
1000
0200
1300
0100
1000
0000
0000
0001
0000
0010
0001
0000
0000
1000
0000
0000
,
0000
0100
0000
0000
0100
0000
0000
0010
0000
0001
1000
0000
0000
0010
0000
0200
,
0300
0001
0000
0000
0001
0000
0000
1000
0000
0010
1000
0000
0000
0100
0000
0000
,
0000
0010
0000
0000
0010
0000
0000
0001
0000
1000
0001
0000
0000
0100
0000
0000
,
0000
0010
0000
0000
0010
0000
0000
1000
0000
0001
1000
0000
0000
0100
0000
0000
,
0000
0010
0000
0000
0010
0000
0000
0100
0000
0001
0100
0000
0000
1000
0000
0000
,
0000
0001
0000
0000
0001
0000
0000
0100
0000
0010
0100
0000
0000
1000
0000
0000
,
0000
0100
0000
0000
0100
0000
0000
0001
0000
1000
0001
0000
0000
0100
0000
0000
,
0000
0010
0000
0000
0010
0000
0000
1000
0000
0100
1000
0000
0000
0001
0000
0000
,
0000
0000
0010
0001
0010
0001
0010
0100
0000
0000
1000
0010
1000
0010
1000
0000
,
0001
0000
0000
0000
0000
0000
0000
0000
0000
0000
0000
0000
0100
0000
0000
0000
0010
0000
0000
0000
0100
0000
0000
0000
0000
0000
0000
0000
0000
0000
0000
0000
0000
0000
0000
0000
0000
0000
0000
0002
0000
0000
0013
0000
0000
0100
0000
0000
,
0000
0000
0000
0000
0000
1000
0000
0000
0100
0000
1000
0100
0010
0000
0000
0001
,
0000
1000
0000
0000
0000
0020
0130
0001
0000
0010
0000
0100
1000
0001
0000
0000
,
0010
0000
0001
0000
0100
0000
0000
0010
0000
1000
0000
0000
0010
0200
0310
0100
,
0000
0000
0000
0000
0001
0010
0000
0010
0001
0000
0100
0000
0000
0010
2000
3010
,
0000
0100
0000
0000
0000
0020
0130
0001
0000
0000
0000
0000
0000
0010
0000
0100
,
1000
0001
0010
0001
0000
0001
0100
0001
,
0000
1000
0010
1000
0001
0000
0100
0010
,
1000
0001
0000
0100
,
0010
1000
0100
0000
0000
0000
0000
0000
0000
0000
0000
0000
0000
0000
0000
0000
,
0000
0000
0000
0000
0000
0000
0010
0000
0000
0000
0100
0010
0002
0000
0000
0000
0000
0000
0003
0000
0000
0000
0000
0000
;

//---------------dance-single - ----------------
#NOTES:
     dance-single:
     :
     Beginner:
     3:
     0.102,0.124,0.007,0.007,0.212: // measure 1
0000
0000
0000
0000
,  // measure 2
0000
0000
0000
0000
,  // measure 3
0000
0000
0000
0000
,  // measure 4
0000
1000
0000
0000
0000
0000
0000
0000
0000
0000
0000
0000
0000
0001
0000
0000
,  // measure 5
0000
0000
1000
0000
,  // measure 6
0000
0001
0000
0000
,  // measure 7
0000
0010
0000
0000
0000
0000
0000
0000
0000
0000
0000
0000
0000
0100
0000
0000
,  // measure 8
0000
0000
0010
0000
,  // measure 9
0000
0100
0000
0000
,  // measure 10
0000
1000
0000
0000
0000
0000
0000
0000
0000
0000
0000
0000
0000
0010
0000
0000
,  // measure 11
0000
0000
1000
0000
,  // measure 12
0000
0010
0000
0000
,  // measure 13
0000
0100
0000
0000
0000
0000
0000
0100
0000
0000
0000
0000
0000
0000
0000
0000
,  // measure 14
0000
0001
0000
0000
0000
0000
0000
0001
0000
0000
0000
0000
0000
0000
0000
0000
,  // measure 15
0000
0010
0000
0000
0000
0000
0000
0010
0000
0000
0000
0000
0000
0000
0000
0000
,  // measure 16
0000
0001
0000
0000
0000
0000
0000
0001
0000
0000
0000
0000
0000
0000
0000
0000
,  // measure 17
0000
1000
0000
0000
0000
0000
0000
1000
0000
0000
0000
0000
0000
0000
0000
0000
,  // measure 18
0000
0100
0000
0000
0000
0000
0000
0100
0000
0000
0000
0000
0000
0000
0000
0000
,  // measure 19
0000
0010
0000
0000
0000
0000
0000
0010
0000
0000
0000
0000
0000
0000
0000
0000
,  // measure 20
0000
0001
0000
0000
0000
0000
0000
0010
0000
0000
0000
0000
0000
0000
0000
0000
,  // measure 21
0000
0000
0000
0000
0001
0000
0000
0000
0000
0000
0000
0000
0000
0000
0000
1000
,  // measure 22
0000
0000
0000
0000
0000
0000
0000
0100
,  // measure 23
0000
0000
0000
0000
0000
0000
0000
0010
,  // measure 24
0000
0000
0000
0000
0000
0000
0000
0001
,  // measure 25
0000
0000
0000
0000
0010
0000
0000
0000
0000
0000
0000
0000
0000
0000
0000
0001
,  // measure 26
0000
0000
0000
0000
0000
0000
0000
0100
,  // measure 27
0000
0000
0000
0000
0000
0000
0000
0010
,  // measure 28
0000
0000
0000
0000
,  // measure 29
1000
0000
0000
0000
,  // measure 30
0000
0000
0100
0000
,  // measure 31
0000
0010
0000
0001
,  // measure 32
0001
0000
0000
0000
,  // measure 33
0000
0000
0100
0000
,  // measure 34
0000
0010
0000
1000
,  // measure 35
1000
0000
0000
0000
,  // measure 36
0000
0000
0100
0000
,  // measure 37
0000
0010
0000
0000
,  // measure 38
1001
0000
0000
0000
,  // measure 39
0000
0000
0000
0000
0000
0001
0000
0000
0000
0000
0000
0000
,  // measure 40
0000
0000
0000
0000
,  // measure 41
0000
0000
0000
0000
,  // measure 42
0000
1000
0000
0000
0000
0000
0000
0001
0000
0000
0000
0000
0000
0000
0000
0000
,  // measure 43
0000
0010
0000
0000
0000
0000
0000
0001
0000
0000
0000
0000
0000
0000
0000
0000
,  // measure 44
0000
0010
0000
0000
0000
0000
0000
0100
0000
0000
0000
0000
0000
0000
0000
0000
,  // measure 45
0000
1000
0000
0000
0000
0000
0000
0100
0000
0000
0000
0000
0000
0000
0000
0000
,  // measure 46
0000
1000
0000
0000
0000
0000
0000
0010
0000
0000
0000
0000
0000
0000
0000
0000
,  // measure 47
0000
0100
0000
0000
0000
0000
0000
0001
0000
0000
0000
0000
0000
0000
0000
0000
,  // measure 48
0000
0010
0000
0000
0000
0000
0000
0001
0000
0000
0000
0000
0000
0000
0000
0000
,  // measure 49
0000
0100
0000
0000
0000
0000
0000
0010
0000
0000
0000
0000
0000
1000
0000
0000
,  // measure 50
0000
1000
0000
0000
0000
0000
0000
0010
0000
0000
0000
0000
0000
0000
0000
0000
,  // measure 51
0000
1000
0000
0000
0000
0000
0000
0001
0000
0000
0000
0000
0000
0000
0000
0000
,  // measure 52
0000
0010
0000
0000
0000
0000
0000
0001
0000
0000
0000
0000
0000
0000
0000
0000
,  // measure 53
0000
0010
0000
0000
0000
0000
0000
0100
0000
0000
0000
0000
0000
0000
0000
0000
,  // measure 54
0000
1000
0000
0000
0000
0000
0000
0100
0000
0000
0000
0000
0000
0000
0000
0000
,  // measure 55
0000
1000
0000
0000
0000
0000
0000
0001
0000
0000
0000
0000
0000
0000
0000
0000
,  // measure 56
0000
0100
0000
0000
0000
0000
0000
0010
0000
0000
0000
0000
0000
0000
0000
0000
,  // measure 57
0000
1000
0000
0000
0000
0000
0000
0100
0000
0000
0000
0000
0000
0000
0000
0000
,  // measure 58
0010
0000
0000
0000
,  // measure 59
0000
0000
0001
0000
,  // measure 60
0000
1000
0000
0000
,  // measure 61
0010
0000
1000
0000
,  // measure 62
0000
0000
0001
0000
,  // measure 63
0000
0000
0000
0000
,  // measure 64
0100
0000
0000
0000
,  // measure 65
0000
0000
0010
0000
,  // measure 66
0000
1000
0000
0001
,  // measure 67
0001
0000
0000
0000
,  // measure 68
0000
0010
0020
0030
;
