#TITLE:Todestrieb;
#SUBTITLE:;
#ARTIST:Rche;
#TITLETRANSLIT:;
#SUBTITLETRANSLIT:;
#ARTISTTRANSLIT:;
#CREDIT:;
#BANNER:;
#BACKGROUND:;
#LYRICSPATH:;
#CDTITLE:;
#MUSIC:Todestrieb.mp3;
#OFFSET:0.144;
#SAMPLESTART:42.000;
#SAMPLELENGTH:12.000;
#SELECTABLE:YES;
#BPMS:0.000=185.001;
#STOPS:;
#BGCHANGES:;

//---------------dance-single - ----------------
#NOTES:
     dance-single:
     :
     Hard:
     9:
     0.615,0.820,0.541,0.224,0.216:
0000
0000
0000
0000
,
0000
0000
0000
0000
,
0000
0000
0000
0000
1001
0000
0001
0100
,
0000
0100
0010
0000
0010
1000
0000
1000
,
0100
1000
0100
1000
0100
0000
0100
1000
,
0000
1000
0100
0000
0100
0010
0000
0010
,
0001
0010
0001
0010
0001
0000
0001
0010
,
0000
0010
0100
0000
0100
1000
0000
1000
,
0010
1000
0010
1000
0010
0100
0001
0010
,
0100
1000
0100
0001
0100
0010
0001
0100
,
1000
0100
0001
0010
0100
1000
0010
0001
,
0010
0100
0001
0010
1000
0010
0001
0100
,
0010
1000
0100
0010
0001
0010
0100
1000
,
0100
0001
0100
1000
0010
0100
0001
0010
,
1000
0010
0001
0100
0010
0100
0001
0010
,
0100
1000
0100
0010
0001
0100
1000
0100
,
0001
0010
0100
1000
0001
0000
1000
0000
,
0001
0010
0100
1000
,
0001
0000
1000
0001
1000
0000
0100
0000
,
0010
0001
0010
0100
,
1000
0000
0001
1000
0001
0000
1000
0000
,
0100
0001
0100
1000
,
0010
0000
0100
0010
0100
0000
0001
0000
,
0100
1000
0100
0001
,
0100
0010
2000
0000
,
0000
0000
3020
0000
,
0000
0000
0230
0000
,
0000
0000
0302
0000
,
0000
0000
0203
0000
,
0000
0000
0320
0000
,
0000
0000
2030
0000
,
0000
0000
3002
0000
,
2000
0000
0000
0000
3003
0000
0000
0000
0000
0000
1000
0000
0000
0100
0000
0000
,
0001
0000
0000
0100
0000
0000
1000
0000
0000
0000
0001
0000
0000
0100
0000
0000
,
1000
0000
0000
0100
0000
0000
0001
0000
0000
0000
1000
0000
0000
0010
0000
0000
,
0100
0000
0000
0001
0000
0000
0010
0000
0000
0000
0011
0000
0000
0101
0000
0000
,
1001
0000
0000
1010
0000
0000
1100
0000
0000
0000
1000
0000
0000
0001
0000
0000
,
0010
0000
0000
0100
0000
0000
1000
0000
0000
0000
0001
0000
0000
0010
0000
0000
,
1000
0000
0000
0010
0000
0000
0001
0000
0000
0000
1000
0000
0000
0010
0000
0000
,
0001
0000
0000
0010
0000
0000
1000
0000
0000
0000
1010
0000
0000
1100
0000
0000
,
1001
0000
0000
0101
0000
0000
0011
0000
0000
0000
0001
0000
0000
0010
0000
0000
,
0100
0000
0000
1000
0000
0000
0001
0000
0000
0000
1000
0000
0000
0100
0000
0000
,
0010
0000
0000
0001
0000
0000
1000
0000
0000
0000
0001
0000
0000
1000
0000
0000
,
0001
0000
0000
1000
0000
0000
0001
0000
0000
0000
1001
0000
0000
0101
0000
0000
,
1001
0000
0000
1100
0000
0000
1001
0000
0000
0000
1000
0000
0000
0001
0000
0000
,
0100
0000
0000
0001
0000
0000
1000
0000
0000
0000
0001
0000
0000
1000
0000
0000
,
0100
0000
0000
1000
0000
0000
0001
0000
0000
0000
1000
0000
0000
0010
0000
0000
,
0100
0000
0000
0001
0000
0000
0010
0000
0000
0000
0011
0000
0000
0101
0000
0000
,
1001
0000
0000
1010
0000
0000
1100
0000
2000
0000
0000
0000
0000
0000
0000
0000
,
0000
0000
0000
3000
0020
0000
0000
0000
,
0200
0000
0000
0030
0002
0000
0000
0300
,
0020
0000
0000
0003
0200
0000
0000
0030
,
0000
0000
0000
0300
2000
0000
0000
0000
,
0000
0000
0000
3000
0002
0000
0000
0000
,
0020
0000
0000
0003
0200
0000
0000
0030
,
2000
0000
0000
0300
0002
0000
0000
0000
,
0000
0000
0000
0000
3003
0000
0000
0000
0000
0000
0000
0000
1001
0000
0000
0001
,
1000
0000
0100
0000
0001
0000
0100
0000
1000
0000
0000
0000
1001
0000
0000
1000
,
0001
0000
0100
0000
1000
0000
0100
0000
0001
0000
0000
0000
0101
0000
0000
0001
,
0100
0000
0010
0000
1000
0000
0100
0000
1000
0000
0000
0000
1100
0000
0000
1000
,
0100
0000
0010
0000
0001
0000
0100
0000
0001
0000
0000
0000
1001
0000
0000
1000
,
0001
0000
1000
0000
0001
0000
1000
0000
0001
0000
0000
0000
1001
0000
0000
0001
,
1000
0000
0001
0000
1000
0000
0001
0000
1000
0000
0000
0000
1001
0000
0000
1000
,
0001
0000
0010
0000
1000
0000
0010
0000
0001
0000
0000
0000
1001
0000
0000
0001
,
1000
0001
1000
0000
0001
0010
0100
1000
,
0001
1000
0100
0000
1000
0010
0100
0001
,
0010
0100
0010
0000
0001
0100
0010
0100
,
0001
1000
0100
0000
1000
0100
0001
0100
,
1000
0010
0100
0000
0001
0100
1000
0100
,
0001
0010
0100
0000
1000
0100
0010
0001
,
0010
0100
1000
0000
0001
0010
0100
1000
,
0100
0010
0001
0000
0001
1000
0001
1000
,
0001
1000
0001
0000
1000
0100
0001
0100
,
1000
0010
0100
0001
0100
1000
0100
0001
,
0010
0100
1000
0100
0001
0100
0010
0001
,
0100
1000
0100
0010
1000
0100
0010
0001
,
0010
0100
1000
0010
0001
0010
0100
1000
,
0100
0010
1000
0100
0010
0001
0010
1000
,
0010
0001
0100
1000
0100
0010
0001
0010
,
0100
0001
0010
0100
1000
0010
0100
0001
,
1000
0000
0001
0000
1000
0000
0000
0000
0000
0000
1010
0000
0000
1100
0000
0000
,
1001
0000
0000
0101
0000
0000
0011
0000
0000
0000
0011
0000
0000
0101
0000
0000
,
1001
0000
0000
1100
0000
0000
1010
0000
0000
0000
1010
0000
0000
0101
0000
0000
,
1001
0000
0000
0011
0000
0000
1100
0000
0000
0000
1100
0000
0000
0011
0000
0000
,
1001
0000
0000
0101
0000
0000
1010
0000
0000
0000
1001
0000
0000
1010
0000
0000
,
0110
0000
0000
0101
0000
0000
0011
0000
0000
0000
1001
0000
0000
0011
0000
0000
,
0101
0000
0000
0110
0000
0000
1010
0000
0000
0000
1001
0000
0000
1100
0000
0000
,
1010
0000
0000
0110
0000
0000
0101
0000
0000
0000
0011
0000
0000
0110
0000
0000
,
1100
0000
0000
1010
0000
0000
0110
0000
0200
0000
0000
0000
0000
0000
0000
0000
,
0000
0000
0302
0000
,
0000
0000
0023
0000
,
0000
0000
0230
0000
,
0000
0000
2300
0000
,
0000
0000
3020
0000
,
0000
0000
0230
0000
,
0000
0000
0002
0000
,
0000
0303
0101
0000
;

//---------------dance-single - ----------------
#NOTES:
     dance-single:
     :
     Challenge:
     10:
     0.807,0.969,0.155,0.216,0.665: // measure 1
0000
0000
0000
0000
,  // measure 2
0000
0000
0000
0000
,  // measure 3
0000
0000
0000
0000
0110
0000
0000
1001
,  // measure 4
0000
0000
1010
0000
0000
0101
0000
0000
,  // measure 5
0011
0000
1100
0000
1001
0000
0000
1010
,  // measure 6
0000
0000
0101
0000
0000
0011
0000
0000
,  // measure 7
1100
0000
0101
0000
1001
0000
0000
0110
,  // measure 8
0000
0000
1010
0000
0000
1001
0000
0000
,  // measure 9
0101
0000
1001
0000
0001
0010
0100
1000
,  // measure 10
0100
0010
0001
0100
1000
0100
0001
0010
,  // measure 11
0100
1000
0010
0001
0010
1000
0100
0010
,  // measure 12
0100
1000
0100
0010
0001
0010
0100
0010
,  // measure 13
0001
0100
1000
0100
0010
1000
0100
0010
,  // measure 14
0001
0010
0100
1000
0010
0001
0010
0100
,  // measure 15
0001
0010
0100
1000
0001
0010
0100
1000
,  // measure 16
0100
0010
0001
1000
0100
0010
0001
0010
,  // measure 17
0100
1000
0100
0010
0001
0000
0100
0000
,  // measure 18
1000
0100
0001
0010
,  // measure 19
0100
0000
1000
0100
1000
0000
0010
0000
,  // measure 20
0001
0010
1000
0100
,  // measure 21
0010
0000
0001
0010
0001
0000
0010
0000
,  // measure 22
1000
0010
0001
0010
,  // measure 23
0100
0000
1000
0010
1000
0000
0100
0000
,  // measure 24
0001
0100
1000
0010
,  // measure 25
0100
0000
0000
0000
0001
0000
0000
0000
2000
0000
0000
0000
0000
0000
0000
3000
,  // measure 26
0001
1000
0100
0010
0001
1000
0100
0010
0002
0000
0000
0000
0000
0000
0000
0003
,  // measure 27
1000
0001
0010
0100
1000
0001
0010
0100
2000
0000
0000
0000
0000
0000
0000
3000
,  // measure 28
0001
1000
0010
0100
0001
1000
0010
0100
0002
0000
0000
0000
0000
0000
0003
0000
,  // measure 29
1000
0001
0100
0010
1000
0001
0100
0010
2000
0000
0000
0000
0000
0000
0000
3000
,  // measure 30
0001
0100
0010
0100
0001
0100
0010
0100
0002
0000
0000
0000
0000
0000
0000
0003
,  // measure 31
1000
0010
0100
0010
1000
0010
0100
0010
2000
0000
0000
0000
0000
0000
3000
0000
,  // measure 32
0001
1000
0010
0100
0001
1000
0010
0100
0002
0000
0000
0000
0000
0000
0000
0000
,  // measure 33
0003
0000
1000
0000
1001
0000
0000
0000
0001
0000
1000
0000
0001
1000
0000
0001
,  // measure 34
1000
0000
0001
1000
0000
0001
1000
0000
0001
0000
0100
0000
0001
0010
0000
0010
,  // measure 35
0100
0000
0100
1000
0000
1000
0010
0000
0100
0000
0001
0000
0010
0001
0000
0010
,  // measure 36
0001
0000
0010
0001
0000
0010
0001
0000
1000
0000
0010
0000
0100
0001
0000
0001
,  // measure 37
0100
0000
0100
0010
0000
0010
1000
0000
0100
0000
0010
0000
0001
0100
0000
0010
,  // measure 38
1000
0000
0001
0100
0000
0010
1000
0000
0010
0000
0100
0000
0001
0100
0000
0001
,  // measure 39
0100
0000
0001
0100
0000
0001
0100
0000
0010
0000
1000
0000
0001
1000
0000
1000
,  // measure 40
0001
0000
0001
0100
0000
0100
0010
0000
0100
0000
0010
0000
0100
0010
0000
0100
,  // measure 41
0010
0000
0100
0010
0000
0100
0010
0000
1000
0000
0100
0000
0010
0001
0000
1000
,  // measure 42
0100
0000
0010
0001
0000
1000
0100
0000
0010
0000
0001
0000
1000
0001
0000
1000
,  // measure 43
0001
0000
1000
0001
0000
1000
0001
0000
1000
0000
0001
0000
1000
0010
0000
0010
,  // measure 44
0100
0000
0100
0001
0000
0001
0010
0000
0001
0000
1000
0000
0001
1000
0000
0001
,  // measure 45
1000
0000
0001
1000
0000
0001
1000
0000
0001
0000
0010
0000
0100
0010
0000
0010
,  // measure 46
0001
0000
0001
1000
0000
1000
0010
0000
0100
0000
0001
0000
1000
0001
0000
1000
,  // measure 47
0001
0000
1000
0001
0000
1000
0001
0000
1000
0000
0001
0000
1000
0010
0000
0100
,  // measure 48
0001
0000
1000
0010
0000
0100
0001
0000
1000
0000
0001
0000
1000
0001
0000
1000
,  // measure 49
0001
0000
1000
0001
0000
1000
0001
0000
2000
0000
0000
0000
0000
0000
0000
0000
,  // measure 50
0000
0000
0000
3000
0020
0000
0000
0000
,  // measure 51
0200
0000
0000
0030
0002
0000
0000
0300
,  // measure 52
0020
0000
0000
0003
0200
0000
0000
0030
,  // measure 53
0000
0000
0000
0300
2000
0000
0000
0000
,  // measure 54
0000
0000
0000
3000
0200
0000
0000
0000
,  // measure 55
0020
0000
0000
0300
0002
0000
0000
0030
,  // measure 56
2000
0000
0000
0003
0002
0000
0000
3003
,  // measure 57
0000
0000
0000
0000
0000
0000
0000
0000
1000
0000
0010
0000
0100
0001
0100
0001
,  // measure 58
0100
0000
0001
0000
0010
0000
1000
0000
0010
0000
0001
0000
1000
0001
1000
0001
,  // measure 59
1000
0000
0100
0000
0001
0000
0100
0000
1000
0000
0010
0000
0100
0001
0010
0100
,  // measure 60
1000
0000
0010
0000
0100
0000
0001
0000
0010
0000
0100
0000
1000
0010
0100
0001
,  // measure 61
0010
0000
0001
0000
0100
0000
1000
0000
0100
0000
0001
0000
0010
0100
0010
0100
,  // measure 62
0010
0000
0001
0000
0100
0000
0010
0000
1000
0000
0100
0000
0010
0001
0010
0001
,  // measure 63
0010
0000
0100
0000
1000
0000
0010
0000
0100
0000
0001
0000
1000
0001
0100
0001
,  // measure 64
1000
0000
0001
0000
1000
0000
0010
0000
0001
0000
0010
0000
1000
0001
1000
0001
,  // measure 65
1000
0000
0001
0000
1000
0000
0000
0000
0001
0000
0010
0000
0100
0000
1000
0100
,  // measure 66
1000
0100
1000
0000
0100
1000
0000
0000
1000
0000
0010
0000
0100
0000
0001
0010
,  // measure 67
0001
0010
0001
0000
0010
0001
0000
0000
0001
0000
0100
0000
1000
0000
0100
0001
,  // measure 68
0010
0100
1000
0000
0001
1000
0000
0000
1000
0000
0100
0000
0001
0000
0100
1000
,  // measure 69
0010
0100
0001
0000
1000
0001
0000
0000
0001
0000
0010
0000
0100
0000
1000
0001
,  // measure 70
1000
0001
1000
0000
0001
1000
0000
0000
1000
0000
0010
0000
0100
0000
0001
1000
,  // measure 71
0001
1000
0001
0000
1000
0001
0000
0000
0001
0000
0010
0000
0100
0000
1000
0010
,  // measure 72
0100
0001
1000
0000
0001
1000
0000
0000
1000
0000
0010
0000
0100
0000
0001
0010
,  // measure 73
0100
1000
0001
0000
1000
0001
0000
0000
0001
0000
0010
0000
0100
0000
1000
0000
,  // measure 74
0010
0001
0010
0100
0001
0010
0100
1000
,  // measure 75
0100
0010
0001
0100
1000
0100
0001
1000
,  // measure 76
0100
0010
0001
0010
0100
1000
0100
0001
,  // measure 77
0100
1000
0010
0100
0001
0010
0100
1000
,  // measure 78
0001
0100
1000
0100
0001
1000
0100
0010
,  // measure 79
0001
1000
0001
0010
0100
1000
0010
0100
,  // measure 80
0001
0000
0010
0000
0100
0000
1000
0000
0001
0100
0010
1000
0001
0010
0100
1000
,  // measure 81
0001
0100
0010
1000
0001
0010
0100
1000
0001
0000
1000
0000
0001
0010
0100
1000
,  // measure 82
0100
0000
1000
0001
0000
1000
0001
0000
1000
0000
0010
0000
1000
0010
0100
0001
,  // measure 83
0010
0000
0001
0100
0000
0001
0100
0000
0001
0000
0010
0000
0100
1000
0010
0100
,  // measure 84
0001
0000
1000
0001
0000
1000
0001
0000
0010
0000
0100
0000
1000
0010
0100
0001
,  // measure 85
0010
0000
0100
1000
0000
0100
1000
0000
0010
0000
0100
0000
0001
0010
0100
1000
,  // measure 86
0010
0000
0100
0001
0000
0100
0001
0000
0010
0000
0100
0000
1000
0010
0100
0001
,  // measure 87
0010
0000
0001
0100
0000
0001
0100
0000
0010
0000
0100
0000
0001
0010
0100
1000
,  // measure 88
0010
0000
1000
0001
0000
1000
0001
0000
0010
0000
0100
0000
1000
0001
1000
0001
,  // measure 89
1000
0000
0001
1000
0000
0001
1000
0000
0002
0000
0000
0000
0000
0000
0000
0000
,  // measure 90
0000
0000
2003
0000
,  // measure 91
0000
0000
3002
0000
,  // measure 92
0000
0000
0023
0000
,  // measure 93
0000
0000
0230
0000
,  // measure 94
0000
0000
2300
0000
,  // measure 95
0000
0000
3002
0000
,  // measure 96
0000
0000
2000
0000
,  // measure 97
0000
3003
1001
0000
;

//---------------dance-single - Copied from----------------
#NOTES:
     dance-single:
     Copied from:
     Medium:
     6:
     0.455,0.559,0.193,0.216,0.124:
0000
0000
0000
0000
,
0000
0000
0000
0000
,
0000
0000
0000
0000
0010
0000
0000
1000
,
0000
0000
0001
0000
0000
0100
0000
0000
,
0010
0000
1000
0000
0001
0000
0000
1000
,
0000
0000
0010
0000
0000
0100
0000
0000
,
0001
0000
0100
0000
0010
0000
0000
1000
,
0000
0000
0001
0000
0000
0010
0000
0000
,
0100
1000
0001
1000
,
0010
0000
0100
0000
0001
0100
0001
0000
,
1000
0001
1000
0000
0100
0000
1000
0000
,
0010
0000
0100
0000
0001
0100
0001
0000
,
0100
0001
0100
0000
0010
0000
1000
0000
,
0001
0000
0010
0000
0100
0010
0100
0000
,
0010
0100
0010
0000
0100
0000
1000
0000
,
0010
0000
0100
0000
0001
0100
0001
0000
,
0100
0001
0100
0000
0001
0000
0010
0000
,
0100
1000
0010
0100
,
0001
0100
1000
0100
,
0001
0010
1000
0010
,
0001
0010
0100
1000
,
0100
0010
0001
0010
,
0100
1000
0001
0100
,
0010
0100
0001
0010
,
0100
1000
0002
0000
,
0000
0000
2003
0000
,
0000
0000
3020
0000
,
0000
0000
0230
0000
,
0000
0000
0302
0000
,
0000
0000
0203
0000
,
0000
0000
0320
0000
,
0000
2030
0000
0000
,
3000
0000
0000
0000
0000
0000
0000
0000
0000
0000
0010
0000
0000
1000
0000
0000
,
0001
0000
0000
0100
0000
0000
0010
0000
0000
0000
0100
0000
0000
0010
0000
0000
,
1000
0000
0000
0001
0000
0000
1000
0000
0000
0000
0001
0000
0000
1000
0000
0000
,
0001
0000
0000
1000
0000
0000
0001
0000
0000
0000
1000
0000
0000
0001
0000
0000
,
1000
0000
0000
0001
0000
0000
1000
0000
0000
0000
0010
0000
0000
1000
0000
0000
,
0001
0000
0000
1000
0000
0000
0100
0000
0000
0000
0010
0000
0000
0001
0000
0000
,
0010
0000
0000
0100
0000
0000
1000
0000
0000
0000
0001
0000
0000
0010
0000
0000
,
0100
0000
0000
1000
0000
0000
0001
0000
0000
0000
1000
0000
0000
0001
0000
0000
,
1000
0000
0000
0001
0000
0000
1000
0000
0000
0000
0001
0000
0000
0100
0000
0000
,
0001
0000
0000
1000
0000
0000
0001
0000
0000
0000
1000
0000
0000
0010
0000
0000
,
0100
0000
0000
0001
0000
0000
1000
0000
0000
0000
0001
0000
0000
0001
0000
0000
,
0001
0000
0000
0001
0000
0000
0001
0000
0000
0000
1000
0000
0000
1000
0000
0000
,
1000
0000
0000
1000
0000
0000
1000
0000
0000
0000
0010
0000
0000
0100
0000
0000
,
0001
0000
0000
0100
0000
0000
0010
0000
0000
0000
1000
0000
0000
0100
0000
0000
,
0010
0000
0000
0100
0000
0000
1000
0000
0000
0000
0001
0000
0000
1000
0000
0000
,
0001
0000
0000
1000
0000
0000
0001
0000
0000
0000
1000
0000
0000
0001
0000
0000
,
1000
0000
0000
0001
0000
0000
1000
0000
0002
0000
0000
0000
0000
0000
0000
0000
,
0000
0000
0000
0003
0020
0000
0000
0000
,
0200
0000
0000
0030
2000
0000
0000
0300
,
0020
0000
0000
3000
0200
0000
0000
0030
,
0000
0000
0000
0300
0002
0000
0000
0000
,
0000
0000
0000
0003
0020
0000
0000
0000
,
0200
0000
0000
0030
2000
0000
0000
0300
,
0002
0000
0000
3000
2000
0000
0000
0000
,
3003
0000
0001
1000
,
0001
1001
1000
0001
,
1000
1001
0001
0100
,
0001
0101
0100
0010
,
0100
0110
0010
1000
,
0010
1010
1000
0001
,
1000
1001
0001
0100
,
0001
0101
0100
0010
,
0100
0000
0110
0000
0010
1000
0010
0000
,
1000
0000
1010
0000
1000
0001
1000
0000
,
0001
0000
1001
0000
0001
1000
0001
0000
,
1000
0000
1001
0000
1000
0010
1000
0000
,
0010
0000
1010
0000
0010
0100
0010
0000
,
0100
0000
0101
0000
0001
0010
0001
0000
,
0010
0000
0011
0000
0010
0100
0010
0000
,
0100
0000
1100
0000
0100
1000
0100
0000
,
1000
1010
0010
1000
,
0001
1001
0001
1000
,
0001
1001
1000
0010
,
1000
1010
0010
0100
,
0010
0110
0100
0001
,
0100
0101
0001
0010
,
0001
0011
0010
0100
,
0010
0110
0100
1000
,
0100
0000
1100
0000
0010
1000
0001
1000
,
0010
1000
0001
0000
0001
0010
0100
0010
,
0001
0010
0100
0000
0001
0100
1000
0100
,
0001
0100
1000
0000
1000
0100
0001
0100
,
1000
0100
0001
0000
0001
0010
1000
0010
,
0001
0010
1000
0000
1000
0100
0001
0100
,
1000
0100
0001
0000
0001
0010
0100
1000
,
0001
0010
0100
0000
1000
0010
0100
0001
,
1000
0010
0100
0000
0020
0000
0000
0000
,
0000
0000
2030
0000
,
0000
0000
3002
0000
,
0000
0000
0023
0000
,
0000
0000
0230
0000
,
0000
0000
2300
0000
,
0000
0000
3002
0000
,
0000
0000
2000
0000
,
0000
3003
1001
0000
;

//---------------dance-single - ----------------
#NOTES:
     dance-single:
     :
     Easy:
     4:
     0.355,0.410,0.100,0.216,0.000:
0000
0000
0000
0000
,
0000
0000
0000
0000
,
0000
0000
0010
0000
,
0100
0000
0001
0000
,
1000
0000
0001
0000
,
0100
0000
0010
0000
,
1000
0000
1000
0000
,
0010
0000
0100
0000
,
0001
0000
0001
1000
,
0001
1000
0001
1000
,
0001
0000
0010
0100
,
0010
0100
0010
0100
,
0010
0000
1000
0010
,
0100
0001
1000
0010
,
0100
0000
0001
0010
,
0100
1000
0001
0010
,
0100
0000
1000
0010
,
0100
0001
0100
0010
,
1000
0001
1000
0100
,
0010
0001
0010
0100
,
1000
0001
1000
0010
,
0100
0001
0100
0010
,
1000
0001
1000
0100
,
0010
0001
0010
0100
,
1000
0001
2000
0000
,
0000
0000
3020
0000
,
0000
0000
0230
0000
,
0000
0000
0302
0000
,
0000
0000
0203
0000
,
0000
0000
0320
0000
,
0000
0000
2030
0000
,
0000
0000
3200
0000
,
0000
0300
0001
0000
,
0001
0000
1000
0000
,
1000
0000
0001
0000
,
0001
0000
0001
1000
,
0001
1000
0001
0000
,
0001
0000
1000
0000
,
1000
0000
0001
0000
,
0001
0000
0010
0100
,
1000
0001
1000
0001
,
1000
0001
1000
0010
,
1000
0010
1000
0010
,
0100
0010
0100
0001
,
0100
0001
0010
0001
,
0010
0001
0010
0100
,
0010
0100
1000
0100
,
1000
0100
1000
0010
,
1000
0010
2000
0000
,
0000
0000
0000
3000
0020
0000
0000
0000
,
0200
0000
0000
0030
0002
0000
0000
0300
,
2000
0000
0000
0003
0002
0000
0000
3000
,
0000
0000
0000
0003
0020
0000
0000
0000
,
0000
0000
0000
0030
0200
0000
0000
0000
,
2000
0000
0000
0300
0020
0000
0000
3000
,
0200
0000
0000
0030
0002
0000
0000
0000
,
0000
0303
0001
0010
,
0100
1100
1000
0010
,
0100
0101
0001
1000
,
0001
1001
1000
0001
,
1000
1001
0001
0010
,
0100
1100
1000
0010
,
0100
0101
0001
0010
,
0100
1100
1000
0010
,
0100
0101
0001
1000
,
0001
1000
1000
0010
,
1000
0010
0100
0010
,
0100
0010
0100
0001
,
0100
0001
0001
0010
,
0100
1100
1000
0010
,
0100
0101
0001
1000
,
0001
1001
1000
0001
,
1000
1001
0001
0010
,
0100
1000
0001
0010
,
0100
1000
0010
0100
,
0001
1000
0010
0100
,
0001
1000
0001
1000
,
0001
1000
0001
1000
,
0001
1000
0001
0010
,
0100
1000
0100
0010
,
0001
1000
0001
1000
,
0001
1000
0010
1000
,
0010
1000
0001
0100
,
0001
0100
0001
0010
,
0100
1000
1000
0010
,
0100
0001
1000
0010
,
0100
0001
0010
0100
,
1000
0001
0010
0100
,
1000
0001
2000
0000
,
0000
0000
3200
0000
,
0000
0000
0320
0000
,
0000
0000
0032
0000
,
0000
0000
2003
0000
,
0000
0000
3020
0000
,
0000
0000
0230
0000
,
0000
0000
0002
0000
,
0000
0303
0101
0000
;

//---------------dance-single - ----------------
#NOTES:
     dance-single:
     :
     Beginner:
     3:
     0.219,0.336,0.008,0.000,0.000:
0000
0000
0000
0000
,
0000
0000
0000
0000
,
0000
0000
0001
0000
,
0001
0000
1000
0000
,
1000
0000
0010
0000
,
0010
0000
0100
0000
,
0100
0000
0001
0000
,
0001
0000
1000
0000
,
1000
0000
0001
0000
,
0000
0000
0001
0000
,
0000
0000
1000
0000
,
0000
0000
1000
0000
,
0000
0000
0010
0000
,
0000
0000
0010
0000
,
0000
0000
0100
0000
,
0000
0000
0100
0000
,
0000
0000
0001
0000
,
0001
0000
0001
0000
,
0001
0000
1000
0000
,
1000
0000
1000
0000
,
1000
0000
0010
0000
,
0010
0000
0010
0000
,
0010
0000
0100
0000
,
0100
0000
0100
0000
,
0100
0000
0001
0000
,
0000
0000
1000
0000
,
0000
0000
0001
0000
,
0000
0000
1000
0000
,
0000
0000
0010
0000
,
0000
0000
0100
0000
,
0000
0000
0010
0000
,
0000
0000
0100
0000
,
0000
0000
0001
0000
,
0001
0000
1000
0000
,
1000
0000
0001
0000
,
0001
0000
0001
0100
,
1000
0000
1000
0000
,
1000
0000
0001
0000
,
0001
0000
1000
0000
,
1000
0000
1000
0010
,
0001
0000
0001
0000
,
0001
0000
1000
0000
,
1000
0000
0001
0000
,
0001
0000
0001
0100
,
1000
0000
1000
0000
,
1000
0000
0001
0000
,
0001
0000
1000
0000
,
1000
0000
1000
0010
,
0001
0000
1000
0000
,
0000
0000
0010
0000
,
0100
0000
0001
0000
,
0010
0000
0100
0000
,
0000
0000
1000
0000
,
0000
0000
0001
0000
,
1000
0000
0001
0000
,
1000
0000
0001
0000
,
0000
0000
0001
1000
,
0001
0000
1000
0001
,
1000
0000
0010
0100
,
0010
0000
0100
0010
,
0100
0000
0001
0010
,
1000
0000
1000
0010
,
0001
0000
0001
0100
,
1000
0000
1000
0100
,
0001
0000
0001
0001
,
0001
0000
1000
1000
,
1000
0000
0010
0010
,
0010
0000
0100
0100
,
0100
0000
0001
1000
,
0001
0000
1000
0001
,
1000
0000
0001
0010
,
1000
0000
1000
0010
,
0001
0000
0001
0100
,
1000
0100
0001
0010
,
1000
0010
0001
0100
,
1000
0100
0001
0010
,
0100
1000
0010
0100
,
0001
0100
0010
1000
,
0100
0010
0001
0010
,
0100
1000
0001
1000
,
0001
1000
0000
0010
,
0000
0010
0000
0100
,
0000
0100
0000
0001
,
0000
0001
0000
1000
,
0000
1000
0000
0001
,
0000
0001
0000
1000
,
0000
1000
0000
0010
,
0000
0010
0000
0100
,
0000
0100
0001
0000
,
0000
0000
1000
0000
,
0000
0000
0001
0000
,
0000
0000
1000
0000
,
0000
0000
0001
0000
,
0000
0000
1000
0000
,
0000
0000
0001
0000
,
0000
0000
1000
0000
,
0000
0000
1001
0000
;
