#TITLE:Shining Wizard;
#SUBTITLE:;
#ARTIST:96;
#TITLETRANSLIT:;
#SUBTITLETRANSLIT:;
#ARTISTTRANSLIT:;
#CREDIT:;
#BANNER:Shining Wizard.png;
#BACKGROUND:Shining Wizard-bg.png;
#LYRICSPATH:;
#CDTITLE:;
#MUSIC:Shining Wizard.mp3;
#OFFSET:-5.740;
#SAMPLESTART:51.300;
#SAMPLELENGTH:12.150;
#SELECTABLE:YES;
#BPMS:0.000=158.000;
#STOPS:;
#BGCHANGES:;

//---------------dance-single - ----------------
#NOTES:
     dance-single:
     :
     Hard:
     9:
     0.714,0.741,0.627,0.270,0.314:
2002
0000
0000
0000
0000
0000
0003
0100
,
0200
0000
0000
3300
0000
0110
0000
2002
,
0000
0000
0000
0000
0000
3003
0000
0202
,
0000
0303
2002
0000
3003
0100
0220
0000
,
0000
0000
0000
0000
0030
0001
0002
0000
,
0000
0000
0303
1010
0000
1001
0000
1000
,
0100
0000
0010
0000
0001
0000
0100
0000
0010
0000
1010
0000
0000
1000
0100
0000
,
0110
0000
0000
0010
0001
0000
1000
0000
0220
0000
0000
0000
0330
0000
2002
0000
,
0000
0000
3003
0000
1000
0010
0100
0000
0202
0000
0000
0000
0303
0000
1010
0000
,
0000
0000
1000
0001
1000
0002
2000
0000
0000
0000
3003
0000
0022
0000
0000
0000
,
0033
0000
0010
0001
1000
0000
2002
0000
0000
0000
3003
0000
0110
0000
0000
0000
,
0010
1000
0010
1000
0001
0000
0000
1000
0100
0000
0010
0000
0000
0100
1000
0000
,
0001
1000
0001
0000
1000
0000
0000
0010
0100
0000
0001
0000
1000
0000
0001
1000
,
0001
1000
0001
0000
0000
1000
0100
0000
0010
0000
0000
0001
0010
0000
0100
1000
,
0100
0000
0010
0000
0001
1000
0001
0000
1000
0000
0010
0100
0010
0000
1000
0001
,
1000
0000
0001
0010
0100
0000
0010
0000
0001
0000
1000
0000
0000
0000
1001
0000
,
0000
0101
0000
1010
0000
1001
0000
1100
,
0100
0010
0001
0100
1000
0100
0002
0000
,
0013
0000
0100
0000
1000
0000
0000
0000
1100
0000
0000
0000
1001
0000
1000
0010
,
0100
0010
0100
0001
0000
1001
0000
1000
,
0100
0101
0000
0001
0100
1100
0000
1000
,
0001
0000
0001
0010
0100
0001
0100
1000
,
0010
0000
0100
0001
1001
1000
0100
1000
,
0100
0000
0010
0000
0001
0000
0100
0000
0000
0000
0010
1000
0010
0000
0100
0000
,
0000
0010
0100
0001
1000
0100
0001
0100
,
0010
0001
0101
0000
0010
1000
1100
0000
,
0010
0001
1001
1000
0010
0001
0010
1000
,
0100
0110
0000
0010
0001
1001
0000
1000
,
0010
0000
0101
0000
0000
0001
1000
0000
1001
0000
0000
0000
1000
0000
0100
0000
,
1100
0000
0000
1000
0100
0000
0010
0000
0001
0000
1000
0000
0001
1000
0001
1000
,
0001
0000
0100
0010
1000
0000
0100
0000
0010
0000
0100
0000
1000
0000
1001
0000
,
0000
0101
0000
0110
0000
1001
1000
0100
,
0010
0100
1000
0000
0001
0000
0010
0000
0000
0000
0100
0000
0010
0000
0001
0000
,
1000
0000
0010
1000
0000
1000
0001
0000
,
1000
0000
0001
0010
0100
0000
0010
0000
0001
0000
0100
0000
1000
0000
0100
0000
,
0000
0110
0000
1010
0000
1001
0000
1000
,
1100
0000
0000
0100
0010
0000
0001
0000
1000
0000
0010
0000
0100
0000
0001
0000
,
1000
0000
0000
0001
0010
0000
0011
0000
0000
0000
0001
0000
1000
0010
1000
0010
,
0100
0000
0001
1000
0001
0000
1000
0000
0100
0000
0010
0000
0001
0000
1000
0000
,
0000
1010
0000
0101
0000
0011
0000
1000
,
0100
0010
0100
0000
1000
0000
0001
0000
0000
0000
1000
0000
0010
0000
0100
0000
,
0001
0000
0001
0100
0000
0100
0010
1000
,
1001
0000
0001
0010
0100
0000
0010
0000
0001
0000
0100
0000
1000
0000
0100
0000
,
0000
0110
0000
1010
0000
1001
0000
1000
,
1100
0000
0000
0100
1000
0000
0001
0000
0100
0000
0010
0000
0100
0000
0001
0000
,
1001
0000
0000
1000
0100
0000
1100
0000
0000
0001
0010
0000
0001
1000
0001
0000
,
1000
0100
0010
0001
0100
0010
1000
1001
,
0000
0001
0010
0100
1000
0100
0010
0011
,
0000
0000
1000
0010
1000
0000
0100
0000
0001
0000
0100
0000
1000
0000
1001
0000
,
0000
0000
0001
0010
0001
0000
0010
0000
1000
0000
0010
0000
0001
0000
1001
0000
,
0000
0000
1000
0010
1000
0000
0010
0000
0100
0000
0001
0010
0001
0000
1000
0000
,
0100
0000
0010
0100
0010
0000
0100
0000
1000
0001
1000
0001
0100
0010
0100
0010
,
0100
0000
0000
0001
1000
0000
0100
0000
1000
0000
0010
0000
1000
0000
0001
0000
,
0011
0000
0000
0010
0001
0000
1001
0000
0000
0000
0110
0000
0010
1000
0010
0100
,
0002
0000
0000
0000
0000
0000
0000
0010
,
0000
1000
0000
0100
0103
0001
2001
0000
,
0000
0010
0010
0010
0100
0100
3100
0000
,
1000
0001
1000
0000
0001
0000
0100
0000
1000
0000
0001
0000
0010
0000
1000
0000
,
0100
0000
0001
0000
1000
0000
0010
0000
0001
0000
1000
0000
0001
1000
0001
0000
,
1100
0100
0010
0011
0001
0100
0110
0010
,
1000
0000
1001
0000
0001
1000
0001
1000
0200
0000
0000
0000
0000
0000
0010
0000
,
0000
0000
1000
0000
2300
0000
0000
0010
,
0000
0000
0001
3002
0000
0000
0100
0000
,
0000
1000
0000
0023
0000
0000
0130
0000
,
0110
0000
0000
0000
0010
0001
0010
0000
0001
0000
0010
0001
0010
0000
0001
0000
,
1000
0001
1000
0000
0010
0100
0010
0000
0100
0000
0010
0100
0010
0000
1000
0001
,
1000
0000
0001
1000
0001
1000
0100
0000
0010
0001
0010
0001
1000
0000
0010
0100
,
0010
0000
1010
0000
0000
0110
0000
0000
0101
0000
0000
1001
0000
0000
1000
0001
,
1000
0000
0000
0000
;

//---------------dance-single - ----------------
#NOTES:
     dance-single:
     :
     Medium:
     7:
     0.507,0.563,0.488,0.261,0.070: // measure 1
2002
0000
0000
0000
,  // measure 2
3003
0000
0000
0000
0000
0110
0000
2002
,  // measure 3
0000
0000
0000
0000
3003
0000
0000
0220
,  // measure 4
0000
0330
2002
0000
3003
0020
0200
0000
,  // measure 5
0000
0000
0000
0330
,  // measure 6
0000
0000
0000
1010
0000
1001
0000
1000
,  // measure 7
0100
1000
0001
0100
0000
0220
0000
0330
,  // measure 8
2002
0000
3003
0110
0110
0000
0000
1001
,  // measure 9
0000
0000
1000
0001
1000
0000
0000
0110
,  // measure 10
0000
0010
1000
0100
0000
0000
1100
0000
,  // measure 11
0000
1000
0100
0010
0000
0000
0110
0000
,  // measure 12
0010
0000
0100
0000
0010
0000
0000
0100
0000
0000
0010
0000
0000
0001
0000
0000
,  // measure 13
1000
0000
0001
0000
1000
0000
0000
0001
0000
0000
1000
0000
0000
0010
0000
0000
,  // measure 14
0100
0000
0010
0000
0000
0100
0000
0000
0010
0000
0000
1000
0000
0000
0001
0000
,  // measure 15
1000
0000
0100
0000
0000
0010
0000
0000
0001
0000
0000
1000
0000
0000
0001
0000
,  // measure 16
2000
0000
0010
0000
0001
0000
3001
1000
,  // measure 17
0000
1100
0000
0110
0000
0011
0000
0010
,  // measure 18
0001
1000
0001
0000
1000
0010
0100
0000
,  // measure 19
0010
0100
0010
0000
1001
0000
0110
0000
,  // measure 20
0010
1000
0100
0010
0000
0110
0000
1100
,  // measure 21
0000
1001
0000
0001
0010
0100
0000
0010
,  // measure 22
0001
0000
1000
0010
0100
0000
1000
0100
,  // measure 23
0001
1000
0100
1000
0100
0000
0010
0001
,  // measure 24
0000
0001
1000
0010
0000
0100
0010
1000
,  // measure 25
0000
0001
0001
0001
1000
0100
0010
0100
,  // measure 26
1000
0100
0010
0000
0100
0000
1000
0000
,  // measure 27
0001
0100
0001
1000
0010
0100
0010
1000
,  // measure 28
0010
0100
0000
0101
0000
1001
0000
1000
,  // measure 29
0100
0002
0000
0000
0103
0000
0000
0100
,  // measure 30
2000
0000
0000
3001
0000
1000
0001
0000
,  // measure 31
1000
0010
1000
0010
1000
0010
0000
0101
,  // measure 32
0000
0011
0000
1100
0000
0011
0000
0010
,  // measure 33
0001
0100
0000
0010
1000
0000
0001
1000
,  // measure 34
0100
0000
0000
0110
0000
0000
1001
0000
,  // measure 35
0001
0100
1000
0100
0001
1000
0000
1001
,  // measure 36
0000
0011
0000
1100
0000
0011
0000
0100
,  // measure 37
1000
0000
1000
0001
0000
0001
0100
0010
,  // measure 38
0100
0000
0010
1000
0000
1000
0100
0000
,  // measure 39
1000
0100
0010
0001
0010
0001
0000
1100
,  // measure 40
0000
1010
0000
0101
0000
1010
0000
0010
,  // measure 41
1000
0000
0001
0100
0000
0010
1000
0100
,  // measure 42
0010
0000
0100
1000
0000
0001
0010
0000
,  // measure 43
0100
0010
0001
0000
1000
0010
0000
0110
,  // measure 44
0000
0101
0000
0011
0000
1100
0000
1000
,  // measure 45
0001
0000
0001
0100
0000
0000
0110
0000
,  // measure 46
0010
0000
1000
0100
0000
0010
0001
0000
,  // measure 47
1000
0100
1000
0000
0001
0001
0100
0002
,  // measure 48
0000
1000
1003
0000
0100
0100
0010
0200
,  // measure 49
0000
1000
1300
0000
0010
0010
0100
0002
,  // measure 50
0000
1000
1003
0000
0010
0010
1000
0100
,  // measure 51
0000
0010
0001
0100
0000
1000
0100
0001
,  // measure 52
0000
0010
0100
1000
0100
0010
0001
1000
,  // measure 53
0002
0000
0000
0000
,  // measure 54
2000
0000
0000
3003
,  // measure 55
0220
0000
0000
0000
,  // measure 56
0000
0330
0110
2002
,  // measure 57
0000
0000
3003
1001
,  // measure 58
0001
1000
0100
0000
0010
0100
1000
0000
,  // measure 59
0001
0010
0100
0010
0001
0000
1001
0000
,  // measure 60
1000
0100
0010
0001
0000
0010
0001
0000
,  // measure 61
1000
0010
0000
0100
0020
0000
0000
1000
,  // measure 62
0000
0000
0100
0000
0230
0000
0000
0010
,  // measure 63
0000
0000
0001
0302
0000
0000
0010
0000
,  // measure 64
0000
0100
0000
2003
0000
0000
3010
0000
,  // measure 65
1001
0000
0000
0000
0001
0000
0000
1000
0000
0000
0001
0000
0000
1000
0000
0000
,  // measure 66
0010
0000
0100
0000
0010
0000
0000
0100
0000
0000
0010
0000
0000
0100
0000
0000
,  // measure 67
0001
0000
1000
0000
0000
0100
0000
0000
0010
0000
0000
0001
0000
0000
1000
0000
,  // measure 68
0001
0000
1001
0000
0000
1001
0000
0000
1001
0000
0000
1001
0000
0000
0110
0000
,  // measure 69
0110
0000
0000
0000
;

//---------------dance-single - ----------------
#NOTES:
     dance-single:
     :
     Easy:
     5:
     0.356,0.355,0.392,0.166,0.000:
2002
0000
0000
0000
,
0003
0000
0000
0000
0000
0001
0000
0002
,
0000
0000
0000
0000
3003
0000
0000
0110
,
0000
0000
1001
0000
0000
0002
2000
0000
,
0000
0000
0000
3000
,
0000
0000
0000
1000
0000
2000
0000
0000
,
0000
0000
0000
3003
0000
1001
0000
0000
,
0110
0000
0000
1000
0001
0000
0000
1000
,
0000
0000
0001
0000
1000
0000
0000
0100
,
0000
0010
0000
0100
0000
0000
0010
0000
,
0000
0001
0000
1000
0000
0000
0010
0000
,
0100
0000
1001
0000
0000
1001
0000
0000
,
0010
0000
0110
0000
0000
0110
0000
0000
,
0000
1001
0000
0000
1001
0000
0000
0100
,
0000
0110
0000
0000
0110
0000
0000
0000
,
1001
0000
0001
0000
0100
0000
0000
0110
,
0000
0010
0000
1000
0000
0001
0000
1001
,
0000
1000
0100
0010
,
0001
1000
0010
1001
,
1000
0000
0100
0000
0000
0110
0000
0010
,
0000
0001
0000
1000
0000
1001
0000
0001
,
0000
0100
0001
1000
,
0100
0000
1000
0000
1001
0000
0000
0001
,
0000
1000
0100
0010
,
0100
0000
1000
0001
0000
0000
1000
0000
,
0000
0001
1000
0000
0100
0000
0010
0000
,
0001
0000
1001
0000
0000
1000
0000
0000
,
0010
0100
0000
0110
0000
1010
0000
1001
,
0000
0210
0000
0000
0010
0000
0000
1000
,
2300
0000
0000
3001
0000
0001
1000
0000
,
0001
0000
0100
0000
0010
0000
0000
0110
,
0000
0100
0000
0001
0000
1000
0000
0001
,
1000
0000
0000
0001
0000
0000
0010
0000
,
0100
0000
0000
0110
0000
0000
1001
0000
,
0110
0000
0010
0000
1000
0000
0000
1001
,
0000
0001
0000
0010
0000
0100
0000
1000
,
0001
0000
0000
1000
0000
0000
0010
0000
,
0100
0000
0000
0010
0000
0000
0110
0000
,
1001
0000
1000
0000
0100
0000
0000
0110
,
0000
0010
0000
0001
0000
1000
0000
0001
,
1000
0000
0000
0010
0000
0000
0001
0000
,
0010
0000
0000
1000
0000
0000
0001
0000
,
1000
0000
0100
0000
0001
0000
0000
0110
,
0000
0100
0000
0010
0000
0001
0000
1000
,
0001
0000
0000
0101
0000
0000
1001
0000
,
0110
0000
0000
2002
0000
0000
3003
0000
,
1000
0000
0010
0000
1000
0000
0001
0100
,
0000
0000
0001
0000
0010
0000
0100
1000
,
0000
0000
1000
0000
0100
0000
0010
0100
,
0000
0000
0010
0000
0001
0000
0100
0010
,
0000
0000
0100
0100
0000
0000
0010
0010
,
0000
0000
1000
1000
0000
0000
0001
0000
,
0210
0010
0010
0010
,
0001
0000
0000
0010
0000
0000
0301
0000
,
2002
0000
0000
0000
,
0000
3003
1001
2002
,
0000
0000
3003
0220
,
0330
0010
1000
0001
,
0010
0100
0010
0001
,
0100
1000
0100
0010
,
1000
0000
0100
0000
0210
0000
0000
0010
,
0000
0000
0010
0000
0010
0000
0000
0010
,
0000
0000
0010
0320
0000
0000
0001
0000
,
0000
0001
0000
0001
0000
0000
0031
0000
,
1001
0001
0100
1000
,
0100
0100
0010
1000
,
0001
1000
0000
0100
0000
0001
0000
0100
,
0000
0010
0000
0001
0000
1000
0000
0001
,
1000
0000
0000
0000
;

//---------------dance-single - ----------------
#NOTES:
     dance-single:
     :
     Beginner:
     2:
     0.171,0.296,0.279,0.000,0.000:
1001
0000
0000
0000
,
0000
0000
0000
0000
0000
0110
0000
0110
,
0000
0000
0000
0000
0000
0000
0000
1001
,
0000
0000
0000
1001
,
0000
0000
0000
0000
,
0000
0000
0000
0110
0000
0110
0000
0000
,
0000
0000
0000
0000
0000
1001
0000
0000
,
0000
0000
0110
0000
,
0000
0000
0100
0000
,
0000
0000
0000
1001
0000
0000
0000
0000
,
0000
0000
0000
0001
0000
0000
0000
0000
,
0000
0000
1000
0000
0000
0001
0000
0000
,
0000
0000
1000
0000
0000
0100
0000
0000
,
0000
0100
0000
0000
0010
0000
0000
0000
,
0000
0001
0000
0000
1000
0000
0000
0000
,
1001
0000
0001
0000
,
0100
0000
0000
0000
0010
0000
0000
0010
,
0000
0000
0000
1000
,
0000
0001
0000
1000
,
0000
0100
0000
0010
,
0000
0000
0001
0000
0000
0001
0000
0000
,
0000
0000
0000
1000
0000
0000
0000
0001
,
0000
0000
0001
0000
,
1000
0000
0010
0000
,
0000
0000
0000
0010
0000
0000
0100
0000
,
0000
0001
0000
0000
,
0000
1001
0000
0000
,
0000
1000
0000
0000
0000
0001
0000
0000
,
0000
1001
0000
0000
0000
0000
0000
0000
,
0110
0000
0000
0000
,
1001
0000
0001
0000
,
1000
0000
0100
0000
,
0010
0000
0000
0000
,
0100
0000
1000
0000
,
0001
0000
1000
0000
,
0010
0000
0100
0000
,
0001
0000
0000
0000
,
1000
0000
0000
0000
,
0001
0000
0010
0000
,
0100
0000
0010
0000
,
0100
0000
0000
0000
,
0010
0000
0001
0000
,
1000
0000
0010
0000
,
0100
0000
0001
0000
,
1000
0000
0000
0000
,
0001
0000
0000
0000
,
1001
0000
0000
0000
,
1000
0000
0100
0000
,
0010
0000
0000
0000
,
0100
0000
1000
0000
,
0001
0000
0001
0000
,
1000
0000
1000
0000
,
0001
0000
0000
0000
,
1001
0000
0000
0000
,
1001
0000
0000
0000
,
0000
0000
0000
0110
,
0000
0000
0000
0000
,
0000
1001
0000
0000
,
0001
0000
0100
0000
,
0110
0000
0000
0000
,
0000
0000
1001
0000
,
0000
0000
0000
0000
0001
0000
0000
0001
,
0000
0000
0000
1001
0000
0000
1000
0000
,
0000
0000
0000
0001
0000
0000
0001
0000
,
0000
0000
1001
0000
0000
1001
0000
0000
,
0000
0000
0110
0000
0000
0110
0000
0000
,
0000
1001
0000
0000
1001
0000
0000
0000
,
0000
0110
0000
0000
0110
0000
0000
0000
,
0110
0000
0000
0000
;
