#VERSION:0.81;
#TITLE:Salt Skin;
#SUBTITLE:;
#ARTIST:Ellie Goulding;
#TITLETRANSLIT:;
#SUBTITLETRANSLIT:;
#ARTISTTRANSLIT:;
#GENRE:;
#ORIGIN:;
#CREDIT:;
#BANNER:skin-banner.png;
#BACKGROUND:skin-bg.png;
#PREVIEWVID:;
#JACKET:;
#CDIMAGE:;
#DISCIMAGE:;
#LYRICSPATH:;
#CDTITLE:;
#MUSIC:Salt Skin CUT.mp3;
#OFFSET:-0.744;
#SAMPLESTART:58.075;
#SAMPLELENGTH:23.569;
#SELECTABLE:YES;
#DISPLAYBPM:86.000:172.000;
#BPMS:0.000=86.024,
115.000=86.723,
116.000=172.098,
171.000=163.829,
172.000=344.083,
172.500=343.994,
173.000=344.083,
175.000=86.024,
208.000=172.092,
224.000=86.024,
239.542=42.088,
240.542=43.010;
#STOPS:172.000=0.174,
173.000=0.174,
174.000=0.174,
175.000=1.039;
#DELAYS:;
#WARPS:;
#TIMESIGNATURES:0.000=4=4;
#TICKCOUNTS:0.000=4;
#COMBOS:0.000=1;
#SPEEDS:0.000=1.000=0.000=0;
#SCROLLS:0.000=1.000;
#FAKES:;
#LABELS:0.000=Song Start;
#BGCHANGES:;
#KEYSOUNDS:;
#ATTACKS:
;

//---------------dance-single - ----------------
#NOTEDATA:;
#CHARTNAME:;
#STEPSTYPE:dance-single;
#DESCRIPTION:;
#CHARTSTYLE:;
#DIFFICULTY:Beginner;
#METER:2;
#RADARVALUES:0.110,0.161,0.027,0.000,0.000,111.000,4.000,0.000,0.000,0.000,0.000,0.000,0.000,0.110,0.161,0.027,0.000,0.000,111.000,4.000,0.000,0.000,0.000,0.000,0.000,0.000;
#CREDIT:;
#OFFSET:-0.744;
#BPMS:0.000=86.024
,115.000=86.723
,116.000=172.098
,171.000=163.829
,172.000=344.083
,172.500=343.994
,173.000=344.083
,208.000=172.092
,224.000=86.024
,239.938=43.010
,240.000=43.010
,240.542=43.010
;
#STOPS:172.000=0.174
,173.000=0.174
,174.000=0.174
,175.000=1.039
;
#DELAYS:;
#WARPS:;
#TIMESIGNATURES:0.000=4=4
;
#TICKCOUNTS:0.000=4
;
#COMBOS:0.000=1
;
#SPEEDS:0.000=1.000=0.000=0
;
#SCROLLS:0.000=1.000
;
#FAKES:;
#LABELS:0.000=Song Start
;
#DISPLAYBPM:86.000:172.000;
#NOTES:
// measure 0
0000
0000
0000
0000
,  // measure 1
0001
0000
0000
0000
,  // measure 2
1000
0000
0000
0000
,  // measure 3
0010
0000
0000
0000
,  // measure 4
0100
0000
0000
0000
,  // measure 5
0001
0001
0001
0001
,  // measure 6
1000
1000
1000
1000
,  // measure 7
0010
0010
0010
0010
,  // measure 8
0100
0100
0100
0100
,  // measure 9
0010
0000
0000
0000
,  // measure 10
0100
0000
0000
0000
,  // measure 11
0001
0000
0000
0000
,  // measure 12
0100
0000
0000
0000
,  // measure 13
0010
0000
0000
0000
,  // measure 14
0100
0000
0000
0000
,  // measure 15
0001
0000
0000
0000
,  // measure 16
0100
0000
0000
0000
,  // measure 17
0010
0010
0010
0000
,  // measure 18
0100
0000
0100
0000
,  // measure 19
0001
0001
0001
0000
,  // measure 20
1000
0000
0000
0000
,  // measure 21
0001
0001
0001
0000
,  // measure 22
0100
0100
0100
0000
,  // measure 23
0010
0010
0010
0000
,  // measure 24
0110
0000
0000
0000
,  // measure 25
0001
0001
0000
0000
,  // measure 26
1000
1000
0000
0000
,  // measure 27
1001
1001
0000
0000
,  // measure 28
0001
0000
0000
0000
,  // measure 29
1000
0000
0000
0000
,  // measure 30
0010
0000
0000
0000
,  // measure 31
0100
0000
0000
0000
,  // measure 32
0001
0000
0000
0000
,  // measure 33
0010
0000
0000
0000
,  // measure 34
0100
0000
0000
0000
,  // measure 35
1000
0000
0000
0000
,  // measure 36
0010
0000
0000
0000
,  // measure 37
0100
0000
0000
0000
,  // measure 38
0100
0000
0000
0000
,  // measure 39
0001
0000
0000
0000
,  // measure 40
0010
0000
0000
0000
,  // measure 41
0100
0000
0100
0000
,  // measure 42
0100
0000
0000
0000
,  // measure 43
1000
0000
0000
0000
,  // measure 44
0001
0001
0010
0010
,  // measure 45
0100
0100
1000
0000
,  // measure 46
0010
0010
0010
0010
,  // measure 47
0010
0000
0000
0000
,  // measure 48
0100
0100
0100
0000
,  // measure 49
0010
0010
0010
0000
,  // measure 50
0100
0000
0010
0000
,  // measure 51
1001
0000
0000
0000
,  // measure 52
0010
0000
0100
0000
,  // measure 53
0010
0000
0010
0000
,  // measure 54
0100
0000
0000
0000
,  // measure 55
1000
0000
0001
0000
,  // measure 56
0100
0000
0100
0100
,  // measure 57
0100
0000
0010
0010
,  // measure 58
0010
0000
1000
1000
,  // measure 59
1000
0000
0001
0001
,  // measure 60
0001
0000
0000
0000
;

//---------------dance-single - ----------------
#NOTEDATA:;
#CHARTNAME:;
#STEPSTYPE:dance-single;
#DESCRIPTION:;
#CHARTSTYLE:;
#DIFFICULTY:Easy;
#METER:4;
#RADARVALUES:0.195,0.183,0.013,0.007,0.000,200.000,2.000,1.000,0.000,0.000,0.000,0.000,0.000,0.195,0.183,0.013,0.007,0.000,200.000,2.000,1.000,0.000,0.000,0.000,0.000,0.000;
#CREDIT:;
#OFFSET:-0.744;
#BPMS:0.000=86.024
,115.000=86.723
,116.000=172.098
,171.000=163.829
,172.000=344.083
,172.500=343.994
,173.000=344.083
,208.000=172.092
,224.000=86.024
,239.938=43.010
,240.000=43.010
,240.542=43.010
;
#STOPS:172.000=0.174
,173.000=0.174
,174.000=0.174
,175.000=1.039
;
#DELAYS:;
#WARPS:;
#TIMESIGNATURES:0.000=4=4
;
#TICKCOUNTS:0.000=4
;
#COMBOS:0.000=1
;
#SPEEDS:0.000=1.000=0.000=0
;
#SCROLLS:0.000=1.000
;
#FAKES:;
#LABELS:0.000=Song Start
;
#DISPLAYBPM:86.000:172.000;
#NOTES:
// measure 0
0000
0000
0000
0000
,  // measure 1
0001
0001
0001
1000
,  // measure 2
0010
0010
0010
0100
,  // measure 3
0001
0001
0001
0010
,  // measure 4
0100
0100
0100
1000
,  // measure 5
0010
1000
0010
0100
,  // measure 6
0100
0001
0010
0100
,  // measure 7
0100
1000
0010
0100
,  // measure 8
0100
0010
1000
0001
,  // measure 9
0010
0010
0001
0001
,  // measure 10
0100
0100
0010
0010
,  // measure 11
0100
0010
1000
1000
,  // measure 12
0001
0001
1000
0000
,  // measure 13
0010
0010
0100
0100
,  // measure 14
0001
0010
0100
0100
,  // measure 15
1000
0000
0010
0000
0100
0010
0100
0000
,  // measure 16
0001
0000
1000
0000
,  // measure 17
0010
0010
0100
0100
,  // measure 18
0001
0010
0100
0100
,  // measure 19
1000
0000
0010
0000
1000
0010
1000
0000
,  // measure 20
0001
0000
1000
0000
,  // measure 21
0010
0100
0001
0001
,  // measure 22
0100
0010
1000
1000
,  // measure 23
0001
0010
0100
0100
,  // measure 24
1001
0001
1001
1000
,  // measure 25
0010
0010
0100
0000
,  // measure 26
0001
0001
1000
0000
,  // measure 27
0100
1000
0010
0000
,  // measure 28
0100
0000
0001
0000
0100
0001
0100
0000
,  // measure 29
0001
0000
1000
0000
,  // measure 30
0010
1000
0000
0001
,  // measure 31
0000
1000
0000
1000
,  // measure 32
0000
0001
0000
0001
,  // measure 33
0100
0000
0010
0000
,  // measure 34
0100
0010
0100
0000
,  // measure 35
0001
0010
0001
0000
,  // measure 36
0100
0001
0100
0000
,  // measure 37
0010
0000
0010
0000
,  // measure 38
1000
1000
0000
0001
,  // measure 39
0000
0001
0000
0100
,  // measure 40
0000
0010
0000
0100
,  // measure 41
0010
0000
0100
0000
,  // measure 42
0010
0000
0000
1000
,  // measure 43
1000
1000
1000
1000
,  // measure 44
0001
0001
0100
0100
,  // measure 45
0010
0010
0100
0100
,  // measure 46
0001
0000
0010
0000
0100
0000
1000
0100
,  // measure 47
1000
0000
0010
0100
,  // measure 48
0010
0010
0100
0000
,  // measure 49
0001
0001
0010
0000
,  // measure 50
0100
0010
0001
0100
,  // measure 51
0010
0010
0010
0100
,  // measure 52
0010
0000
1000
0000
,  // measure 53
0001
1000
0000
0010
,  // measure 54
0000
0100
0000
0100
,  // measure 55
0010
0000
0100
0000
,  // measure 56
0001
0001
1000
1000
,  // measure 57
0010
0010
0100
0100
,  // measure 58
0001
0010
0100
0100
,  // measure 59
1000
0010
0100
0001
,  // measure 60
2000
0000
0000
3000
;

//---------------dance-single - ----------------
#NOTEDATA:;
#CHARTNAME:;
#STEPSTYPE:dance-single;
#DESCRIPTION:;
#CHARTSTYLE:;
#DIFFICULTY:Medium;
#METER:7;
#RADARVALUES:0.311,0.367,0.067,0.007,0.198,313.000,10.000,1.000,0.000,0.000,0.000,0.000,0.000,0.311,0.367,0.067,0.007,0.198,313.000,10.000,1.000,0.000,0.000,0.000,0.000,0.000;
#CREDIT:;
#OFFSET:-0.744;
#BPMS:0.000=86.024
,115.000=86.723
,116.000=172.098
,171.000=163.829
,172.000=344.083
,172.500=343.994
,173.000=344.083
,175.000=86.024
,208.000=172.092
,224.000=86.024
,239.938=43.010
,240.000=43.010
,240.542=43.010
;
#STOPS:172.000=0.174
,173.000=0.174
,174.000=0.174
,175.000=1.039
;
#DELAYS:;
#WARPS:;
#TIMESIGNATURES:0.000=4=4
;
#TICKCOUNTS:0.000=4
;
#COMBOS:0.000=1
;
#SPEEDS:0.000=1.000=0.000=0
;
#SCROLLS:0.000=1.000
;
#FAKES:;
#LABELS:0.000=Song Start
;
#DISPLAYBPM:86.000:172.000;
#NOTES:
// measure 0
0000
0000
0000
0000
,  // measure 1
0001
0000
0001
0000
1000
0000
1000
0000
0001
0000
0000
0010
0000
0100
0000
0010
,  // measure 2
0100
0000
0000
0000
0001
0000
0000
0000
0010
0000
0000
0100
0000
1000
0000
0100
,  // measure 3
1000
0000
0010
0000
0100
0000
0001
0000
0010
0000
0001
0100
0000
0010
0000
0100
,  // measure 4
0010
0000
1000
0000
0100
0000
1000
0000
0010
0000
0100
0001
0000
0100
0000
0001
,  // measure 5
0010
0000
0001
0000
0100
0000
0010
0000
0100
0000
0010
1000
0000
0010
0000
1000
,  // measure 6
0100
0000
1000
0000
0010
0000
0100
0000
0001
0000
0010
0001
0000
0100
0000
0001
,  // measure 7
0100
0000
0010
0000
0100
0000
0010
0000
1000
0000
0100
1000
0000
1000
0000
1000
,  // measure 8
0001
0000
0000
0000
0101
0000
0000
0000
0010
0000
0000
0010
0000
0010
0000
0010
,  // measure 9
0100
0000
0001
0000
0010
0100
1000
0000
,  // measure 10
1000
1000
1000
0000
0001
0001
0001
0000
,  // measure 11
0100
0000
0010
0000
0100
0000
0000
0000
0001
0100
0000
0001
0100
0000
0000
0010
,  // measure 12
0000
1000
0100
1000
,  // measure 13
0010
0100
0010
0100
0001
0010
0100
0000
,  // measure 14
0100
1000
0010
0000
1000
0010
0100
0000
,  // measure 15
0100
0000
0001
0000
0010
0000
0000
0000
0001
0100
0001
0000
0100
0000
0000
0000
,  // measure 16
0010
0000
0000
1000
0000
0000
0000
0000
0100
0000
0000
1000
0000
0000
0000
0000
,  // measure 17
0010
0100
0001
0000
0100
0010
0100
0000
,  // measure 18
0010
1000
0100
0000
1000
0100
1000
0000
,  // measure 19
0010
0100
0010
0000
0100
0001
0100
0000
,  // measure 20
0001
0000
0001
0000
1000
0001
1000
0001
,  // measure 21
1000
0000
0000
0000
0001
0000
0000
0000
0100
0000
0000
0010
0000
0100
0000
0000
,  // measure 22
0001
0000
0000
0000
0010
0000
0000
0000
0100
0000
0000
1000
0000
0100
0000
0000
,  // measure 23
1000
0000
0000
0000
0010
0000
0000
0000
0100
0000
0000
0001
0000
0100
0000
0000
,  // measure 24
0001
0000
1000
0000
0001
1000
0001
1000
,  // measure 25
0001
0000
0000
0000
0100
0000
0000
0000
0010
0000
0000
0100
0000
0010
0000
0000
,  // measure 26
1000
0100
1000
0000
0100
0000
0000
0000
1000
0000
0000
0010
0000
0100
0000
0000
,  // measure 27
0001
0000
0000
0000
0100
0000
0000
0000
0001
0000
0000
0010
0000
0100
0000
0000
,  // measure 28
1000
0000
0000
0000
1000
0000
0000
0010
0000
0000
0100
0000
0001
0000
0100
0000
,  // measure 29
0001
0000
0000
0010
0001
0000
0000
0100
,  // measure 30
0010
1000
0000
1000
,  // measure 31
0010
0000
0100
0000
,  // measure 32
0001
0100
0001
0000
0001
0100
0001
0000
,  // measure 33
0001
0000
0000
0010
0100
0000
0000
0100
,  // measure 34
1000
0010
0000
0100
,  // measure 35
0000
0010
0000
0010
,  // measure 36
0000
0000
0100
0010
0100
0000
0010
0000
,  // measure 37
1000
0000
0000
1000
0100
0000
0000
1000
,  // measure 38
0010
0100
0000
0001
,  // measure 39
0100
0000
0000
0000
,  // measure 40
0010
0000
1000
0000
,  // measure 41
0100
0000
0100
1000
0010
0000
0010
0100
,  // measure 42
0010
0000
0000
0000
0000
0100
0001
0100
,  // measure 43
0001
0010
0100
1000
,  // measure 44
0001
0000
0000
0000
0100
0000
0000
0000
0010
0100
0000
1010
0000
1100
0000
0000
,  // measure 45
0010
0000
0000
0000
0100
0000
0000
0000
0101
0000
0000
0110
0000
0110
0000
0000
,  // measure 46
1000
0000
0000
0000
0100
0000
0000
0000
1010
0000
0000
0101
0000
0011
0000
0000
,  // measure 47
0110
0010
0100
0010
,  // measure 48
1000
0000
0000
0000
0001
0000
0000
0000
0100
0000
0000
0001
0000
0010
0000
0000
,  // measure 49
0100
0000
0000
0000
1000
0000
0000
0000
0010
0000
0000
0100
0000
0010
0000
0000
,  // measure 50
0100
0000
0000
0000
0010
0000
0000
0000
1000
0000
0000
0100
0000
0010
0000
0000
,  // measure 51
0001
0000
0000
0000
0100
0000
0000
0010
0000
0000
0100
0000
0001
0000
0010
0000
,  // measure 52
0100
0000
0000
1000
0010
0000
0000
0100
,  // measure 53
0010
1000
0000
0100
,  // measure 54
0000
0000
0010
0000
0000
0000
0100
0001
,  // measure 55
0100
0001
0010
0010
,  // measure 56
0100
1000
0010
1000
0010
0000
0100
0000
,  // measure 57
0001
0100
0001
0010
0001
0000
0100
0000
,  // measure 58
0010
0100
0010
0100
0010
0000
1000
0000
,  // measure 59
0001
0000
0100
0000
0001
0000
0010
0001
0100
0000
0000
0000
0010
0000
0100
0000
,  // measure 60
0020
0000
0000
0030
;

//---------------dance-single - ----------------
#NOTEDATA:;
#CHARTNAME:;
#STEPSTYPE:dance-single;
#DESCRIPTION:;
#CHARTSTYLE:;
#DIFFICULTY:Hard;
#METER:8;
#RADARVALUES:0.542,0.571,0.081,0.228,0.587,519.000,12.000,34.000,0.000,0.000,0.000,0.000,0.000,0.542,0.571,0.081,0.228,0.587,519.000,12.000,34.000,0.000,0.000,0.000,0.000,0.000;
#CREDIT:;
#OFFSET:-0.744;
#BPMS:0.000=86.024
,115.000=86.723
,116.000=172.098
,171.000=163.829
,172.000=344.083
,172.500=343.994
,173.000=344.083
,175.000=86.024
,208.000=172.092
,224.000=86.024
,239.938=43.010
;
#STOPS:172.000=0.174
,173.000=0.174
,174.000=0.174
,175.000=1.039
;
#DELAYS:;
#WARPS:;
#TIMESIGNATURES:0.000=4=4
;
#TICKCOUNTS:0.000=4
;
#COMBOS:0.000=1
;
#SPEEDS:0.000=1.000=0.000=0
;
#SCROLLS:0.000=1.000
;
#FAKES:;
#LABELS:0.000=Song Start
;
#DISPLAYBPM:86.000:172.000;
#NOTES:
// measure 0
0000
0000
0000
0000
,  // measure 1
0001
0100
0001
0010
0100
1000
0010
0001
0010
0100
1000
0100
0000
0100
0000
0100
,  // measure 2
0010
0100
1000
0100
0010
1000
0010
1000
0100
1000
0010
0001
0000
0010
0000
0010
,  // measure 3
0100
0010
0100
0001
0010
0001
0100
0010
1000
0010
0100
0001
0000
0010
0000
0001
,  // measure 4
1000
0010
0100
0001
0010
0100
1000
0010
1000
0100
0010
0100
0000
0001
0000
0100
,  // measure 5
0010
0001
0010
0100
1000
0001
0100
0001
0010
0100
1000
0001
0000
0010
0000
0001
,  // measure 6
0100
1000
0100
0010
0100
0010
1000
0100
1000
0010
0100
0001
0000
0010
0000
0001
,  // measure 7
0010
1000
0010
0100
0001
0100
0001
0100
0010
1000
0010
0100
0000
0010
0000
0001
,  // measure 8
1000
0010
0100
1000
0100
0010
0001
0010
0001
0010
0100
1000
0000
0100
0001
0010
,  // measure 9
0100
0000
0001
0100
0010
0000
1000
0010
0100
0000
1000
0100
0010
0000
0010
1000
,  // measure 10
0010
0000
0001
1000
0010
0000
0010
0100
0001
0000
0000
1000
0000
0100
0000
1000
,  // measure 11
0010
0000
0000
0000
0100
0000
0001
0000
0010
0000
0000
0000
0100
0000
0010
0000
0001
0000
0000
0100
0000
0000
0010
0000
1000
0000
0000
0000
0010
0000
0000
0000
,  // measure 12
0000
0000
1000
0000
0000
0000
0100
0001
0000
0100
0010
0001
0000
0010
0100
1000
,  // measure 13
0001
0000
0100
0001
1000
0000
0100
0010
0001
0000
0100
0000
0001
0000
0010
0100
,  // measure 14
0010
0100
0010
0000
0001
0000
0100
0010
0001
0000
0010
0000
0010
0000
0010
1000
,  // measure 15
0100
0000
1000
0000
0010
0000
0100
0001
0010
0001
0100
0000
0010
0000
0000
0000
,  // measure 16
1000
0000
0100
1000
0000
0000
0000
0000
0001
0100
0010
1000
0000
0001
0100
0010
,  // measure 17
2000
0000
0000
0000
3002
0000
0000
0000
0203
0000
0000
0000
0300
0000
0010
0100
,  // measure 18
2000
0000
0000
0000
3200
0000
0001
0001
0300
0001
0000
0000
0010
0000
0100
0010
,  // measure 19
2000
0000
0000
0000
3020
0000
0100
0100
0230
0000
0000
0000
0310
0000
1000
0000
,  // measure 20
0020
0000
0000
0000
0030
0010
0100
1000
,  // measure 21
0020
0000
0000
0000
2030
0000
0000
0000
3010
0100
0000
0010
0000
1010
0000
0000
,  // measure 22
0200
0000
0000
0000
0320
0000
0000
0000
0130
0010
0000
0100
0000
0101
0000
0000
,  // measure 23
0010
0000
0000
0000
1010
0000
0000
0000
0100
0010
0000
1001
0000
0100
0000
0000
,  // measure 24
0020
0000
2030
0000
3100
0010
0100
0010
,  // measure 25
0200
0000
0000
0000
0320
0000
0000
0000
0031
1000
0000
0100
0000
0001
0000
0000
,  // measure 26
0100
0010
0100
0000
2000
0000
0000
0000
3010
0000
0100
0010
0000
1000
0000
0000
,  // measure 27
0200
0000
0000
0000
2300
0000
0000
0000
3010
0100
0000
1000
0000
0100
0000
0000
,  // measure 28
0020
0000
0000
0000
0230
0000
0000
0000
0301
0000
0010
0100
1000
0000
0010
0000
,  // measure 29
1000
0010
0100
0001
1000
0010
0100
0010
,  // measure 30
1000
0000
0001
0000
1000
0000
0001
0000
0010
0000
1000
0000
0010
0000
0100
0010
,  // measure 31
0100
0010
0001
0100
0010
0100
0010
1000
,  // measure 32
0010
0000
1000
0000
0001
0000
1000
0000
0001
0000
0100
0000
0001
0000
0100
0010
,  // measure 33
0100
0001
1000
0010
1000
0100
1000
0010
,  // measure 34
0100
0000
0001
0000
0100
0000
0010
0000
1000
0000
0100
0000
1000
0000
0100
1000
,  // measure 35
0100
0010
0001
0100
0010
1000
0100
1000
,  // measure 36
0010
0000
0100
0000
0001
0000
1000
0000
0010
0000
0100
0000
0010
0000
0100
0001
,  // measure 37
0100
0010
0100
0001
0010
0100
1000
0010
,  // measure 38
1000
0000
0100
0000
0010
0000
0100
0000
1000
0000
0010
0000
0001
0000
0010
0100
,  // measure 39
0010
0100
0001
0100
0001
0010
1000
0010
,  // measure 40
0100
0010
0100
0001
0100
0010
0100
0010
,  // measure 41
1000
0000
0010
0001
0010
0000
0010
0001
,  // measure 42
0100
0000
0100
0000
0100
0010
1000
0001
,  // measure 43
1000
0101
1000
1100
,  // measure 44
1000
0010
0100
0001
0010
0100
1000
0010
1000
0100
1000
0010
0000
0100
0000
0010
,  // measure 45
0100
0000
0001
0000
0010
0000
0001
0000
0100
0010
0000
0110
0000
1100
0000
1000
,  // measure 46
0100
0000
0010
0000
0100
0000
1000
0000
0010
0001
0000
0010
0000
0100
0000
0001
,  // measure 47
0100
0001
0100
0000
0001
0100
0001
0000
0100
0010
0100
0010
0000
1000
0000
0100
,  // measure 48
1000
0000
0010
0000
0100
0000
0010
0000
0100
0001
0000
0100
0000
0010
0000
0000
,  // measure 49
1000
0100
1000
0000
0010
0000
0000
0000
0100
0000
0010
0100
0000
0001
0000
0000
,  // measure 50
0010
0000
0000
0000
0001
0000
0000
0000
0100
0010
0000
0100
0000
0010
0000
1000
,  // measure 51
0100
0000
1000
0000
0010
0000
0100
0010
0000
0100
0001
0100
0001
0000
0100
0000
,  // measure 52
0010
0000
0000
1000
0200
0000
0000
0310
,  // measure 53
0002
0000
0200
0000
0000
0003
0020
0000
,  // measure 54
0000
0000
0000
0000
0000
0330
1000
0000
,  // measure 55
0010
1100
0011
0110
,  // measure 56
1000
0010
1000
0100
1000
0010
0100
0010
0200
0000
0000
0000
0302
0000
0000
0000
,  // measure 57
0103
0010
1000
0010
0100
0001
0010
0001
0200
0000
0000
0000
0020
0000
0300
0000
,  // measure 58
1030
0100
1000
0100
0010
0001
0010
0100
2000
0000
0000
0000
0020
3000
0000
0000
,  // measure 59
0130
0001
0100
0001
0010
0100
1000
0010
0100
0000
0000
0000
0001
0000
1000
0000
,  // measure 60
2002
0000
0000
3003
;
