#TITLE:Ignited Night;
#SUBTITLE:;
#ARTIST:HHH;
#TITLETRANSLIT:;
#SUBTITLETRANSLIT:;
#ARTISTTRANSLIT:;
#CREDIT:;
#BANNER:[Offbeat] - Ignited Night.png;
#BACKGROUND:[Offbeat] - Ignited Night-bg.png;
#LYRICSPATH:;
#CDTITLE:;
#MUSIC:[Offbeat] - Ignited Night.mp3;
#OFFSET:-1.694;
#SAMPLESTART:17.370;
#SAMPLELENGTH:12.000;
#SELECTABLE:YES;
#BPMS:0.000=149.000;
#STOPS:;
#BGCHANGES:;

//---------------dance-single - ----------------
#NOTES:
     dance-single:
     :
     Hard:
     8:
     0.595,0.677,0.326,0.194,0.367:
0000
0000
0000
0000
,
0000
0000
0000
0000
,
0000
0000
0000
0000
,
1000
0100
1000
0100
0000
0000
0010
0001
0010
0001
0100
0001
,
2000
0000
0000
0000
3000
0000
0001
0100
,
0010
0000
0000
0000
0100
0000
0001
0000
0010
0000
0000
0100
0000
0000
1000
0000
,
0001
0100
0010
1000
0002
0000
1003
0100
,
0110
0100
1000
0000
0110
0100
0001
0000
,
1000
1000
0100
0100
0010
0010
0001
0001
,
2002
0000
0000
0000
3003
0000
1000
0100
,
0010
0000
0000
0100
0000
0000
1000
0000
0000
0001
0000
0100
0000
0000
0001
0000
,
0010
0000
0000
0100
0000
0000
1000
0000
0002
0000
0000
0000
1003
0000
0010
0000
,
0100
0000
0000
0001
0000
0000
0010
0000
0000
0001
0000
0100
0000
0000
0010
0000
,
1000
0100
0001
0100
2000
0000
3001
0100
,
0010
0000
0000
1000
0000
0000
0100
0000
0000
0001
0000
0100
0000
0000
1000
0000
,
0010
0000
0000
0100
0000
0000
0001
0000
2000
0000
0000
0000
3001
0000
0010
0000
,
0100
0000
0000
0010
0000
0000
0001
0000
0000
0100
0000
1000
0000
0000
0100
0000
,
0001
0000
0010
0000
0100
0000
1000
0000
0002
0000
0000
0000
1003
0000
0010
0100
,
0010
0000
1000
0000
0100
0000
0010
0000
0001
0000
0000
1000
0000
0000
0100
0000
,
0001
0000
0100
1000
0010
0000
0110
0100
,
0001
0000
0010
0000
1000
0000
0010
0000
0001
0000
0000
0100
0000
0000
0010
0000
,
1000
0000
0001
0100
1000
0000
1100
0100
,
0001
0000
0010
0000
0100
0000
1000
0000
0001
0000
0000
0100
0000
0000
1000
0000
,
0100
0000
0001
0010
0100
0000
1001
1000
,
0010
0000
0100
0000
0010
0000
1000
0000
0001
0100
0001
0000
0100
0000
0010
0000
,
1010
0000
0101
0000
1100
0000
0011
0001
,
1001
0000
0000
0000
1000
0000
0010
0000
0100
0000
0000
0010
0000
0000
1000
0000
,
0100
0000
0010
0000
0001
0000
0100
0000
0010
0100
0000
0001
0000
0000
1000
0000
,
1100
0000
0000
0000
0100
0000
0010
0000
0001
0000
0000
0100
0000
0000
0010
0000
,
1000
0000
0001
0000
0100
0000
1000
0000
0100
0001
0000
1000
0001
0000
1000
0000
,
1010
0000
0000
0000
0010
0000
0100
0000
0001
0000
0000
1000
0000
0000
0100
0000
,
0010
0000
0001
0000
1000
0000
0010
0000
0100
0001
0000
1000
0000
0000
0010
0000
,
0110
0000
0100
0001
0000
0100
0001
0000
1001
0000
1000
0100
0000
1000
0100
0000
,
0010
0001
0100
0010
0000
0000
1000
0100
0001
1000
0010
0001
,
2000
0000
3000
0000
0001
0100
0010
0000
,
2001
0000
0000
0000
0010
0000
0010
0000
0100
0000
0000
0100
0000
0000
3001
0000
,
1001
0001
0101
0100
0120
0000
1000
1030
,
0101
0100
0010
0000
1100
0100
0010
0000
,
0001
0100
0000
0000
0100
0010
0000
0000
0010
1000
0000
0000
1000
0001
0000
0000
,
2002
0000
3003
0000
1100
0001
0101
0000
,
1000
0000
0010
0000
0100
0000
0001
0000
0100
0000
0010
0000
1000
0000
0000
0000
0000
0000
0001
0000
0000
0010
0000
0000
,
0100
0000
0000
0010
0000
0000
0001
0000
0000
1000
0000
0010
0000
0000
1000
0000
,
0100
0000
0000
0010
0000
0000
0001
0000
2000
0000
0000
0000
3001
0000
0100
0000
,
0010
0000
0000
1000
0000
0000
0100
0000
0000
1000
0000
0010
0000
0000
0100
0000
,
0001
0010
1000
0010
0002
0000
1003
0010
,
0100
0000
0000
0001
0000
0000
0010
0000
0000
1000
0000
0010
0000
0000
0001
0000
,
0100
0000
0000
0010
0000
0000
1000
0000
0002
0000
0000
0000
1003
0000
0100
0000
,
0010
0000
0000
0100
0000
0000
1000
0000
0000
0010
0000
0001
0000
0000
0010
0000
,
1000
0000
0100
0000
0010
0000
0001
0000
2000
0000
0000
0000
3001
0000
0100
0010
,
0100
0000
0001
0000
0010
0000
0100
0000
1000
0000
0000
0001
0000
0000
0010
0000
,
1000
0000
0010
0001
0100
0000
0110
0010
,
1000
0000
0100
0000
0001
0000
0100
0000
1000
0000
0000
0010
0000
0000
0100
0000
,
0001
0000
1000
0010
0001
0000
0011
0010
,
1000
0000
0100
0000
0010
0000
0001
0000
1000
0000
0000
0010
0000
0000
0001
0000
,
0010
0000
1000
0100
0010
0000
1001
0001
,
0100
0010
0100
0001
1000
0100
0010
0001
,
0101
1010
0011
1100
,
2002
0000
0000
3003
;

//---------------dance-single - ----------------
#NOTES:
     dance-single:
     :
     Beginner:
     1:
     0.111,0.116,0.000,0.000,0.000: // measure 1
0000
0000
0000
0000
,  // measure 2
0000
0000
0000
0000
,  // measure 3
0000
0000
0000
0000
,  // measure 4
0000
0000
0000
0000
,  // measure 5
0000
0000
0000
0000
,  // measure 6
1000
0000
0000
0000
,  // measure 7
0001
0000
0001
0000
,  // measure 8
0001
0000
0000
0000
,  // measure 9
0100
0000
0100
0000
,  // measure 10
0100
0000
0000
0000
,  // measure 11
0010
0000
0000
0000
,  // measure 12
1000
0000
1000
0000
,  // measure 13
1000
0000
0000
0000
,  // measure 14
0001
0000
0001
0000
,  // measure 15
0001
0000
0000
0000
,  // measure 16
0100
0000
0100
0000
,  // measure 17
0100
0000
0000
0000
,  // measure 18
0010
0000
0010
0000
,  // measure 19
0010
0000
0000
0000
,  // measure 20
1000
0000
1000
0000
,  // measure 21
1000
0000
0000
0000
,  // measure 22
0001
0000
0001
0000
,  // measure 23
0001
0000
0000
0000
,  // measure 24
0010
0000
0010
0000
,  // measure 25
0010
0000
0000
0000
,  // measure 26
0100
0000
0100
0000
,  // measure 27
0100
0000
0000
0000
,  // measure 28
1000
0000
1000
0000
,  // measure 29
1000
0000
0000
0000
,  // measure 30
0001
0000
0001
0000
,  // measure 31
0001
0000
0000
0000
,  // measure 32
0100
0000
0100
0000
,  // measure 33
0100
0000
0000
0000
,  // measure 34
0010
0000
0010
0000
,  // measure 35
0010
0000
0000
0000
,  // measure 36
1000
0000
0000
0000
,  // measure 37
0001
0000
0001
0000
,  // measure 38
0001
0000
0000
0000
,  // measure 39
0010
0000
0010
0000
,  // measure 40
0010
0000
0000
0000
,  // measure 41
0000
0000
0000
0000
,  // measure 42
0100
0000
0000
0000
,  // measure 43
1000
0000
1000
0000
,  // measure 44
1000
0000
0000
0000
,  // measure 45
0001
0000
0001
0000
,  // measure 46
0001
0000
0000
0000
,  // measure 47
0010
0000
0010
0000
,  // measure 48
0010
0000
0000
0000
,  // measure 49
0100
0000
0100
0000
,  // measure 50
0100
0000
0000
0000
,  // measure 51
1000
0000
1000
0000
,  // measure 52
1000
0000
0000
0000
,  // measure 53
0001
0000
0001
0000
,  // measure 54
0001
0000
0000
0000
,  // measure 55
0100
0000
0100
0000
,  // measure 56
0100
0000
0000
0000
,  // measure 57
0010
0000
0010
0000
,  // measure 58
0010
0000
0000
0000
;

//---------------dance-single - ----------------
#NOTES:
     dance-single:
     :
     Easy:
     4:
     0.284,0.291,0.051,0.041,0.000: // measure 1
0000
0000
0000
0000
,  // measure 2
0000
0000
0000
0000
,  // measure 3
0000
0000
0000
0000
,  // measure 4
0000
0000
0000
0000
,  // measure 5
0000
0000
0000
0000
,  // measure 6
1000
0100
0010
0001
,  // measure 7
0010
0100
1000
0000
,  // measure 8
0001
0100
0010
1000
,  // measure 9
0010
0010
0100
0100
,  // measure 10
2002
0000
3003
0000
,  // measure 11
1000
0100
0010
0001
,  // measure 12
0010
0100
1000
0000
,  // measure 13
0001
0100
0010
1000
,  // measure 14
0010
0100
0001
0000
,  // measure 15
1000
0100
0001
0100
,  // measure 16
1000
0100
0001
0000
,  // measure 17
1000
0010
0001
0010
,  // measure 18
1000
0010
0001
0010
,  // measure 19
1000
1000
0100
0100
,  // measure 20
0010
0010
0001
0000
,  // measure 21
0100
0100
0010
0010
,  // measure 22
1000
1000
0001
0000
,  // measure 23
1000
1000
0100
0100
,  // measure 24
0010
0010
0001
0000
,  // measure 25
0100
0100
0010
0010
,  // measure 26
1000
1000
0001
0001
,  // measure 27
1000
0010
0100
0010
,  // measure 28
1000
0100
0010
0100
,  // measure 29
1000
0001
0010
0001
,  // measure 30
0100
0010
0100
0001
,  // measure 31
0010
0100
1000
0100
,  // measure 32
0010
0001
1000
0001
,  // measure 33
0100
0010
1000
0100
,  // measure 34
0010
0010
0001
0001
,  // measure 35
1001
0000
0000
0000
,  // measure 36
1000
0010
0100
0010
,  // measure 37
1000
0100
0010
0100
,  // measure 38
1000
1000
0001
0001
,  // measure 39
0100
0010
1000
0001
,  // measure 40
2002
0000
3003
0000
,  // measure 41
0100
0100
1001
0000
,  // measure 42
1000
0100
0010
0001
,  // measure 43
0010
0100
1000
0000
,  // measure 44
0001
0100
0010
1000
,  // measure 45
0010
0100
0001
0000
,  // measure 46
1000
0100
0001
0100
,  // measure 47
1000
0100
0001
0000
,  // measure 48
1000
0010
0001
0010
,  // measure 49
1000
0010
0001
0010
,  // measure 50
1000
1000
0100
0100
,  // measure 51
0010
0010
0001
0000
,  // measure 52
0100
0100
0010
0010
,  // measure 53
1000
1000
0001
0000
,  // measure 54
1000
1000
0100
0100
,  // measure 55
0010
0010
0001
0000
,  // measure 56
0100
0100
0010
0010
,  // measure 57
1000
1000
0001
0001
,  // measure 58
1001
0000
0000
0000
;

//---------------dance-single - ----------------
#NOTES:
     dance-single:
     :
     Medium:
     6:
     0.458,0.494,0.653,0.122,0.000: // measure 1
0000
0000
0000
0000
,  // measure 2
0000
0000
0000
0000
,  // measure 3
0000
0000
0000
0000
,  // measure 4
0000
0000
0000
0000
,  // measure 5
0000
0000
0000
0000
,  // measure 6
1000
0000
0010
0000
0100
0001
0100
0000
,  // measure 7
0001
0000
0010
0100
0010
0000
0100
0000
,  // measure 8
1000
0010
1000
0000
0001
0010
0001
0000
,  // measure 9
1100
0011
0101
1010
,  // measure 10
2002
0000
3003
0000
,  // measure 11
1000
0100
0010
0001
,  // measure 12
0100
0000
0010
1000
0001
0000
1001
0000
,  // measure 13
1000
0100
0010
0001
,  // measure 14
1000
0100
0001
0000
0001
0100
1000
0000
,  // measure 15
0001
0100
0010
1000
,  // measure 16
0001
0010
0100
1000
0001
0000
1001
0000
,  // measure 17
1000
0010
0100
0001
,  // measure 18
1100
0011
0101
1010
,  // measure 19
1000
0100
1000
0000
0100
0001
0100
0000
,  // measure 20
0101
0110
2010
3001
,  // measure 21
1000
0010
1000
0000
0010
0100
0010
0000
,  // measure 22
0110
0101
0012
1003
,  // measure 23
0001
0010
0001
0000
0100
0001
0100
0000
,  // measure 24
0101
0110
2010
3001
,  // measure 25
1000
0100
1000
0000
0010
0100
0010
0000
,  // measure 26
1010
0101
0011
1100
,  // measure 27
1001
0000
1000
0000
0010
0100
0010
0000
,  // measure 28
0100
0001
0010
0000
0100
1000
0010
0000
,  // measure 29
1000
0000
0001
0000
0100
0010
0100
0000
,  // measure 30
0001
0010
0100
0000
1000
0010
0100
0000
,  // measure 31
0001
0000
1000
0000
0010
0100
0010
0000
,  // measure 32
1000
0100
0010
0000
0001
0100
0010
0000
,  // measure 33
1000
0000
0001
0000
0010
0100
0010
0000
,  // measure 34
0011
1100
0101
1010
,  // measure 35
2002
0000
3003
0000
,  // measure 36
1100
0000
0011
0000
,  // measure 37
0101
0000
1010
0000
,  // measure 38
1100
0000
0011
0000
,  // measure 39
0101
1010
0011
1100
,  // measure 40
2002
3003
0110
1001
,  // measure 41
0100
0100
0100
0100
0100
0000
1001
0000
,  // measure 42
1000
0100
0010
0001
,  // measure 43
0100
0000
0010
1000
0001
0000
1001
0000
,  // measure 44
1000
0100
0010
0001
,  // measure 45
1000
0100
0001
0000
0001
0100
1000
0000
,  // measure 46
0001
0100
0010
1000
,  // measure 47
0001
0010
0100
1000
0001
0000
1001
0000
,  // measure 48
1000
0010
0100
0001
,  // measure 49
1100
0011
0101
1010
,  // measure 50
1000
0100
1000
0000
0100
0001
0100
0000
,  // measure 51
0101
0110
2010
3001
,  // measure 52
1000
0010
1000
0000
0010
0100
0010
0000
,  // measure 53
0110
0101
0012
1003
,  // measure 54
0001
0010
0001
0000
0100
0001
0100
0000
,  // measure 55
0101
0110
2010
3001
,  // measure 56
1000
0100
1000
0000
0010
0100
0010
0000
,  // measure 57
1010
0101
0011
1100
,  // measure 58
1001
0000
0000
0000
;
