#TITLE:Castle on the Moon;
#SUBTITLE:;
#ARTIST:青龍;
#TITLETRANSLIT:;
#SUBTITLETRANSLIT:;
#ARTISTTRANSLIT:Seiryuu;
#CREDIT:;
#BANNER:;
#BACKGROUND:;
#LYRICSPATH:;
#CDTITLE:;
#MUSIC:Castle on the Moon.mp3;
#OFFSET:-0.469;
#SAMPLESTART:28.300;
#SAMPLELENGTH:12.000;
#SELECTABLE:YES;
#DISPLAYBPM:191.000;
#BPMS:0.000=95.500,28.000=191.000,152.000=382.001,160.000=191.000;
#STOPS:;
#BGCHANGES:;

//---------------dance-single - ----------------
#NOTES:
     dance-single:
     :
     Hard:
     10:
     0.737,0.973,0.093,0.124,0.314: // measure 1
0000
0000
0000
0000
,  // measure 2
0000
0000
0000
0000
0000
0000
0000
0000
0000
0000
0000
0000
0000
0000
0000
0000
0000
0000
0000
0000
0000
0000
1000
0001
,  // measure 3
1000
0001
1000
0001
0000
0001
1000
0000
1000
0001
0000
0000
,  // measure 4
0010
0000
0100
0000
1000
0000
0001
0000
0100
0000
0010
0000
1000
0000
0001
0000
0010
0000
0100
0000
0000
0000
1000
0001
,  // measure 5
1000
0001
0010
0100
0000
1000
0001
0000
0000
0000
0000
0000
,  // measure 6
0001
0010
0100
1000
0010
0100
0001
0010
,  // measure 7
0001
0010
1000
0010
0001
0100
0010
1000
0001
0000
1000
0000
0001
1000
0001
0000
,  // measure 8
1000
0010
0100
0001
0100
1000
0100
0001
,  // measure 9
0010
0100
1000
0100
0001
0100
1000
0010
,  // measure 10
0100
0001
1000
0010
0100
0001
0010
0100
,  // measure 11
1000
0001
0010
0100
1000
0100
0001
0100
,  // measure 12
1000
0010
0001
0010
0100
0001
0010
0100
,  // measure 13
1000
0100
0010
0001
0100
0010
1000
0100
,  // measure 14
0010
0001
0010
1000
0010
0100
1000
0010
,  // measure 15
0100
0001
0010
0100
1000
0001
1000
0000
,  // measure 16
0001
1000
0001
0010
0100
1000
0010
0001
,  // measure 17
0010
1000
0100
0010
0001
0010
0100
1000
,  // measure 18
0001
0010
0100
1000
0100
0010
0001
1000
,  // measure 19
0100
0010
0001
1000
0001
0100
0010
1000
,  // measure 20
0100
0001
0100
1000
0001
0100
0001
1000
,  // measure 21
0010
0100
0010
1000
0001
0010
0100
1000
,  // measure 22
0100
0010
0001
0100
1000
0100
0010
0100
,  // measure 23
1000
0100
0010
1000
0010
0100
0001
0000
,  // measure 24
0010
0000
0100
0000
0000
1000
0000
0000
0010
0000
0000
0100
0000
0000
0001
0000
,  // measure 25
0000
0000
0010
0000
0000
1000
0000
0000
0010
0000
0000
0001
0000
0000
0100
0000
,  // measure 26
0000
0000
1000
0000
0000
0100
0000
0000
0001
0000
0000
0010
0000
0000
0100
0000
,  // measure 27
0000
0000
1000
0000
0000
0100
0000
0000
0010
0000
0000
0001
0000
0000
1000
0000
,  // measure 28
1001
1010
1100
1001
,  // measure 29
0101
0011
1001
1001
,  // measure 30
0010
0000
1000
0000
0001
0000
0010
0000
0100
1000
0001
0100
0010
1000
0001
0010
,  // measure 31
0100
0000
1000
0000
0001
1000
0001
0000
,  // measure 32
1000
0000
0001
0000
1000
0001
0000
1000
0001
0000
1000
0001
0000
1000
0001
0000
,  // measure 33
0010
0000
0001
0000
0010
0001
0000
0010
0001
0000
0010
0001
0000
0010
0001
0000
,  // measure 34
0010
0000
0100
0000
0010
0100
0000
0010
0100
0000
0010
0100
0000
0010
0100
0000
,  // measure 35
1000
0000
0010
0000
1000
0010
0000
1000
0010
0000
1000
0010
0000
1000
0010
0000
,  // measure 36
1000
0010
0100
0001
0010
0100
1000
0100
,  // measure 37
0001
0100
1000
0010
0100
0001
0010
0100
,  // measure 38
2000
0000
0000
0000
,  // measure 39
0002
0000
0000
0000
,  // measure 40
0000
0000
0000
3003
,  // measure 41
2000
3000
0002
0003
,  // measure 42
0020
0030
0200
0300
,  // measure 43
2000
3000
0020
0030
,  // measure 44
0200
0300
0002
0003
,  // measure 45
1000
0100
0010
0001
0100
1000
0100
0010
,  // measure 46
1000
0100
0001
0100
0010
0001
0010
0100
,  // measure 47
1000
0001
0010
0100
1000
0100
0010
0001
,  // measure 48
0100
0010
0100
0001
0010
0100
1000
0000
,  // measure 49
0001
0000
1000
0000
0001
1000
0001
0000
,  // measure 50
1000
0000
0001
0000
1000
0001
1000
0000
,  // measure 51
0001
0010
0100
1000
0001
0100
0010
1000
0001
0100
0001
1000
0100
0010
0001
1000
,  // measure 52
0010
0100
0001
0010
0100
1000
0001
0000
1000
0000
0001
0000
1000
0000
0000
0000
,  // measure 53
0010
1000
0001
0010
0100
1000
0001
0100
,  // measure 54
0010
0100
0001
0010
0100
0000
1000
0100
,  // measure 55
0010
0001
0100
1000
0100
0001
1000
0010
,  // measure 56
1000
0001
0010
0100
1000
0010
0001
0010
,  // measure 57
0100
0001
0010
0100
1000
0001
0010
0100
,  // measure 58
1000
0001
0100
0010
1000
0100
0001
0100
,  // measure 59
1000
0010
0100
0001
1000
0100
0010
0001
,  // measure 60
0010
0100
1000
0001
0100
0010
1000
0000
,  // measure 61
1000
0100
0001
0100
1000
0010
0100
0001
,  // measure 62
0010
1000
0010
0100
1000
0000
0010
0100
,  // measure 63
0001
0010
0100
1000
0001
0010
0100
1000
,  // measure 64
0010
0001
0010
0100
0001
0010
0100
1000
,  // measure 65
0100
0001
0100
1000
0010
0100
0001
0010
,  // measure 66
0100
0010
0001
0100
1000
0100
0010
1000
,  // measure 67
0100
0001
0100
0010
0001
0010
0100
1000
,  // measure 68
0001
1000
0100
0010
0001
1000
0001
1000
,  // measure 69
2002
0000
0000
0000
,  // measure 70
0000
0000
0000
0000
,  // measure 71
3003
0000
0000
0000
;

//---------------dance-single - ----------------
#NOTES:
     dance-single:
     :
     Medium:
     8:
     0.634,0.721,0.093,0.144,0.165:
0000
0000
0000
0000
,
0000
0000
0000
0000
0000
0000
0000
0000
0000
0000
0000
0001
,
1000
0001
1000
0001
0000
0001
1000
0000
1000
0001
0000
0000
,
0001
0010
0100
1000
0001
0100
0010
1000
0001
1000
0000
0001
,
1000
0001
1000
0001
0000
0001
1000
0000
0000
0000
0000
0000
,
0001
0010
0100
0000
1000
0010
0100
0000
,
0001
1000
0001
0000
1000
0001
1000
0000
0001
0000
1000
0000
1001
0000
0000
0000
,
0001
0100
1000
0100
0001
0000
0001
0010
,
1000
0000
1000
0010
0001
0000
1000
0100
,
0001
0100
0010
0001
1000
0000
1000
0100
,
0001
0000
0001
0100
1000
0000
0001
1000
,
0001
0010
0100
1000
0001
0000
0001
1000
,
0001
0000
1000
0001
1000
0000
0001
0010
,
0100
1000
0100
0010
0001
0000
1000
0001
,
1000
0000
0001
1000
0001
0000
0000
0000
,
1001
0000
0101
0000
0001
0100
0001
0000
,
0100
0001
0100
0000
0001
1000
0001
0000
,
1000
0100
0001
0100
1000
0010
0001
0010
,
0100
0001
0010
0100
1000
0001
1000
0000
,
1001
0000
1100
0000
1000
0100
1000
0000
,
0100
1000
0100
0000
1000
0001
1000
0000
,
0001
1000
0010
1000
0001
0010
0100
1000
,
0010
0001
0010
1000
0100
0010
0001
0000
,
0000
0000
1000
0000
0000
0100
0000
0000
0001
0000
0000
0100
0000
0000
1000
0000
,
0000
0000
0001
0000
0000
0100
0000
0000
1000
0000
0000
0100
0000
0000
0001
0000
,
0000
0000
1000
0000
0000
1000
0000
0000
1000
0000
0000
1000
0000
0000
1000
0000
,
0000
0000
0001
0000
0000
0001
0000
0000
0001
0000
0000
0001
0000
0000
0001
0000
,
1002
0000
1000
0000
0100
0000
0010
0003
,
2001
0000
0001
0000
0010
0000
0100
3000
,
0001
1000
0001
1000
0001
1000
0001
1000
,
0001
0000
1000
0000
0001
1000
0001
0000
,
1000
0000
0001
0000
1000
0000
0000
0000
0001
0000
0000
1000
0001
0000
0000
0000
,
0001
0000
1000
0000
0001
0000
0000
0000
0001
0000
0000
0001
1000
0000
0000
0000
,
1000
0000
0010
0000
0100
0000
0000
0000
0001
0000
0000
0001
0100
0000
0000
0000
,
0001
0000
0010
0000
0100
0000
0000
0000
1000
0000
0000
1000
0100
0000
0000
0000
,
1000
0000
0100
0000
0001
0000
0000
0000
0100
0000
0000
1000
0001
0000
0000
0000
,
0001
0000
0100
0000
1000
0000
0000
0000
0100
0000
0000
0001
0100
0000
0000
0000
,
0001
0000
1000
0000
0001
0000
0000
0000
1000
0000
0000
0001
1000
0000
0000
0000
,
2002
0000
0000
0000
,
0000
0000
0000
3003
,
2000
3000
0002
0003
,
0020
0030
0200
0300
,
2000
3000
0200
0300
,
0020
0030
0002
0003
,
1000
0001
1000
0000
0001
0100
0001
0000
,
0100
0010
0100
0000
0010
1000
0010
0000
,
1000
0001
1000
0000
0001
0010
0001
0000
,
0010
0100
0010
0000
0100
1000
0100
0000
,
1000
0000
0001
0000
1000
0001
1000
0000
,
0001
0000
1000
0000
0001
1000
0001
0000
,
1000
0001
1000
0001
1000
0001
1000
0001
,
1000
0001
1000
0000
0001
1000
0001
0000
,
1000
0100
0001
0100
0010
0001
0010
0100
,
1000
0010
0001
0010
0100
0000
0001
1000
,
0100
0001
0100
1000
0010
0100
0001
0010
,
0100
1000
0001
0010
0100
1000
0010
0001
,
0010
1000
0100
0010
0001
0010
0100
1000
,
0001
0100
0001
1000
0010
0001
0010
0100
,
0001
0010
0100
1000
0010
0100
0010
1000
,
0100
0010
0001
0100
0010
0100
0001
0000
,
0010
0001
1000
0001
0010
0100
1000
0010
,
0001
0010
1000
0100
0010
0000
0001
1000
,
0100
0010
0001
1000
0100
0010
0001
0100
,
1000
0100
0001
0010
0100
1000
0010
0001
,
0010
1000
0100
0001
0100
0010
0001
0100
,
1000
0100
0001
0010
0100
1000
0100
0010
,
0001
1000
0100
0010
0001
0010
0100
1000
,
0001
0010
0100
1000
0001
1000
0001
0000
,
2002
0000
0000
0000
,
0000
0000
0000
0000
,
3003
0000
0000
0000
;

//---------------dance-single - ----------------
#NOTES:
     dance-single:
     :
     Easy:
     5:
     0.416,0.577,0.051,0.247,0.000:
0000
0000
0000
0000
,
0000
0000
0000
0000
,
0002
0003
2000
3000
0020
0030
0200
0300
,
0002
0003
2000
3000
0020
0030
0200
0000
,
0002
0000
0303
0000
2002
0000
0000
3003
,
0001
0001
0000
0000
1000
1000
0000
0000
,
0001
1000
0001
1000
0001
1000
1001
1001
,
0001
0010
0100
1000
,
0010
0100
0001
0100
,
0010
1000
0001
0010
,
0100
0010
0100
0000
0010
0100
0010
0000
,
0100
0010
1000
0001
,
0010
0100
1000
0100
,
0010
0001
1000
0001
,
1000
0001
1000
0000
0001
1000
0001
0000
,
1000
0100
0010
0001
,
0100
0010
1000
0010
,
0100
0001
0010
0100
,
1000
0001
1000
0000
0001
1000
0001
0000
,
0010
0100
1000
0100
,
0001
0100
1000
0010
,
0001
0010
1000
0001
,
1000
0010
1000
0000
0010
1000
0010
0000
,
1000
1000
1000
0000
,
0001
0001
0001
0000
,
0100
0100
0100
0000
,
0010
0010
0010
0000
,
0010
1000
0010
1000
,
0100
0001
0100
1000
,
0010
0100
0001
1000
,
0001
1000
0001
0000
,
0001
0001
0001
0001
,
1000
1000
1000
1000
,
0010
0010
0010
0010
,
0100
0100
0100
0100
,
0001
0100
0001
0000
0100
0000
0001
0000
,
0010
0100
0010
0000
0100
0000
0010
0000
,
0100
0010
0100
0000
0010
0100
0001
0000
,
2002
0000
0000
0000
,
0000
0000
0000
3003
,
2000
3200
0320
0030
,
0002
0003
0020
0030
,
0200
0300
2000
3000
,
0020
0030
0200
0300
,
0001
1000
0001
1000
,
0010
0100
0010
0100
,
0010
1000
0010
1000
,
0001
1000
0001
1000
,
0001
0001
0000
0000
,
1000
1000
0000
0000
,
0001
1000
0001
1000
,
0001
1000
0001
0000
1000
0000
0000
0000
,
0001
1000
0010
1000
,
0001
0010
0100
0000
,
0100
1000
0010
0100
,
0001
1000
0100
0010
,
0001
0010
0100
1000
,
0010
1000
0001
0100
,
0001
0010
0100
0010
,
0001
1000
0010
0100
,
0010
0010
1000
1000
,
0001
0001
1000
0000
,
0001
1000
0010
1000
,
0001
0010
0100
1000
,
0001
1000
0010
0100
,
0001
1000
0001
0010
,
0100
0010
0001
1000
,
0001
1000
0001
1000
,
2002
0000
0000
0000
,
0000
0000
0000
0000
,
3003
0000
0000
0000
;

//---------------dance-single - ----------------
#NOTES:
     dance-single:
     :
     Beginner:
     4:
     0.290,0.385,0.062,0.021,0.000:
0000
0000
0000
0000
,
0000
0000
0000
0000
,
0001
0001
1000
1000
,
0001
0010
0100
1000
,
0001
0000
1000
0000
,
0001
0001
1000
1000
,
0001
1000
0001
1001
,
0001
0000
0001
0000
,
1000
0000
1000
0000
,
0010
0000
0010
0000
,
0100
0000
0100
0000
,
0001
0000
0001
0000
,
1000
0000
1000
0000
,
0001
0000
0001
0000
,
1000
0000
1000
0000
,
0000
0010
0000
0010
,
0000
0100
0000
0100
,
0000
0001
0000
0001
,
0000
1000
0000
1000
,
0000
0001
0000
1000
,
0000
0001
0000
1000
,
0000
0010
0000
0100
,
0000
0010
0000
0100
,
0001
0001
0001
0000
,
1000
1000
1000
0000
,
0100
0100
0100
0000
,
0010
0010
0010
0000
,
0001
0001
0001
0000
,
1000
1000
1000
0000
,
0001
0001
0001
0001
,
1000
0000
0001
0000
,
0001
1000
0001
0000
,
0010
0100
0010
0000
,
1000
0001
1000
0000
,
0100
0010
0100
0000
,
0001
0010
0100
0000
,
1000
0010
0100
0000
,
0001
1000
0001
1000
,
2002
0000
0000
0000
,
0000
0000
0000
3003
,
0001
0000
1000
0000
,
0010
0000
0100
0000
,
0001
0000
0010
0000
,
0100
0000
1000
0000
,
0001
0000
1000
0000
,
0010
0000
0100
0000
,
0001
0000
1000
0000
,
0001
0000
1000
0000
,
0001
0001
0001
0000
,
1000
1000
1000
0000
,
0001
1000
0001
1000
,
1001
1001
1001
0000
,
0010
0100
0001
0100
,
0010
1000
0100
0000
,
1000
0010
1000
0001
,
0010
0100
0010
0001
,
1000
0010
1000
0001
,
0010
0100
1000
0010
,
1000
0001
0010
0100
,
0010
0001
1000
0001
,
0001
0001
1000
1000
,
0010
0010
0010
0000
,
0001
0010
0100
0010
,
0001
1000
0010
1000
,
0001
0100
0001
1000
,
0010
0100
1000
0001
,
1000
1000
0001
0001
,
1000
0001
1000
0001
,
1001
0000
0000
0000
;
