#VERSION:0.81;
#TITLE:Too Young;
#SUBTITLE:;
#ARTIST:Joseph Birdsong;
#TITLETRANSLIT:;
#SUBTITLETRANSLIT:;
#ARTISTTRANSLIT:;
#GENRE:;
#ORIGIN:;
#CREDIT:;
#BANNER:;
#BACKGROUND:;
#PREVIEWVID:;
#JACKET:;
#CDIMAGE:;
#DISCIMAGE:;
#LYRICSPATH:;
#CDTITLE:;
#MUSIC:Too Young.mp3;
#OFFSET:1.689;
#SAMPLESTART:54.311;
#SAMPLELENGTH:16.909;
#SELECTABLE:YES;
#BPMS:0.000=135.000;
#STOPS:;
#DELAYS:;
#WARPS:;
#TIMESIGNATURES:0.000=4=4;
#TICKCOUNTS:0.000=4;
#COMBOS:0.000=1;
#SPEEDS:0.000=1.000=0.000=0;
#SCROLLS:0.000=1.000;
#FAKES:;
#LABELS:0.000=Song Start;
#BGCHANGES:;
#KEYSOUNDS:;
#ATTACKS:
;

//---------------dance-single - ----------------
#NOTEDATA:;
#CHARTNAME:;
#STEPSTYPE:dance-single;
#DESCRIPTION:;
#CHARTSTYLE:;
#DIFFICULTY:Hard;
#METER:9;
#RADARVALUES:0.602,0.945,0.106,0.477,0.365,343.000,10.000,45.000,0.000,0.000,0.000,0.000,0.000,0.602,0.945,0.106,0.477,0.365,343.000,10.000,45.000,0.000,0.000,0.000,0.000,0.000;
#CREDIT:;
#OFFSET:1.689;
#BPMS:0.000=135.000
;
#STOPS:127.979=0.020
;
#DELAYS:;
#WARPS:;
#TIMESIGNATURES:0.000=4=4
;
#TICKCOUNTS:0.000=4
;
#COMBOS:0.000=1
;
#SPEEDS:0.000=1.000=0.000=0
;
#SCROLLS:0.000=1.000
;
#FAKES:;
#LABELS:0.000=Song Start
;
#NOTES:
0000
0000
0000
0000
,
0000
0000
0000
0000
,
0000
0000
0000
0000
,
0000
0000
0000
0000
,
0002
2003
3002
2003
,
3020
0230
0320
0230
,
0320
2030
3200
0320
,
0032
0203
0302
0023
,
0031
0000
0000
0001
0100
0000
0010
0000
1000
0000
0000
1000
0100
0000
0010
0000
,
0001
0000
0000
0001
0010
0000
0001
0000
0100
0000
0000
0100
0010
0000
1000
0000
,
0010
0000
0000
0010
1000
0000
0100
0000
0010
0000
0000
0010
0100
0000
1000
0000
,
0100
1000
0010
0100
0010
0100
0010
0100
,
0001
0100
0001
0010
0001
0100
0010
0100
,
0010
1000
0100
0010
0002
0000
0203
0000
,
0310
1000
0100
1000
0010
0100
0010
1000
,
0100
0001
0100
1000
0020
0000
0230
0000
,
0301
1000
1000
0010
0100
0001
0010
0001
,
0100
0010
1000
0010
2000
0000
3100
0010
,
0001
0100
0001
0010
0001
0000
0101
0101
,
0000
0010
1000
0100
0010
0001
1000
0000
,
0001
0000
0001
0100
0000
0100
0010
0000
0000
0010
0000
0010
,
1000
0000
1000
0100
0000
0100
0010
0000
0000
0010
0000
0000
,
0001
0000
0001
0100
0000
0100
0001
0000
0000
0001
0000
0001
,
0010
0000
0000
0000
0000
0000
0000
0000
0010
0000
0000
0000
0100
0000
0000
0000
0000
0000
0000
0000
0100
0000
0000
0000
0010
0000
0000
0000
0000
0000
0000
0000
0000
0000
0000
0000
0010
0000
0000
0100
0000
0000
0010
0000
0000
0000
0000
0000
,
0100
0000
0100
1000
0000
1000
0010
0000
0010
0100
0000
0100
,
0010
0000
0010
1000
0000
1000
0001
0000
0001
1000
0000
1000
,
0001
0000
0001
0100
0000
0100
0010
0000
0000
0020
0000
0000
,
2030
0000
3200
0000
0320
0000
0000
0030
,
0001
0100
0001
0000
0100
0000
0010
1000
,
0100
0000
1000
0000
0000
0000
1000
0000
0000
0000
0010
0100
0010
0000
0100
0000
,
0010
0100
0010
0000
0100
0000
0001
0010
,
0000
0001
0100
0010
0200
0000
0320
0000
,
2030
0000
3001
0100
0010
1000
0100
0000
,
0011
0000
0001
0100
0010
1000
0100
0010
,
0001
0101
0010
1100
,
0010
0000
0100
0010
0100
0010
0100
0010
,
1000
0000
0010
0100
0001
0010
0001
0100
,
0020
2030
3200
0320
,
0032
0000
0203
0000
0320
0000
1030
0100
,
1000
0000
0010
0100
0010
0100
0010
0000
,
1000
0000
0001
0100
0000
0001
0100
0000
0001
0000
0010
0000
0001
0000
0100
0010
,
0100
0000
0010
1000
0000
0001
0100
0000
0001
0000
1000
0000
0001
0000
0100
0000
,
0020
0000
2030
0000
3200
0000
0310
0001
,
0000
0000
0110
0000
0000
1100
0000
0000
0101
0000
0000
0011
0000
0000
0110
0000
,
2000
0000
3020
0000
0130
0001
0010
0001
,
0000
0000
0100
0010
0000
1000
0100
0000
1000
0000
0010
0000
0100
0000
0001
0000
,
0020
0000
0000
0000
0230
0000
0000
0000
2000
0300
0000
0000
3010
0000
0100
0000
,
0000
0001
0000
1000
0100
0000
0010
0000
,
0100
1000
0100
1000
0100
1000
0100
1000
0100
0010
0100
0010
0100
0010
0100
0010
,
0001
0010
0001
0010
0001
0010
0001
0010
0001
0100
0001
0100
0001
0100
0001
0100
,
0010
1000
0010
1000
0010
1000
0010
1000
0010
0100
0010
0100
0010
0100
0010
0100
,
0001
0100
0001
0100
0001
0100
0001
1000
0001
1000
0001
1000
0001
1000
0002
2000
,
0000
0000
3003
0000
;

//---------------dance-single - ----------------
#NOTEDATA:;
#CHARTNAME:;
#STEPSTYPE:dance-single;
#DESCRIPTION:;
#CHARTSTYLE:;
#DIFFICULTY:Medium;
#METER:6;
#RADARVALUES:0.381,0.439,0.180,0.159,0.064,220.000,17.000,15.000,0.000,0.000,0.000,0.000,0.000,0.381,0.439,0.180,0.159,0.064,220.000,17.000,15.000,0.000,0.000,0.000,0.000,0.000;
#CREDIT:;
#OFFSET:1.689;
#BPMS:0.000=135.000
;
#STOPS:127.979=0.020
;
#DELAYS:;
#WARPS:;
#TIMESIGNATURES:0.000=4=4
;
#TICKCOUNTS:0.000=4
;
#COMBOS:0.000=1
;
#SPEEDS:0.000=1.000=0.000=0
;
#SCROLLS:0.000=1.000
;
#FAKES:;
#LABELS:0.000=Song Start
;
#NOTES:
0000
0000
0000
0000
,
0000
0000
0000
0000
,
0000
0000
0000
0000
,
0000
0000
0000
0000
,
2000
0000
3020
0000
0230
0000
0301
0100
,
0002
0000
0023
0000
0230
0000
1300
0100
,
2000
0000
3020
0000
0230
0000
0310
0100
,
0010
0000
0000
0100
0000
0000
0001
0000
,
1000
0000
0000
1000
0000
0000
0000
0001
,
0000
0000
0000
0001
0000
0000
0000
1000
,
0000
0000
0000
0010
0000
0000
0000
0100
,
0000
0000
0000
0010
0000
0000
0100
0000
,
0001
0010
0001
0100
,
0110
0110
1001
1001
,
0100
1000
0010
0100
,
0101
0110
1010
1001
,
0001
1000
0001
0000
0100
0000
0010
0000
,
1000
0000
0100
1000
0100
0000
1000
0000
,
0010
0000
0100
0000
0001
0000
0100
0001
,
0000
0100
0010
1000
,
0001
0100
0010
1000
,
0100
0000
0100
1000
0000
1000
0010
0000
0000
0100
0000
0000
,
0001
0010
0100
0010
,
0001
0000
0000
0000
0001
0000
0100
0000
0000
0000
0100
0000
0010
0000
0000
0000
0000
0000
0100
0000
0000
0010
0000
0000
,
0100
0000
0100
0001
0000
0001
0100
0000
0000
0100
0000
0000
,
0010
0000
0010
0100
0000
0100
0010
0000
0000
1000
0000
0000
,
0100
0000
0100
1000
0000
1000
0100
0000
0000
0100
0000
0000
,
0010
0000
0001
0000
0200
0000
0000
0300
,
0001
0110
0010
0000
,
1100
0000
0000
0110
0000
0000
0001
0000
,
0100
0001
0100
0000
0001
0000
0000
0010
,
0000
0100
1000
0010
,
0100
0000
0001
0000
0100
0001
0100
0000
,
0001
0000
0010
0000
0100
0010
0100
0000
,
1000
1100
0010
0110
,
0001
0000
0101
0000
0001
0000
1000
0001
,
1000
0000
0001
0000
0100
0000
0010
0100
,
0010
1000
0100
1000
,
0010
0000
0100
0000
0001
0000
0100
0001
,
0200
0000
0000
0300
0002
0000
0023
0000
,
0230
1000
0001
0310
,
0002
1000
0010
0103
,
0001
0000
1000
0000
0001
0000
0100
0001
,
0000
0000
1000
0000
0000
0001
0000
0000
1000
0000
0000
0001
0000
0000
1000
0000
,
0001
0000
0100
0000
0001
0010
0001
0010
,
0000
0000
0001
0000
0100
0000
0010
0100
,
0010
0000
1000
0000
0100
0000
0000
1100
,
0000
0010
0110
0110
,
0001
0100
0001
0100
0001
0010
0001
0010
,
0001
1000
0001
1000
0010
1000
0010
1000
,
0010
0100
0010
0100
0001
0100
0001
0100
,
0001
1000
0001
1000
0001
0010
0100
0010
;

//---------------dance-single - ----------------
#NOTEDATA:;
#CHARTNAME:;
#STEPSTYPE:dance-single;
#DESCRIPTION:;
#CHARTSTYLE:;
#DIFFICULTY:Easy;
#METER:4;
#RADARVALUES:0.250,0.329,0.053,0.021,0.000,158.000,5.000,2.000,0.000,0.000,0.000,0.000,0.000,0.250,0.329,0.053,0.021,0.000,158.000,5.000,2.000,0.000,0.000,0.000,0.000,0.000;
#CREDIT:;
#NOTES:
0000
0000
0000
0000
,
0000
0000
0000
0000
,
0000
0000
0000
0000
,
0000
0000
0000
0000
,
0001
0001
0001
0100
,
0010
0010
0010
0010
,
1000
0100
1000
0100
,
1000
0010
0100
0010
,
0101
0001
0011
0100
,
1100
0010
0110
0001
,
0100
0010
0100
0001
,
0010
0000
0000
0010
,
0100
0000
1000
0000
,
0010
0100
0002
0003
,
0100
0000
0010
0000
,
1000
0100
0010
0010
,
0001
0000
0100
0000
,
0001
0010
0100
0100
,
1000
0000
0010
0000
,
0100
0010
0100
0000
,
0001
0001
1000
1000
,
0010
0010
0010
0100
,
0001
0001
0010
0010
,
0100
0100
0100
1000
,
0010
0100
0010
0100
,
0001
0100
0001
0100
,
0010
1000
0100
1000
,
0010
0100
0110
0000
,
0001
0100
0001
0001
,
0100
0010
1000
1000
,
0100
0010
0001
0000
,
1000
0000
0001
0100
,
0010
0010
0010
1000
,
0100
0100
0100
0010
,
0001
0100
0001
0010
,
0001
0100
0010
1000
,
0100
0000
1000
0000
,
0010
0100
0020
0030
,
0100
0000
0001
0000
,
0010
0000
0100
0100
,
0100
0000
0000
1000
,
0010
0000
0000
0100
,
0001
0000
0010
0000
,
0001
0000
0100
0001
,
0100
0000
0001
0000
,
1000
0000
0001
0000
,
1000
0010
0100
0000
,
0010
0000
1000
0100
,
1000
0100
1000
0010
,
0100
0001
0100
0001
,
0100
0001
0010
0100
,
1000
0010
0100
0001
;

//---------------dance-single - ----------------
#NOTEDATA:;
#CHARTNAME:;
#STEPSTYPE:dance-single;
#DESCRIPTION:;
#CHARTSTYLE:;
#DIFFICULTY:Beginner;
#METER:2;
#RADARVALUES:0.126,0.219,0.000,0.000,0.000,83.000,0.000,0.000,0.000,0.000,0.000,0.000,0.000,0.126,0.219,0.000,0.000,0.000,83.000,0.000,0.000,0.000,0.000,0.000,0.000,0.000;
#CREDIT:;
#NOTES:
// measure 0
0000
0000
0000
0000
,  // measure 1
0000
0000
0000
0000
,  // measure 2
0000
0000
0000
0000
,  // measure 3
0000
0000
0000
0000
,  // measure 4
0001
0000
0000
0000
,  // measure 5
0100
0000
0000
0000
,  // measure 6
0010
0000
0000
0000
,  // measure 7
0100
0000
0000
0000
,  // measure 8
0001
0000
0001
0000
,  // measure 9
1000
0000
1000
0000
,  // measure 10
0001
0000
0001
0000
,  // measure 11
0100
0000
0000
0000
,  // measure 12
0010
0000
0010
0000
,  // measure 13
0010
0000
0010
0000
,  // measure 14
0100
0000
0100
0000
,  // measure 15
0100
0000
0100
0000
,  // measure 16
0001
0000
1000
0000
,  // measure 17
0001
0000
1000
0000
,  // measure 18
0010
0000
0100
0000
,  // measure 19
0010
0000
0100
0000
,  // measure 20
0001
0000
0000
0000
,  // measure 21
1000
0000
0000
0000
,  // measure 22
0010
0000
0000
0000
,  // measure 23
0100
0000
0000
0000
,  // measure 24
0010
0000
0100
0000
,  // measure 25
0010
0000
0100
0000
,  // measure 26
0001
0000
1000
0000
,  // measure 27
0001
0000
1000
0000
,  // measure 28
0001
0000
0000
0000
,  // measure 29
0100
0000
0000
0000
,  // measure 30
0010
0000
0000
0000
,  // measure 31
1000
0000
0000
0000
,  // measure 32
0100
0000
0100
0000
,  // measure 33
0100
0000
0100
0000
,  // measure 34
0010
0000
0010
0000
,  // measure 35
0010
0000
0010
0000
,  // measure 36
0001
0000
1000
0000
,  // measure 37
0001
0000
1000
0000
,  // measure 38
0001
0000
0001
0000
,  // measure 39
0001
0000
1000
0000
,  // measure 40
1000
0000
0000
0000
,  // measure 41
0100
0000
0000
0000
,  // measure 42
0010
0000
0000
0000
,  // measure 43
0001
0000
0000
0000
,  // measure 44
1000
0000
0000
0000
,  // measure 45
0001
0000
0000
0000
,  // measure 46
0100
0000
0000
0000
,  // measure 47
0010
0000
0000
0000
,  // measure 48
0100
0100
0100
0100
,  // measure 49
0100
0100
0100
0100
,  // measure 50
0100
0100
0100
0100
,  // measure 51
0100
0100
0100
0100
;
