#TITLE:東京テディベア;
#SUBTITLE:;
#ARTIST:neru feat. 完全体セル;
#TITLETRANSLIT:Tokyo Teddy Bear;
#SUBTITLETRANSLIT:;
#ARTISTTRANSLIT:neru feat. KanzenteiCell;
#GENRE:Vocaloid Cover;
#CREDIT:Frozen_Heat/Azn_Punk_07/GuardianFrozen;
#MENUCOLOR:#029bc1;
#METERTYPE:DDR;
#BANNER:[ONLY ONE FILE] - Tokyo Teddy Bear.png;
#BACKGROUND:[ONLY ONE FILE] - Tokyo Teddy Bear-bg.png;
#LYRICSPATH:[ONLY ONE FILE] - Tokyo Teddy Bear.lrc;
#CDTITLE:cdtitle.png;
#MUSIC:[ONLY ONE FILE] - Tokyo Teddy Bear.mp3;
#OFFSET:-0.056;
#SAMPLESTART:46.160;
#SAMPLELENGTH:18.820;
#SELECTABLE:YES;
#LISTSORT:;
#BPMS:0.000=204.000;
#STOPS:;
#BGCHANGES:;
#ATTACKS:;

//---------------dance-single - ----------------
#NOTES:
     dance-single:
     :
     Hard:
     8:
     0.559,0.630,0.230,0.010,0.005: // measure 1
0000
0000
0000
0000
,  // measure 2
0000
0000
0000
0000
,  // measure 3
0000
0000
0000
0000
,  // measure 4
0000
0000
0000
0000
,  // measure 5
0000
0000
0000
0000
,  // measure 6
0000
0000
0000
0000
,  // measure 7
0000
0000
0000
0000
,  // measure 8
0000
0000
0000
0000
,  // measure 9
0001
0010
0100
0010
,  // measure 10
0001
1000
0000
0001
,  // measure 11
1000
0010
1000
0100
,  // measure 12
1000
0001
1000
0000
,  // measure 13
0010
0100
0001
1000
,  // measure 14
0100
1000
0000
0100
,  // measure 15
0110
0000
0010
0001
0000
1000
0000
0001
,  // measure 16
0000
0010
0001
0000
0001
1000
0000
0000
,  // measure 17
0001
0000
0100
0000
0010
0100
0000
0001
,  // measure 18
0000
1000
0100
0010
,  // measure 19
0100
0000
1000
0000
0010
0100
0000
0001
,  // measure 20
0000
1000
0010
0100
,  // measure 21
0001
0000
1000
0000
0100
0010
0000
0100
,  // measure 22
0000
1000
0001
0010
,  // measure 23
0001
0000
0000
0000
1000
0010
0000
0100
,  // measure 24
0000
0010
0100
0001
,  // measure 25
1000
0000
0100
0000
0010
0000
0100
1000
,  // measure 26
0000
0100
1000
0000
0010
0000
0000
0000
,  // measure 27
0100
0000
0001
0000
0010
0000
0001
0100
,  // measure 28
0000
0100
0001
0000
0010
0000
0000
0000
,  // measure 29
0001
0000
0010
0000
0100
0000
0010
0001
,  // measure 30
0000
0010
0001
0000
0100
0000
0010
0000
,  // measure 31
1010
0000
0010
0100
0000
0010
0001
0010
,  // measure 32
0000
0010
1000
0010
0100
0002
0000
1003
,  // measure 33
0000
0000
0001
0000
1000
0000
0100
0010
,  // measure 34
0000
0000
0100
0000
1000
0000
0001
0100
,  // measure 35
0000
0000
0010
0000
1000
0000
0001
0010
,  // measure 36
0000
0000
0001
0000
0010
0000
0001
0100
,  // measure 37
0000
0001
0100
0000
0010
0000
1000
0100
,  // measure 38
0000
1000
0100
0000
0010
0000
0001
1000
,  // measure 39
0001
0000
1000
0000
0010
0100
0001
0100
,  // measure 40
0000
0000
0110
0000
0010
1000
0010
0100
,  // measure 41
0001
0000
0010
0000
0011
0000
0100
1000
,  // measure 42
0100
0000
1000
0000
1010
0000
0100
0001
,  // measure 43
0100
0000
0010
1000
0001
0000
0010
0001
,  // measure 44
0000
1000
0100
1000
0100
0010
0001
0000
,  // measure 45
0100
0000
0101
0000
0010
1000
0010
0000
,  // measure 46
1000
0000
1100
0000
0010
0001
0010
0000
,  // measure 47
1100
0000
0010
0000
0101
0000
0010
0100
,  // measure 48
0000
0010
0100
0000
0001
0010
0100
0010
,  // measure 49
0001
0000
1000
0000
1001
0000
0010
1000
,  // measure 50
0010
0000
0100
0000
0110
0000
0100
0001
,  // measure 51
0010
0000
0100
1000
0010
0000
0100
0010
,  // measure 52
0000
0010
1000
0000
0100
0000
0010
0001
,  // measure 53
0010
0000
1100
0000
0010
0000
0001
1000
,  // measure 54
0001
0000
0101
0000
0010
0100
0010
0000
,  // measure 55
0110
0000
1001
0000
1000
0000
0001
1000
,  // measure 56
0000
0000
1000
0000
0001
0000
0000
0000
0101
0000
0000
1000
0000
0000
1100
0000
,  // measure 57
0000
0000
0010
0001
1000
0001
0000
0110
,  // measure 58
0000
0000
0100
1000
0010
1000
0001
0000
,  // measure 59
1001
0000
1000
0010
0100
0000
0001
0100
,  // measure 60
0010
0000
1000
0000
1000
0100
0010
0001
,  // measure 61
1000
0000
1001
0000
0001
0100
1000
0100
,  // measure 62
0010
0000
0110
0000
0100
0001
1000
0100
,  // measure 63
0010
0000
0100
1000
0100
0000
0010
0001
,  // measure 64
0000
0000
1001
0000
0001
0100
0001
0100
,  // measure 65
0000
0100
0001
0000
1000
0100
1000
0100
,  // measure 66
0000
0100
1000
0000
0010
0100
0010
0100
,  // measure 67
0000
0100
0010
0000
1000
0000
0001
0010
,  // measure 68
1000
0000
0010
0000
0001
1000
0001
0000
,  // measure 69
1001
0000
0010
0100
0001
0000
0010
0000
,  // measure 70
0100
0000
1000
0010
0100
0000
0001
1000
,  // measure 71
0000
0001
1000
0000
0100
0100
0000
0010
,  // measure 72
0100
0000
0010
0000
0001
1000
0001
0000
,  // measure 73
0010
0000
0100
0000
1000
0100
0000
1000
,  // measure 74
0000
0001
0100
0000
0010
0000
0100
0000
,  // measure 75
0001
0000
1000
0000
0100
0010
0000
0001
,  // measure 76
0000
1000
0010
0000
0001
0000
0010
0000
,  // measure 77
0100
0000
0001
0000
0010
1000
0000
0010
,  // measure 78
0000
0100
0000
0010
0001
0000
1000
0000
,  // measure 79
0001
0000
0101
0000
0010
1000
0000
0100
,  // measure 80
0000
1000
0010
0000
0100
0000
0001
0000
,  // measure 81
1000
0000
0001
0010
0001
0000
0100
0010
,  // measure 82
0000
0100
0010
0000
1000
0000
0001
0010
,  // measure 83
0100
0000
1000
0000
0100
0000
0010
0100
,  // measure 84
1000
0010
0100
0001
,  // measure 85
1000
0000
0010
0000
0100
0000
0001
0100
,  // measure 86
0000
0010
1000
0000
0001
0000
1000
0100
,  // measure 87
0010
0000
0100
0010
0000
0100
0010
0001
,  // measure 88
0000
1000
0001
0000
1000
0001
0000
0000
;

//---------------dance-single - ----------------
#NOTES:
     dance-single:
     :
     Medium:
     7:
     0.481,0.672,0.077,0.115,0.000:
0000
0000
0000
0000
,
0000
0000
0000
0000
,
0000
0000
0000
0000
,
0000
0000
0000
0000
,
0000
0000
0000
0000
,
0000
0000
0000
0000
,
0000
0000
0000
0000
,
0000
0000
0000
0000
,
0002
0000
0010
0000
,
0103
0000
0000
0000
,
2000
0000
0010
0000
,
3100
0000
0000
0000
,
0020
0000
0100
0000
,
1030
0000
0000
0000
,
0200
0010
1000
0010
,
0001
0010
0310
0000
,
0001
0010
0000
0001
,
1000
0001
0100
0010
,
1000
0000
0100
0010
,
0100
1000
0100
0000
,
0010
0001
1000
0001
,
0100
0010
1000
0001
,
0010
0000
0100
0010
,
0001
0000
1000
0000
0001
1000
0001
1000
,
0001
0000
0100
0001
,
0010
0100
1000
0010
,
0100
0000
0010
1000
,
0001
0010
0001
1000
,
0100
0000
0010
0001
,
1000
0010
0001
0010
,
0220
0000
0330
2002
0000
3003
0000
0220
,
0000
0330
1000
0000
0001
0000
1000
0000
,
0001
0000
0100
0000
0010
0000
0010
1000
,
0000
0000
0100
0000
0010
0000
0010
0001
,
0000
0000
0010
0000
0100
0000
0100
1000
,
0000
0000
0010
0000
0100
0000
0100
0001
,
0000
0000
0010
0000
0100
0000
1000
0001
,
1000
0000
0010
0000
0100
0000
0001
1000
,
0001
0000
0010
0100
0010
0000
0001
1000
,
0001
0000
0100
0000
0100
0010
0100
0000
,
0001
0000
0001
1000
0001
0000
0010
0000
,
0100
0000
0100
1000
0100
0000
0010
0000
,
0001
0000
0001
0100
0001
0000
1000
0100
,
1000
0000
0001
0100
0001
0000
0001
0000
,
1000
0000
1000
0100
1000
0000
0010
0000
,
0100
0000
0100
0001
0100
0000
0001
0000
,
1000
0010
1000
0000
0001
0010
0001
0000
,
1000
0010
1000
0000
1000
0000
0001
0000
,
0010
0000
0100
0010
0001
0000
0100
0000
,
0010
0000
1000
0100
0010
0000
0001
0000
,
1000
0000
0010
0100
1000
0000
0100
0000
,
0010
0000
0001
0010
0100
0000
0001
1000
,
0000
0000
0100
0000
0010
0000
0001
1000
,
0000
0000
0010
0000
0100
0000
0001
1000
,
0000
0001
1000
0000
0100
0010
0000
0010
,
0000
0010
0100
0000
2002
0000
0000
3003
,
0000
0000
0101
0000
0010
1000
0000
0100
,
0000
0000
0010
0000
0100
1000
0000
0010
,
0000
0000
0100
0000
0010
1000
0000
0100
,
0000
0000
0010
0000
0001
1000
0000
0001
,
0000
0000
0100
0000
0010
0001
0000
0010
,
0000
0000
0100
0000
0001
0010
0000
0100
,
0000
0000
0010
0000
0001
0000
0100
0010
,
0000
1000
0010
0000
0100
0001
0000
1000
,
0000
0010
1000
0000
0100
0010
0000
0100
,
0000
1000
0001
0000
0100
0010
0000
1000
,
0000
0010
0001
0000
0010
0100
0000
0001
,
0000
0000
0010
0000
0100
1000
0000
0100
,
0000
0010
0001
0000
1000
0001
0000
1000
,
0000
0001
0100
0000
0010
0100
0000
0001
,
0000
1000
0100
0000
0010
0100
0000
1000
,
0100
0110
1100
0110
,
0001
0000
0100
0000
0001
0100
0001
0000
,
0010
0100
1000
0001
,
0100
0000
0010
0000
1000
0100
1000
0000
,
0010
1000
0010
0000
0100
0000
0001
0000
,
1000
0000
0001
0000
0010
0001
0010
0000
,
0100
1000
0001
0100
,
0010
0000
0100
0000
0001
0010
0001
0000
,
0100
0010
0100
0000
0001
1000
0001
0000
,
1000
0000
0100
1000
0100
0000
0010
0000
,
0100
1000
0001
0000
,
0100
0001
1000
0010
,
0100
0000
0001
0000
1000
0001
1000
0000
,
0100
0010
0001
1000
,
0010
0100
0001
0000
,
0010
0100
1000
0100
,
0010
0000
0001
0000
1000
0001
0000
0000
;

//---------------dance-single - ----------------
#NOTES:
     dance-single:
     :
     Challenge:
     9:
     0.741,0.756,0.470,0.058,0.014: // measure 1
0000
0000
0000
0000
,  // measure 2
0000
0000
0000
0000
,  // measure 3
0000
0000
0000
0000
,  // measure 4
0000
0000
0000
0000
,  // measure 5
0000
0000
0000
0000
,  // measure 6
0000
0000
0000
0000
,  // measure 7
0000
0000
0000
0000
,  // measure 8
0000
0000
0000
0000
,  // measure 9
1000
0000
0001
0000
0100
0000
0010
1000
,  // measure 10
0000
1000
0010
0000
0100
0000
0001
0000
,  // measure 11
0010
0000
0001
0010
0000
0001
1000
0001
,  // measure 12
0000
0010
0100
1000
,  // measure 13
0001
0000
1000
0000
0010
0000
0100
0001
,  // measure 14
0000
0001
0100
0000
0010
0000
1000
0000
,  // measure 15
1001
0000
0010
1000
0000
0001
0100
0001
,  // measure 16
0000
0000
0010
0000
0100
0000
1000
0001
1000
0000
0100
0000
0000
0000
0000
0000
,  // measure 17
1100
0000
0001
0000
0010
0001
0010
0100
,  // measure 18
0000
0010
0001
1000
0010
0100
0010
1000
,  // measure 19
0001
0000
0010
0000
0100
1000
0100
0010
,  // measure 20
0000
0100
0010
0100
1000
0001
0010
0100
,  // measure 21
1000
0000
0011
0000
0100
1000
0010
0100
,  // measure 22
0000
0100
0001
1000
0010
0100
0001
0100
,  // measure 23
0010
0000
1000
0100
1000
0001
0000
0100
,  // measure 24
0000
0001
0001
0001
1000
1000
0001
0001
,  // measure 25
1000
0000
0100
0010
0100
0000
0010
0001
,  // measure 26
0000
0001
0100
0000
0010
0000
0100
1000
,  // measure 27
0100
0000
0100
0001
0000
0001
1000
0001
,  // measure 28
0000
1000
0100
0000
0010
0010
0001
0001
,  // measure 29
1000
0000
0001
0100
0001
0010
0100
1000
,  // measure 30
0000
0000
1000
0000
0010
0000
0000
0000
0110
0000
1000
0001
1000
0000
0001
0000
,  // measure 31
1001
0000
0001
0101
0000
1000
1100
0100
,  // measure 32
0000
0100
1000
0001
0010
0002
0000
2003
,  // measure 33
0000
3000
0010
0000
1000
0100
0010
0200
,  // measure 34
0000
1300
0001
0000
1000
0001
0100
0002
,  // measure 35
0000
0003
0010
0000
0100
1000
0001
2000
,  // measure 36
0000
3001
0100
0000
0011
0000
0011
0100
,  // measure 37
0000
0100
1000
0000
1000
0010
0000
1010
,  // measure 38
0000
1010
0100
0000
0001
1000
0000
1001
,  // measure 39
0000
1001
0100
0000
0001
0010
0100
1000
,  // measure 40
0000
0000
1100
0000
0010
0100
0000
1100
,  // measure 41
0000
0010
0001
0010
0100
0010
0000
0011
,  // measure 42
0000
1000
0010
0100
0010
1000
0000
1010
,  // measure 43
0000
0100
0001
0000
0010
0001
0000
0101
,  // measure 44
0000
0100
0001
1000
0100
0010
0000
0110
,  // measure 45
0000
0010
1001
0000
0001
0100
0000
1001
,  // measure 46
0000
0001
0110
0000
1000
0010
0000
1001
,  // measure 47
0000
0010
0000
1000
0100
0010
0001
1000
,  // measure 48
0000
0001
0100
1000
0100
0001
0010
0100
,  // measure 49
0000
1000
0100
0010
0100
1000
0001
0100
,  // measure 50
0000
0001
0100
1000
0100
0001
0000
1010
,  // measure 51
0000
1000
0010
0001
0010
0100
0000
1001
,  // measure 52
0000
1000
0010
1000
0100
0001
0000
1100
,  // measure 53
0000
0001
0010
0001
0100
1000
0000
0101
,  // measure 54
0000
1000
0100
0010
0001
0001
0000
0110
,  // measure 55
0000
1000
1000
0000
0010
0110
0000
0101
,  // measure 56
0000
0000
1000
0000
0100
0000
0000
0000
0011
0000
0000
0110
0000
0000
1100
0000
,  // measure 57
0000
0000
1002
0000
0103
0100
0000
0101
,  // measure 58
0000
1000
0100
1000
0100
0010
0001
0010
,  // measure 59
0001
1000
0010
1000
0100
0010
0100
1000
,  // measure 60
0001
0000
0010
0100
1000
0001
1000
0010
,  // measure 61
0100
0010
0100
0001
1000
0001
0010
0001
,  // measure 62
0100
0010
0100
0010
1000
0001
0010
0110
,  // measure 63
0000
0001
0100
1000
0110
0001
1000
1001
,  // measure 64
0000
0010
1100
0010
0001
1000
0100
1100
,  // measure 65
0000
0100
0011
0100
1000
0001
0010
0011
,  // measure 66
0000
1000
0101
0010
1000
0010
0100
0101
,  // measure 67
0000
0001
1010
0100
0001
0100
0100
1010
,  // measure 68
0000
0100
0001
0000
1000
0001
0000
0010
,  // measure 69
0000
0100
1000
0000
0100
0010
0000
0001
,  // measure 70
0000
1000
0010
0000
0100
0001
0000
0100
,  // measure 71
0000
0010
1010
0000
0100
0100
0000
0011
,  // measure 72
0000
0100
1000
1000
0100
0010
0001
0000
,  // measure 73
1000
0001
1000
0001
0100
0010
0100
0001
,  // measure 74
0010
1000
0010
0001
0010
0100
1000
0010
,  // measure 75
0001
0010
0100
0001
0010
0100
1000
0010
,  // measure 76
0100
0001
0100
0010
1000
0001
0010
0000
,  // measure 77
0100
1000
0100
0010
0001
0100
0010
1000
,  // measure 78
0010
0001
0010
0100
0001
0010
1000
0010
,  // measure 79
0100
1000
0001
1000
0010
0100
0001
0010
,  // measure 80
0001
1000
0010
1000
0100
0010
0001
0100
,  // measure 81
0001
0000
0011
0000
0100
1000
0001
0100
,  // measure 82
0000
0010
0001
0000
0010
1000
0100
0000
,  // measure 83
0010
0000
0100
0010
0000
0001
0001
1000
,  // measure 84
0000
0100
0010
0000
0010
0100
1000
0001
,  // measure 85
0010
0000
0100
0010
0100
0010
0001
1000
,  // measure 86
0000
0001
0100
0000
0010
0000
1000
0100
,  // measure 87
0010
0000
0100
1000
0000
0100
0010
0001
,  // measure 88
0000
1000
1000
0001
0001
0100
0000
0000
;

//---------------dance-single - ----------------
#NOTES:
     dance-single:
     :
     Beginner:
     3:
     0.178,0.334,0.038,0.125,0.000:
0000
0000
0000
0000
,
0000
0000
0000
0000
,
0000
0000
0000
0000
,
0000
0000
0000
0000
,
0000
0000
0000
0000
,
0000
0000
0000
0000
,
0000
0000
0000
0000
,
0000
0000
0000
0000
,
1000
0000
0000
0000
,
0000
0000
0000
0000
,
0000
0000
0000
0000
,
0000
0000
0000
0000
,
0001
0000
0000
0000
,
0000
0000
0000
0000
,
0100
0000
0000
0000
,
0000
0000
0000
0000
,
0010
0000
0000
0000
,
0010
0000
0000
0000
,
1000
0000
0000
0000
,
0000
0000
0000
0000
,
0100
0000
0000
0000
,
0100
0000
0000
0000
,
0001
0000
0000
0000
,
0000
0000
0000
0000
,
2000
0000
0000
0000
,
3000
0000
0000
0000
,
0000
0000
0000
0000
,
0000
0000
0000
0000
,
0002
0000
0000
0000
,
0003
0000
0000
0000
,
0000
0000
0000
0000
,
0000
0000
0000
0000
,
0200
0300
0000
0000
,
0200
0300
0000
0000
,
0200
0300
0000
0000
,
0200
0300
0000
0000
,
0020
0030
0000
0000
,
0020
0030
0000
0000
,
0020
0030
0000
0000
,
0010
0000
0000
0000
,
1000
1000
1000
0000
,
0001
0001
0001
0000
,
1000
1000
1000
0000
,
0001
0001
0001
0000
,
0010
0010
0010
0000
,
0100
0100
0100
0000
,
0010
0010
0010
0000
,
0100
0100
0100
0000
,
1000
1000
1000
0000
,
0001
0001
0001
0000
,
1000
1000
1000
0000
,
0001
0001
0001
0000
,
0100
0100
0100
0000
,
0010
0010
0010
0000
,
0100
0100
0100
0000
,
0010
0010
0010
0000
,
0000
1001
0000
0000
,
0000
0100
0000
0000
,
0000
0010
0000
0000
,
0000
0001
0000
0000
,
0000
1000
0000
0000
,
0000
0010
0000
0000
,
0000
0100
0000
0000
,
0000
0001
0001
0001
,
0000
1000
1000
1000
,
0000
0100
0100
0100
,
0000
0010
0010
0010
,
0000
0001
0001
0001
,
0000
0100
0100
0100
,
0000
0010
0010
0010
,
0000
1000
1000
1000
,
0000
1001
1001
0000
,
0100
0000
0000
0000
,
0010
0000
0000
0000
,
1000
0000
0000
0000
,
0001
0000
0000
0000
,
0010
0000
0000
0000
,
0100
0000
0000
0000
,
1000
0000
0000
0000
,
0001
0000
0000
0000
,
0200
0300
0000
0000
,
0000
0000
0000
0000
,
0020
0030
0000
0000
,
0000
0000
0000
0000
,
2000
3000
0000
0000
,
0000
0000
0000
0000
,
0002
0003
0000
0000
,
1001
0000
0000
0000
;

//---------------dance-single - ----------------
#NOTES:
     dance-single:
     :
     Easy:
     5:
     0.351,0.545,0.211,0.029,0.000:
0000
0000
0000
0000
,
0000
0000
0000
0000
,
0000
0000
0000
0000
,
0000
0000
0000
0000
,
0000
0000
0000
0000
,
0000
0000
0000
0000
,
0000
0000
0000
0000
,
0000
0000
0000
0000
,
0002
0000
0000
0000
,
0003
0000
0000
0000
,
2000
0000
0000
0000
,
3000
0000
0000
0000
,
0020
0000
0000
0000
,
0030
0000
0000
0000
,
0100
0000
0000
0000
,
0100
0000
0000
0000
,
0001
0001
0010
0000
,
0001
0000
0000
0000
,
1000
1000
0010
0000
,
1000
0000
0000
0000
,
0010
0010
0100
0000
,
0010
0000
0000
0000
,
0100
0100
0010
0000
,
0100
0000
0000
0000
,
0001
0010
1000
0000
,
0010
0000
0001
0000
,
0001
0100
1000
0000
,
0100
0000
0001
0000
,
0001
0010
1000
0000
,
0010
0000
0001
0000
,
0001
0100
1000
0100
,
0001
0100
1000
0000
,
1000
0100
0010
0000
,
0010
0100
1000
0000
,
1000
0100
0010
0000
,
0010
0100
1000
0000
,
0001
0001
0100
0000
,
0001
0001
0010
0000
,
0001
0001
1000
0001
,
1000
0001
0001
0010
,
0001
0011
0000
0001
,
0010
0011
0000
0100
,
1000
1100
0000
0100
,
1000
1100
0000
1000
,
0010
1010
0000
1000
,
0010
1010
0000
0100
,
0001
0101
0000
0100
,
0001
0101
0000
0001
,
1000
1001
0000
0100
,
0010
0110
0000
0001
,
1000
1001
0000
0010
,
0100
0110
0000
1000
,
0100
1100
0000
0001
,
0100
0101
0000
1000
,
0010
1010
0000
0001
,
0010
0011
1100
0011
,
1100
0001
1000
0001
,
0100
0010
1000
0001
,
0010
0100
1000
0001
,
0100
0010
1000
0001
,
0010
1000
0001
0100
,
1000
0001
0100
1000
,
0001
0010
1000
0001
,
0010
0100
1000
0100
,
0001
0100
1000
0010
,
0001
0010
1000
0100
,
0001
0100
1000
0010
,
0001
0010
1000
0100
,
0010
0010
0100
0100
,
1000
1000
0001
0001
,
0100
0010
0100
0010
,
1000
0001
1001
0000
,
0001
0010
0100
0000
,
0010
0001
0100
0000
,
0010
1000
0100
0000
,
0010
0001
1000
0000
,
0010
0100
0001
0000
,
1000
0100
0010
0000
,
0001
0100
1000
0000
,
0100
0010
1000
0000
,
0001
0010
0100
0010
,
0001
1000
0001
0000
,
1000
0010
0100
0010
,
1000
0001
0010
0000
,
0100
1000
0100
0010
,
0001
1000
0001
0000
,
0100
0010
0100
0000
,
1001
0000
0110
0000
;
