#TITLE:初音ミクの消失-劇場版-;
#SUBTITLE:;
#ARTIST:cosMo@暴走P feat. 初音ミク;
#TITLETRANSLIT:The Disappearance of Hatsune Miku -Theatrical version-;
#SUBTITLETRANSLIT:;
#ARTISTTRANSLIT:cosMo@BousouP feat. Hatsune Miku;
#GENRE:;
#CREDIT:Meseki;
#MENUCOLOR:0.7,0.4,0.2,1.0;
#BANNER:The Disappearance of Hatsune Miku -Theatrical version--bn.png;
#BACKGROUND:The Disappearance of Hatsune Miku -Theatrical version--bg.png;
#LYRICSPATH:;
#CDTITLE:cdtitle.png;
#MUSIC:The Disappearance of Hatsune Miku -Theatrical version-.mp3;
#OFFSET:-1.685;
#SAMPLESTART:52.085;
#SAMPLELENGTH:10.800;
#SELECTABLE:YES;
#LISTSORT:;
#DISPLAYBPM:200.000;
#BPMS:0.000=100.000,16.000=200.000,340.000=210.000,356.000=220.000,372.000=230.000,388.000=240.000;
#STOPS:;
#TICKCOUNT:0.000=2;
#BGCHANGES:;
#KEYSOUNDS:;
#ATTACKS:;

//---------------dance-single - ----------------
#NOTES:
     dance-single:
     :
     Medium:
     8:
     0.473,0.582,0.198,0.088,0.091: // measure 1
0000
0000
0000
0000
,  // measure 2
0000
0000
0000
0000
,  // measure 3
0000
0000
0000
0000
,  // measure 4
0000
0000
0000
0000
,  // measure 5
1000
0001
1000
0000
,  // measure 6
0001
0100
0010
0100
,  // measure 7
0010
1000
0001
1000
,  // measure 8
0100
0010
0001
0000
,  // measure 9
1000
1000
0010
0010
,  // measure 10
1000
0100
0010
0000
,  // measure 11
0001
0001
0100
0100
,  // measure 12
0010
1010
0100
0101
,  // measure 13
1001
0000
0000
0000
,  // measure 14
0000
0000
0000
0000
0000
0000
0000
0000
1000
0001
0000
0000
,  // measure 15
1000
0100
0010
0100
,  // measure 16
1000
0001
0100
0010
,  // measure 17
1000
0001
0100
1000
,  // measure 18
0100
0010
1000
0001
,  // measure 19
0010
0000
0000
0100
0000
0000
1000
0000
0010
0000
1000
0000
,  // measure 20
0001
0000
0010
0000
0100
1000
0100
0000
,  // measure 21
0010
0001
1000
0010
,  // measure 22
0100
0000
0000
0000
0000
0000
0000
0000
0001
0000
0000
0000
0000
0000
0000
0000
0100
0000
0000
0000
0000
0000
0000
0000
0010
0000
0000
0000
0000
0000
0000
0000
0000
1000
0000
0000
0000
0000
0000
0000
0000
0000
0100
0000
0000
0000
0000
0000
,  // measure 23
0010
0001
0010
0011
,  // measure 24
1000
0010
1000
1010
,  // measure 25
0100
0001
0100
0101
,  // measure 26
1000
0100
1000
1100
,  // measure 27
0001
0000
0000
1000
0000
0000
0100
0000
0010
0000
0100
0000
,  // measure 28
1000
0010
0100
0101
,  // measure 29
1000
0000
0001
0000
0010
0001
0010
0000
,  // measure 30
0100
0000
1000
0000
0002
0203
0310
0000
,  // measure 31
1000
0002
0000
0000
,  // measure 32
0000
0000
0103
0010
,  // measure 33
1000
0000
0000
0100
0000
0000
0002
0000
,  // measure 34
0000
0000
0000
0103
,  // measure 35
0010
0000
0001
0000
1000
0000
0010
0100
,  // measure 36
0010
1000
0000
0001
1000
0000
0100
0000
,  // measure 37
0010
0002
0103
0010
,  // measure 38
2010
0000
0000
3001
0000
0010
0100
0000
,  // measure 39
1000
0000
0010
0000
0100
0000
0001
0010
,  // measure 40
0000
0100
0000
1000
0000
0100
0010
0000
,  // measure 41
0001
0100
1000
0100
,  // measure 42
0010
1000
0000
0001
0000
0010
0001
0000
,  // measure 43
1000
1000
0010
0010
,  // measure 44
0101
0001
0010
0010
,  // measure 45
0100
1000
0100
0000
0010
0001
0010
0000
,  // measure 46
0110
0000
1001
0000
0100
0001
0010
0100
,  // measure 47
1000
0010
0100
0001
,  // measure 48
0010
0000
0100
0000
0010
0000
0100
0000
0000
1000
0000
0000
,  // measure 49
0001
0100
0020
1030
,  // measure 50
0001
1000
0100
0010
,  // measure 51
0001
1000
0100
0001
,  // measure 52
1000
0010
0001
1000
,  // measure 53
0110
0000
1000
0001
0000
0000
0000
0000
,  // measure 54
0100
0000
0000
0010
0000
0000
1000
0000
,  // measure 55
0001
0010
0100
1000
,  // measure 56
0100
0010
0000
0010
0001
0000
1000
0000
,  // measure 57
0010
0000
0100
0000
0001
0000
0000
0100
,  // measure 58
0010
1000
0100
1000
,  // measure 59
0010
0000
0100
0001
0100
0000
0001
0010
,  // measure 60
0001
1000
0100
0010
,  // measure 61
0001
0100
0000
0001
0010
0000
0100
0000
,  // measure 62
1000
0000
0010
0000
0100
0000
0010
1000
,  // measure 63
0000
0100
1000
0000
0001
0000
0010
0000
,  // measure 64
0110
0100
1000
0001
,  // measure 65
0100
0010
0100
0000
0010
0000
1000
0000
,  // measure 66
1001
0001
0010
0100
,  // measure 67
1000
0010
0000
0000
0200
0300
0001
0000
,  // measure 68
0011
0000
0010
0000
0100
1000
0010
0000
,  // measure 69
0100
0000
0001
0010
0100
0000
1000
0000
,  // measure 70
0010
0000
0100
0001
0100
0000
0010
0000
,  // measure 71
1000
0000
0100
0000
0010
0001
1000
0000
,  // measure 72
0001
0000
0100
0000
0010
0000
1000
0100
,  // measure 73
1000
0100
0001
0100
,  // measure 74
0010
0001
0010
0000
0001
0000
0100
0000
,  // measure 75
0010
1010
0100
0101
,  // measure 76
1000
0001
1000
0001
1000
0000
0010
0000
,  // measure 77
0100
0001
0100
0001
0010
0000
0100
1000
,  // measure 78
0100
0000
0000
0010
0000
0001
0100
0000
,  // measure 79
0010
1010
0100
0101
,  // measure 80
1000
0100
0010
0001
,  // measure 81
0011
0000
0010
0100
0000
0000
1000
0000
,  // measure 82
0010
0000
0100
0000
0001
0000
0010
0100
,  // measure 83
0000
1000
1001
0010
,  // measure 84
0220
0000
0000
0000
,  // measure 85
0330
0000
0000
0000
,  // measure 86
1000
0100
0010
0100
,  // measure 87
1000
0000
0100
1000
0000
0000
0001
0000
0000
0100
0000
0000
,  // measure 88
0010
0000
1010
0000
0100
0001
0100
0000
,  // measure 89
0010
0000
0000
1000
0000
0000
0100
0000
0010
0000
0100
0000
,  // measure 90
1000
0000
0000
0001
0000
0000
0100
0000
1000
0000
0100
0000
,  // measure 91
0010
1000
0001
0010
,  // measure 92
0100
0000
1000
0100
0000
0000
0010
0000
0000
0001
0000
0000
,  // measure 93
0100
0010
1010
1010
,  // measure 94
1000
0100
0010
0100
,  // measure 95
1000
0000
0100
1000
0000
0000
0001
0000
0000
0100
0000
0000
,  // measure 96
0010
0000
1010
0000
0100
0001
0100
0000
,  // measure 97
0010
0000
0000
1000
0000
0000
0100
0000
0010
0000
0100
0000
,  // measure 98
1000
0000
0000
0001
0000
0000
0100
0000
0010
0000
1000
0000
,  // measure 99
0010
0100
0001
0010
,  // measure 100
0100
0100
1000
1000
,  // measure 101
0010
0010
0100
0100
,  // measure 102
0001
0000
0100
0000
0010
0000
1000
0000
0100
0000
0010
0000
,  // measure 103
0002
0000
0000
0000
,  // measure 104
0000
0000
0000
0000
,  // measure 105
0000
0000
0000
0000
,  // measure 106
0000
2003
0000
0000
,  // measure 107
3000
0000
0000
0000
;

//---------------dance-single - ----------------
#NOTES:
     dance-single:
     :
     Easy:
     5:
     0.314,0.388,0.044,0.066,0.029: // measure 1
0000
0000
0000
0000
,  // measure 2
0000
0000
0000
0000
,  // measure 3
0000
0000
0000
0000
,  // measure 4
0000
0000
0000
0000
,  // measure 5
1000
0000
0100
0000
,  // measure 6
0010
0100
1000
0000
,  // measure 7
0001
0000
0100
0000
,  // measure 8
0010
0010
1000
0000
,  // measure 9
0100
1000
0100
0000
,  // measure 10
1000
0001
0010
0000
,  // measure 11
0100
0010
0100
0000
,  // measure 12
1000
1000
0001
0001
,  // measure 13
1001
0000
0000
0000
,  // measure 14
0000
0000
0000
1000
,  // measure 15
0001
0000
0010
0000
,  // measure 16
0100
1000
0010
1000
,  // measure 17
0100
0000
0010
0001
,  // measure 18
0010
0000
0001
0000
,  // measure 19
1000
0010
0100
0000
,  // measure 20
0001
0000
0010
0100
,  // measure 21
1000
0000
0100
0000
,  // measure 22
0001
0100
1000
0010
,  // measure 23
0001
0010
0100
0000
,  // measure 24
0001
0010
0100
0000
,  // measure 25
0001
0100
1000
1000
,  // measure 26
0001
0100
1000
1000
,  // measure 27
0100
0000
0000
0000
0000
0000
0010
0000
1000
0000
0010
0000
,  // measure 28
1000
0000
0100
0010
,  // measure 29
0001
1000
0001
1000
,  // measure 30
0100
0000
0010
0000
0002
0003
1000
0000
,  // measure 31
0100
0020
0000
0000
,  // measure 32
0000
0030
0100
1000
,  // measure 33
0010
0000
0000
0100
0000
0000
0002
0000
,  // measure 34
0000
0000
0000
0003
,  // measure 35
1000
0000
0001
0000
,  // measure 36
1000
0001
0000
0000
0001
0000
0000
0000
,  // measure 37
0010
0000
0000
0100
0000
0000
1000
0000
,  // measure 38
0002
0000
0000
1003
0000
1000
0000
0000
,  // measure 39
0001
0000
0010
0000
0001
0000
0000
0010
,  // measure 40
0000
0100
0000
0010
0000
0000
0001
0000
,  // measure 41
0100
0010
1000
0000
,  // measure 42
0100
0000
0000
0010
0000
0000
0100
0000
,  // measure 43
1000
0000
0001
0000
,  // measure 44
0101
0000
0100
0000
,  // measure 45
0010
0010
1000
0000
,  // measure 46
0100
0100
0010
0000
,  // measure 47
0001
0000
0100
0010
,  // measure 48
1000
0000
0010
0000
1000
0000
0010
0000
0000
0000
0000
0000
,  // measure 49
0100
0000
0002
0003
,  // measure 50
0010
0100
1000
0000
,  // measure 51
0010
0000
0100
1000
,  // measure 52
0100
0001
0000
1000
,  // measure 53
0001
1000
0000
0000
,  // measure 54
0100
0000
0000
0010
0000
0000
0000
0000
,  // measure 55
0001
0000
0100
0000
,  // measure 56
0010
0000
0000
1000
0000
0000
0001
0000
,  // measure 57
1000
0000
0100
0000
,  // measure 58
0010
0100
1000
0000
,  // measure 59
0001
0100
0010
0100
,  // measure 60
1000
0100
0001
0000
,  // measure 61
0100
0001
0000
0000
1000
0000
0000
0000
,  // measure 62
0001
0000
0010
0000
0001
0000
0000
1000
,  // measure 63
0000
1000
0000
0000
0100
0000
0000
0000
,  // measure 64
1001
0000
0001
0000
,  // measure 65
0010
0100
1000
0000
,  // measure 66
0011
0000
1000
0000
,  // measure 67
0010
0000
0100
0000
,  // measure 68
0101
0000
0001
0010
,  // measure 69
0100
0000
1000
0100
,  // measure 70
0001
0000
0100
0000
,  // measure 71
1000
0000
0010
0100
,  // measure 72
0001
0000
0100
0000
,  // measure 73
0010
1000
0001
1000
,  // measure 74
0010
0000
0100
0000
,  // measure 75
0001
0010
0100
1000
,  // measure 76
0100
0000
0000
0010
0000
0000
0100
0000
,  // measure 77
1000
0010
0100
0010
,  // measure 78
1000
0000
0000
1000
0000
0000
0100
0000
,  // measure 79
0001
0100
1000
0010
,  // measure 80
0001
0000
0000
0010
,  // measure 81
1000
0000
0000
0001
0000
0000
0010
0000
,  // measure 82
0100
0000
1000
0000
0010
0000
0000
0100
,  // measure 83
0000
0001
1000
0001
,  // measure 84
0220
0000
0000
0000
,  // measure 85
0330
0000
0000
0000
,  // measure 86
1000
0010
1000
0000
,  // measure 87
0001
0001
0010
0000
,  // measure 88
0001
0100
1000
0000
,  // measure 89
0100
0010
1000
0000
,  // measure 90
0001
0000
0000
0010
0000
0000
0001
0000
0010
0000
0001
0000
,  // measure 91
0010
0000
0100
0000
,  // measure 92
1000
0010
1000
0010
,  // measure 93
0100
0010
0100
0001
,  // measure 94
1000
0010
1000
0000
,  // measure 95
0001
0001
0010
0000
,  // measure 96
0001
0100
1000
0000
,  // measure 97
0100
0010
1000
0000
,  // measure 98
0100
0000
0000
0010
0000
0000
0100
0000
0010
0000
0100
0000
,  // measure 99
0010
0000
0001
0000
,  // measure 100
1000
0001
1000
0100
,  // measure 101
0010
0100
0010
0001
,  // measure 102
1000
0010
0100
0001
,  // measure 103
2000
0000
0000
0000
,  // measure 104
0000
0000
0000
0000
,  // measure 105
0000
0000
0000
0000
,  // measure 106
0000
3002
0000
0000
,  // measure 107
0003
0000
0000
0000
;

//---------------dance-single - ----------------
#NOTES:
     dance-single:
     :
     Hard:
     10:
     0.753,0.892,0.161,0.110,0.710:
0000
0000
0000
0000
,
0000
0000
0000
0000
,
0000
0000
0000
0000
,
0000
0000
0000
0000
,
1000
0000
0000
0100
0000
0010
0100
0000
0000
0010
0000
0000
,
0001
0000
0000
0100
0000
0000
0010
0000
1000
0001
0000
1000
,
0001
0000
0000
0010
0000
0000
0100
0000
1000
0010
0000
1000
,
0010
0000
0000
0100
0000
0000
0010
0000
0000
0000
0000
0000
0100
0000
0000
0000
0000
0000
0000
0000
0001
0000
0000
0000
0100
0000
0000
0000
0000
0000
0000
0000
0001
0000
0000
0000
0010
0000
0000
0000
0000
0000
0000
0000
0000
0000
0000
0000
,
0110
0000
0000
0100
0000
1000
0100
0000
0001
0100
0000
0010
,
0001
0000
0000
0100
0000
0000
0001
0000
0000
0000
0000
0000
0010
0000
0000
0000
0000
0000
0000
0000
0100
0000
0000
0000
0010
0000
0000
0000
0000
0000
0000
0000
0000
0000
0000
0000
0000
0000
0000
0000
0000
0000
0000
0000
0000
0000
0000
0000
,
0001
0000
0000
0100
0000
0010
1000
0000
0000
0100
0000
0010
,
0001
0100
0001
0100
0001
0100
0010
1000
0010
1000
0010
1000
,
0100
0000
0000
0000
,
0000
0000
0000
0000
0000
0000
0000
0000
0010
0001
0000
0001
,
1000
0000
0010
1000
0000
0000
0100
0000
0010
0100
0000
0000
,
0010
0000
0000
0001
0000
0000
0010
0000
0000
0000
0000
0000
0001
0000
0000
0000
0000
0000
0000
0000
0000
0000
0000
0000
0200
0000
0000
0000
0300
0000
0000
0000
0010
0000
0000
0000
1000
0000
0000
0000
0000
0000
0000
0000
0000
0000
0000
0000
,
0010
0000
0000
0100
0000
0000
0001
0000
0010
0100
1000
0100
,
1000
0000
0000
0000
0000
0000
0000
0000
0001
0000
0000
0000
0100
0000
0000
0000
0000
0000
0000
0000
0010
0000
0000
0000
0100
0000
0000
0000
0000
0000
0000
0000
0000
0000
0000
0000
0020
0000
0000
0030
0000
0000
1000
0000
0000
0000
0000
0000
,
0100
1000
0010
1000
0000
0000
0010
0000
0110
0000
0100
0000
,
0001
0000
0011
0000
0010
1000
0010
0000
,
0001
0000
1000
0010
0000
0100
0001
0000
1000
0100
0000
0010
,
0001
0000
0000
0000
0100
0000
0000
0000
0001
0000
0000
0000
0100
0000
0000
0000
0010
0000
0000
0000
0100
0000
0000
0000
0010
0000
0000
0000
0000
0000
1000
0000
0000
0000
0000
0000
0001
0000
0000
1000
0000
0000
0001
0000
0000
1000
0000
0000
,
0001
0000
0100
1000
0000
0100
0010
0000
0000
0101
0000
0000
,
0001
0000
0010
1000
0000
0010
0100
0000
0000
1100
0000
0000
,
1000
0000
0100
0010
0000
0001
0010
0000
1000
0010
0000
0000
,
0001
0100
0001
0100
0000
0000
1010
0000
0010
0100
0001
0100
,
0001
0000
0010
0100
1000
0100
0010
0000
0011
0000
0001
0000
,
0100
0010
1000
0010
0000
0000
0110
0000
0000
0101
0000
0000
,
0001
0000
0000
0000
1000
0000
0100
0000
0000
0010
0000
0000
0001
0000
0000
0010
0000
0000
0100
0000
0000
1000
0000
0000
,
0010
0100
0001
0100
2000
3200
0301
0000
,
0010
0000
0001
0000
1000
0010
0000
0010
,
0100
0000
0001
0000
0010
0001
0000
0001
,
1000
0100
0010
0000
0001
1000
0000
0010
,
0100
0001
0100
0010
1000
0001
0010
0001
,
1000
0000
0100
0010
1000
0000
0010
0001
,
1000
0010
0000
0001
0010
0000
1000
0000
,
0100
0000
0000
0000
0020
0031
0010
0000
0001
0000
0000
0000
0100
0000
0000
0000
,
2010
0000
0000
3001
0000
0001
0010
0000
,
0100
0000
1000
0010
0100
0000
0001
0010
,
0000
0001
0010
0100
0000
0001
0100
1000
,
0010
0100
0010
0001
0010
1000
0001
0000
,
1000
0100
0010
0001
0000
0100
0010
0000
,
1000
0100
1000
0100
0010
0001
0010
0000
,
0001
0100
0001
0100
0000
0000
0010
1000
0010
1000
0000
0000
,
0001
0010
0001
0010
0100
1000
0100
1000
,
0010
0000
0010
0000
0100
0000
0100
0000
0001
0000
0001
0000
1000
0001
1000
0000
,
0001
0000
0000
0010
0000
0001
0100
0000
0000
0010
0000
0000
,
1000
0000
0100
0000
0010
0000
1000
0000
0000
0010
0000
0000
,
0001
0000
0000
0000
0100
0000
0010
0000
0000
0000
0000
0000
2000
0000
0000
0000
0000
0000
3100
0000
0000
0010
0000
0000
,
0100
1000
0001
1000
0100
0010
0001
0000
,
1000
0010
0110
0110
,
0100
0000
0001
0000
1000
0000
0100
0010
,
1000
0000
0000
0010
0000
0000
0001
0000
0000
1000
0000
0000
0001
0000
0100
0000
0001
0000
0100
0000
0001
0000
0100
0000
,
0010
0000
0000
1000
0000
0000
0001
0010
,
1000
0010
0100
1000
0001
0100
0010
1000
,
0100
0000
0100
0000
0000
0000
0010
0000
0010
0000
0000
0000
0001
0010
0001
0000
,
1000
0100
0010
0000
0100
0001
0000
0100
,
1000
0000
0010
0000
1000
0000
0010
0000
0100
0000
0001
0000
0100
0001
0100
0000
,
0010
0100
0001
0100
1000
0100
0001
1000
,
0100
0000
0010
0100
0010
0000
0001
0100
,
0010
0001
0000
0010
1000
0000
0100
0000
,
0010
0000
0010
0000
0100
0000
0000
0000
1000
0000
0010
0000
0100
0000
2000
3000
,
0000
0000
0200
0300
0001
0000
0000
0000
0010
0000
0000
0000
0100
0000
1000
0000
,
1100
0001
1000
0010
,
0100
0000
0000
0001
0000
0000
0100
0000
0000
0000
0000
0000
0001
0000
0000
0000
0100
0000
0000
0000
0001
0000
0000
0000
0100
0000
0000
0000
0000
0000
0000
0000
0000
0000
0000
0000
0010
0000
0000
0000
0000
0000
0000
0000
0000
0000
0000
0000
,
1010
1000
0010
1000
0000
0100
0010
0000
,
0001
0000
0100
0000
0001
0000
0000
0000
0200
0000
0300
0000
2000
3000
0000
0000
,
0110
0000
0000
0000
0010
0000
0000
0000
1000
0000
0010
0100
0010
0000
1000
0000
,
0001
0000
0010
0000
0100
1000
0100
0000
0010
0000
0000
0000
0001
0000
0100
0000
,
0001
0000
0010
0100
0001
0000
0100
0000
,
1000
0000
0000
0000
0010
0000
0000
0000
0100
0000
0001
0000
0010
0001
0010
0000
,
0100
0000
1000
0010
1000
0000
0100
0010
,
0001
0000
1000
0010
1000
0000
0100
0000
,
0010
0001
0010
0001
0100
1000
0100
1000
,
0100
0000
0001
0000
1000
0000
0001
0000
1000
0100
1000
0000
0001
0010
0001
0000
,
1000
0000
0100
0010
0000
0100
1000
0000
0001
0100
0000
0010
,
1000
0000
0100
0001
0000
0100
0010
0000
0001
0100
0000
0010
,
1000
0100
0010
1000
0010
0001
0100
1000
,
0100
0100
0010
1000
0001
0001
0010
1000
,
0010
0001
0010
0001
0010
0001
1000
0010
1000
0010
1000
0010
,
0100
0001
0100
0001
0100
0001
1000
0100
1000
0100
1000
0100
,
1000
0000
0100
0010
0001
0100
0001
0000
0100
0010
1000
0010
,
1000
0100
1000
0000
0100
0010
0100
0000
0010
0001
0010
0000
0001
1000
0001
0000
,
0220
0000
0000
0000
,
0330
0000
0000
0000
,
1000
0100
1000
0100
0000
0010
0001
0000
0001
1000
0000
0000
,
0010
0000
0100
0001
0000
0001
0100
0000
0000
0010
0100
0010
,
1000
0000
0000
0000
0000
0000
1100
0000
0000
0000
0000
0000
1000
0000
0000
0010
0000
0000
0100
0000
0001
0000
0100
0000
,
0001
0000
0010
0100
0000
0000
1000
0000
0001
0010
0100
1000
,
0100
0000
0010
0100
0000
1000
0001
0000
0101
0000
0100
0000
,
0010
0000
0000
0000
1000
0000
0010
0000
0100
0000
0001
0000
0100
0000
0000
0010
0000
0000
1000
0000
0100
0000
0010
0000
,
0001
0000
1000
0010
0000
0100
0001
0000
0010
0100
0000
1000
,
0100
1000
0100
1000
0000
0000
0110
0000
0000
1001
0000
0000
,
1000
0100
1000
0100
0000
0010
0001
0000
0001
1000
0000
0000
,
0010
0000
0100
0001
0000
0001
0100
0000
0000
0010
0100
0010
,
1000
0000
0000
0000
0000
0000
1100
0000
0000
0000
0000
0000
1000
0000
0000
0010
0000
0000
0100
0000
0001
0000
0100
0000
,
0001
0000
0010
0100
0000
0000
1000
0000
0001
0010
0100
1000
,
0100
0000
0010
0001
0000
0100
0010
0000
1010
0000
1000
0000
,
0001
0000
0000
0000
0010
0000
0100
0000
1000
0000
0001
0000
1000
0000
0000
0100
0000
0000
0010
0000
0001
0000
1000
0000
,
0010
0000
0100
0001
0000
1000
0100
0000
0010
0001
0000
0100
,
0010
1000
0010
1000
0000
0000
0001
0010
0100
1000
0000
0000
,
0001
0100
0001
1000
0100
1000
0001
0010
0001
1000
0100
0010
,
0002
0000
0000
0000
,
0000
0000
0000
0000
,
0000
0000
0000
0000
,
0000
2003
0000
0000
,
3000
0000
0000
0000
;

//---------------dance-single - ----------------
#NOTES:
     dance-single:
     :
     Beginner:
     3:
     0.162,0.272,0.059,0.051,0.000: // measure 1
0000
0000
0000
0000
,  // measure 2
0000
0000
0000
0000
,  // measure 3
0000
0000
0000
0000
,  // measure 4
0000
0000
0000
0000
,  // measure 5
1000
0000
0000
0000
,  // measure 6
0001
0000
0100
0000
,  // measure 7
0001
0000
0000
0000
,  // measure 8
1000
0000
0010
0000
,  // measure 9
1000
0000
0000
0000
,  // measure 10
0100
0000
0010
0000
,  // measure 11
0100
0000
0000
0000
,  // measure 12
1000
0000
0001
0000
,  // measure 13
1001
0000
0000
0000
,  // measure 14
0000
0000
0000
0000
,  // measure 15
1000
0000
0100
0000
,  // measure 16
0010
0000
0001
0000
,  // measure 17
1000
0000
0010
0000
,  // measure 18
0100
0000
0001
0000
,  // measure 19
1000
0000
0100
0000
,  // measure 20
0100
0000
0010
0000
,  // measure 21
0001
0000
1000
0000
,  // measure 22
0100
0000
0001
0000
,  // measure 23
0100
0000
0000
0000
,  // measure 24
1000
0000
0000
0000
,  // measure 25
0010
0000
0100
0000
,  // measure 26
0001
0000
0010
0000
,  // measure 27
0100
0000
0110
0000
,  // measure 28
0010
0000
0110
0000
,  // measure 29
0100
0000
1000
0000
,  // measure 30
0001
0000
0200
0300
,  // measure 31
0020
0000
0000
0000
,  // measure 32
0030
0000
1000
0000
,  // measure 33
0001
0000
0000
0020
,  // measure 34
0000
0000
0030
0000
,  // measure 35
0100
0000
0000
0000
,  // measure 36
1000
0000
0001
0000
,  // measure 37
1000
0000
0000
0000
,  // measure 38
0010
0000
0000
0000
,  // measure 39
0100
0000
0000
0000
0000
0000
0000
0001
,  // measure 40
0000
0000
0000
0000
,  // measure 41
0010
0000
0100
0000
,  // measure 42
1000
0000
0000
0000
,  // measure 43
0001
0000
0000
0000
,  // measure 44
1001
0000
0000
0000
,  // measure 45
0010
0000
0000
0000
,  // measure 46
0110
0000
0000
0000
,  // measure 47
1000
0000
0000
0000
,  // measure 48
0001
0000
0100
0000
,  // measure 49
0000
0000
0000
0000
,  // measure 50
0010
0000
0000
0000
,  // measure 51
0000
0000
1000
0000
,  // measure 52
0001
0000
0010
0000
,  // measure 53
0100
0100
0000
0000
,  // measure 54
1000
0000
0000
0000
,  // measure 55
0000
0000
0000
0000
,  // measure 56
0001
0000
0000
0000
,  // measure 57
0010
0000
0000
0000
,  // measure 58
0100
0000
0000
0000
,  // measure 59
1000
0000
0001
0000
,  // measure 60
1000
0000
0000
0000
,  // measure 61
0010
0000
0100
0000
,  // measure 62
0001
0000
0000
0000
,  // measure 63
1000
0000
0000
0000
,  // measure 64
1001
0000
0000
0000
,  // measure 65
0001
0000
0010
0000
,  // measure 66
0001
0000
0000
0000
,  // measure 67
0100
0000
0000
0000
,  // measure 68
0010
0000
1000
0000
,  // measure 69
0010
0000
0100
0000
,  // measure 70
0001
0000
0000
0000
,  // measure 71
0010
0000
0100
0000
,  // measure 72
0000
0000
1000
0000
,  // measure 73
0010
0000
1000
0000
,  // measure 74
0001
0000
0000
0000
,  // measure 75
0010
0000
0100
0000
,  // measure 76
1000
0000
0000
0000
,  // measure 77
0001
0000
0100
0000
,  // measure 78
0010
0000
0000
0000
,  // measure 79
1000
0000
0100
0000
,  // measure 80
1000
0000
0000
0000
,  // measure 81
0010
0000
0000
0000
,  // measure 82
0100
0000
0001
0000
,  // measure 83
0100
0000
0010
0000
,  // measure 84
0220
0000
0000
0000
,  // measure 85
0330
0000
0000
0000
,  // measure 86
1000
0000
0000
0000
,  // measure 87
0001
0000
0010
0000
,  // measure 88
0010
0000
0000
0000
,  // measure 89
0100
0000
0000
0000
,  // measure 90
1000
0000
0010
0000
,  // measure 91
0010
0000
0000
0000
,  // measure 92
0100
0000
0001
0000
,  // measure 93
0010
0000
0100
0000
,  // measure 94
1000
0000
0000
0000
,  // measure 95
0001
0000
0010
0000
,  // measure 96
0010
0000
0000
0000
,  // measure 97
0100
0000
0000
0000
,  // measure 98
1000
0000
0010
0000
,  // measure 99
0010
0000
0100
0000
,  // measure 100
0001
0000
1000
0000
,  // measure 101
0010
0000
0100
0000
,  // measure 102
0110
0000
0000
0000
,  // measure 103
0002
0000
0000
0000
,  // measure 104
0000
0000
0000
0000
,  // measure 105
0000
0000
0000
0000
,  // measure 106
0000
2003
0000
0000
,  // measure 107
3000
0000
0000
0000
;
