#TITLE:Sweet Rain;
#SUBTITLE:;
#ARTIST:Y&Co. feat. Karin;
#TITLETRANSLIT:;
#SUBTITLETRANSLIT:;
#ARTISTTRANSLIT:;
#GENRE:Eurobeat;
#CREDIT:;
#BANNER:Sweet Rain.png;
#BACKGROUND:Sweet Rain-bg.png;
#JACKET:Sweet Rain-jacket.png;
#LYRICSPATH:;
#CDTITLE:;
#MUSIC:Sweet Rain.mp3;
#OFFSET:-1.411;
#SAMPLESTART:94.500;
#SAMPLELENGTH:15.000;
#SELECTABLE:YES;
#BPMS:0.000=155.000
;
#STOPS:
;
#BGCHANGES:;
#KEYSOUNDS:;
#ATTACKS:;

//---------------dance-single - ----------------
#NOTES:
     dance-single:
     :
     Hard:
     9:
     0.733,0.702,0.651,0.040,0.450,552.000,81.000,5.000,0.000,0.000,0.000,0.733,0.702,0.651,0.040,0.450,552.000,81.000,5.000,0.000,0.000,0.000:
1000
1010
0010
0100
0000
0001
0010
0001
,
0100
0010
0100
0010
1000
0010
1000
0010
0100
0001
0100
0001
0010
0000
0100
0000
,
1000
0001
1000
0001
0100
0001
0100
0001
,
0010
0000
0000
0100
0000
0000
1000
0000
0000
0001
0000
0000
0100
0000
0000
0010
0000
0000
0010
0000
0000
0100
0001
0100
,
0001
0000
0110
0100
0001
0000
1100
0100
,
0010
0000
0000
0001
0010
0000
0000
0001
0100
0000
0010
0000
1000
0000
0001
1000
,
0001
0000
0000
0000
1001
0000
0000
0000
1000
0000
1000
0000
0100
0010
0100
0000
,
1000
0000
0001
0000
0100
0000
0001
1000
0010
0100
0001
0100
0010
1000
0100
0000
,
0010
0100
0000
1000
0001
0000
0100
0001
0000
0010
0100
0000
1000
0000
1000
0000
,
0010
1000
0000
1000
0001
0000
0100
0010
0100
0000
0001
0000
0010
0000
0100
0000
,
1000
0010
0000
0100
0010
0000
1000
0010
0000
0100
0010
0000
1000
0000
0001
0000
,
0010
0001
0000
0001
0100
0000
0010
0001
0000
0001
0100
0000
0010
0000
1000
0000
,
0100
0010
0000
0010
0001
0000
0001
0100
0000
0100
1000
0000
0100
0000
0100
0000
,
0010
1000
0000
1000
0100
0000
0010
0000
0001
1000
0000
1000
0010
0100
0001
0000
,
1000
0001
0000
0001
0100
0000
0001
1000
0000
1000
0100
0000
0010
0000
0100
0000
,
1000
0000
0001
0010
0000
1000
0100
0000
0001
0010
0000
1000
0100
0000
0010
0000
,
0100
0000
1000
0010
1000
0010
0100
0001
,
0010
0000
0010
0000
0100
0000
0010
0000
0000
0000
0110
0000
0000
0000
0010
0100
,
1000
0001
0100
0001
0000
0011
0000
0110
,
0000
0100
1000
0000
0010
0000
1010
0000
,
1000
0000
0100
1000
0010
1000
0001
1000
,
0100
0000
0000
0000
0010
0000
0100
0000
0000
0000
0110
0000
0000
0000
0100
1000
,
0001
0000
0100
0001
0000
0001
0010
0100
,
1000
0000
1010
0000
0000
0000
0101
0000
0000
0000
0011
0000
0000
0000
0010
0100
,
0010
0000
0100
1000
0010
0100
0000
0001
,
0000
1000
0000
1001
0000
0001
0010
0001
,
0000
1100
0000
0100
0010
1000
0000
1001
,
0000
0010
0100
1000
0000
1001
0000
0002
,
0103
0000
0100
0010
1000
0001
0000
0011
,
0000
1100
0000
1010
0000
0100
0000
0101
,
0000
0000
0011
0000
0000
0000
0000
0010
0100
0000
1000
0000
0100
0010
0100
0000
,
0010
0100
1000
0001
0000
0101
0000
0000
,
0011
0000
0011
0000
0010
0100
1000
0010
,
0000
0000
1010
0000
0000
0000
1000
0000
0000
0000
0001
0000
1000
0000
0000
0010
,
1000
0100
0010
0000
0001
1000
0010
1000
,
0000
1010
0000
0110
0000
0100
0001
0010
,
0100
0000
0110
0000
0100
1100
0000
1010
,
0000
0010
0100
0001
0100
0100
0001
0001
,
0020
0000
0000
0130
0110
0000
1100
0000
,
1000
0000
1001
0000
0000
0000
1001
0000
0001
1000
0000
1000
0001
0000
1000
0000
,
1010
0000
1010
0000
0010
0100
0001
0011
,
0000
0000
0110
0000
0000
0000
0011
0000
0000
0000
0001
0000
1000
0000
0000
0010
,
1000
0100
0010
0000
0010
0001
1000
0001
,
0000
1001
0000
1010
0000
0010
0100
0001
,
0011
0000
1100
0000
1010
0000
0010
0100
,
0000
0100
0001
1000
0100
0010
0001
1000
,
0020
0000
0000
0130
0110
0000
0100
0000
,
0001
0000
1001
0000
0000
0000
1001
0000
0001
1000
0001
1000
0001
1000
0010
0100
,
0001
1000
0000
1000
0000
0100
0000
0010
0000
0000
0001
0000
0000
1000
0000
1000
,
0010
0100
0000
0100
0001
0000
0000
0000
0001
0000
1000
0000
0000
0000
0100
0000
,
0010
0001
0000
1000
0010
1000
0010
0000
1000
0000
1001
0000
1000
0100
1000
0000
,
0100
0000
0010
0000
0001
0000
0101
0000
0000
0000
0110
0000
0010
1000
0100
0010
,
0100
0000
0110
0000
0010
0001
0100
0101
,
0000
0011
0000
0110
0000
0100
1000
0000
,
1001
0000
1001
0000
1000
0010
0100
0110
,
0000
1010
0000
1100
0000
0100
0010
0001
,
0011
0000
0010
0001
0011
0000
0010
0100
,
0110
0000
0010
0100
0110
0000
0100
1000
,
1200
0000
0000
0310
0000
0010
0001
0100
,
0001
0101
0000
0101
0000
0011
0000
0010
,
0110
0000
0110
0000
0100
1000
0010
0110
,
0000
0000
0101
0000
0000
0000
0011
0000
0000
0000
0010
0000
0100
0000
0000
1000
,
0001
1000
0100
0000
0100
0010
0100
1000
,
0000
1010
0000
0101
0000
0001
0010
0100
,
0010
0000
0110
0000
1001
0000
1000
0100
,
0000
0100
0001
0100
1000
0010
0001
0010
,
1000
0000
0001
1000
1001
0000
0011
0000
,
0010
0000
0110
0000
0000
0110
0000
0000
0010
0100
0000
0010
0100
0000
0200
0000
,
1300
0100
0000
1000
0100
0000
0100
0010
0000
0010
0001
0000
0100
0000
0001
0000
,
1000
0001
0000
0001
0100
0000
0010
0000
1000
0100
1000
0000
0100
0000
0010
0000
,
0100
1000
0000
1000
0001
0000
0100
0001
0000
0001
1000
0000
0010
0000
0100
0000
,
0001
0010
0000
0001
0100
0000
0001
0010
0000
0001
0100
0000
0010
0000
0100
1000
,
0100
0010
0000
0010
0100
0000
0100
0001
0000
0001
1000
0000
0001
0000
0100
0000
,
0010
1000
0000
1000
0100
0000
0010
0000
0001
1000
0000
1000
0010
0100
0001
0000
,
1000
0001
0000
0010
0100
0000
1000
0010
0000
0100
0001
0000
0010
0000
0100
0000
,
1000
0000
0001
0010
0000
1000
0100
0000
0001
0010
0000
1000
0100
0000
0010
0000
,
0110
0000
0000
0000
;

//---------------dance-single - Blank----------------
#NOTES:
     dance-single:
     :
     Medium:
     7:
     0.458,0.397,0.249,0.032,0.024,364.000,31.000,4.000,0.000,0.000,0.000,0.458,0.397,0.249,0.032,0.024,364.000,31.000,4.000,0.000,0.000,0.000:
1000
0100
0000
0010
0000
0000
0001
0000
,
1000
0010
0100
0001
,
1000
1000
0100
1000
,
0010
1000
0010
1000
0001
0100
0001
0100
,
0010
0010
1000
0001
,
1000
0100
1000
0000
0100
0000
0010
0000
,
0100
1000
0100
0000
1000
0000
0010
0000
,
0100
0001
0100
0010
1000
0001
1000
0000
,
0010
0000
1000
0000
0010
1000
0010
0000
,
1000
0000
0001
0000
1000
0001
1000
0001
,
0100
0000
0001
0000
0100
0001
0100
0000
,
0001
0010
0100
0010
0001
1000
0100
1000
,
0010
0000
0100
0000
0010
0100
0010
0000
,
0100
0001
0100
0000
0001
0010
0100
1000
,
0010
0000
0100
0000
0010
0100
0010
0000
,
0100
0000
0000
0010
0000
0000
0100
0000
0000
0010
0000
0000
0100
0000
0010
0000
,
1000
0000
0001
0000
1000
0001
0010
0000
,
0001
1000
0010
1000
0000
0001
0000
1000
,
0100
1000
0010
1000
0000
0001
0000
0010
,
0000
0100
1000
0000
0001
0000
0001
0000
,
0100
0000
0010
1000
0001
1000
0010
0100
,
0001
0010
0100
1000
0000
0001
0000
1000
,
0001
0000
0100
0001
0000
1000
0100
0010
,
0100
0100
0000
0110
0000
1001
0000
0000
,
1000
0000
0100
1000
0010
0100
0000
0001
,
0000
0100
0000
0001
0000
0010
0100
0010
,
0000
0100
0000
0000
0000
1100
0000
0101
,
0000
1100
0000
0101
0000
0110
0000
0000
,
0010
0000
0001
0100
0010
0100
0000
0001
,
0000
1000
0000
0100
0000
1000
0100
1000
,
0000
1010
0000
0000
0000
0000
0000
1000
,
0010
0010
0100
0001
0000
1000
0000
0000
,
1001
0000
1001
0000
1000
0010
0000
0100
,
0000
0001
0000
1000
0000
0100
1000
0000
,
0010
0000
0010
0000
0100
0010
0000
1000
,
0000
0001
0000
0010
0000
0100
1000
0000
,
0010
0000
1000
0000
0001
0010
0000
0100
,
0000
1000
0001
0100
0010
0000
1000
0000
,
2010
0000
0000
0001
3001
0000
0000
0000
,
1000
0100
0000
0100
0000
0110
0000
0000
,
0110
0000
0110
0000
0100
0010
0000
0001
,
0000
1000
0000
0010
0000
0100
0001
0000
,
1000
0001
1000
0000
0010
1000
0000
0100
,
0000
0010
0000
0100
0000
1000
0001
0000
,
0100
0000
0100
0000
0001
0000
0010
0001
,
0000
0010
0100
0000
0100
1000
0001
0100
,
0020
0000
0000
0100
0130
0000
0000
0000
,
0100
0010
0000
1010
0000
1001
0000
0000
,
0001
0000
1000
0000
0001
1000
0001
0000
,
1000
0000
0010
0000
1000
0010
1000
0010
,
0100
0000
0010
0000
0100
0010
0100
0000
,
0001
1000
0001
1000
0000
1001
0000
0000
,
1100
0000
0000
0000
,
0011
0000
0000
0000
,
0101
0000
0000
0000
0000
0000
0000
1010
,
0000
0101
0000
0011
0000
0100
1000
0100
,
1000
0000
0011
0000
,
0001
0000
1010
0000
,
2000
0000
3000
1001
0000
0000
0000
0000
,
0001
0010
0000
0010
0000
0010
0000
0010
,
0110
0000
0110
0000
0100
1000
0000
0010
,
0000
0100
0000
0001
0000
0010
0100
0000
,
0110
0000
0110
0000
0010
0001
0000
1000
,
0000
0010
0000
1000
0000
0001
0010
0100
,
0010
0000
0001
0000
1000
0000
0010
0100
,
0000
0100
0001
1000
0100
0000
0010
0000
,
0210
0000
0000
1000
1300
0000
0000
0000
,
1000
0000
0001
0000
0000
1000
0000
0000
0001
0000
0000
1000
0000
0000
0001
0000
,
0010
0000
0100
0000
0010
0100
0010
0000
,
0100
0000
1000
0000
0100
1000
0100
0000
,
1000
0000
0001
0000
1000
0001
1000
0000
,
0010
1000
0010
0100
0001
0100
0010
1000
,
0100
0000
0010
0000
0100
0010
0100
0000
,
1000
0000
0100
0000
1000
0100
0010
0001
,
0100
0000
0010
0000
0100
0010
0100
0000
,
0010
0000
0000
1000
0000
0000
0001
0000
0000
0010
0000
0000
0100
0000
1000
0000
,
0001
0000
0000
0000
;

//---------------dance-single - Blank----------------
#NOTES:
     dance-single:
     :
     Easy:
     4:
     0.293,0.305,0.321,0.032,0.000,211.000,40.000,4.000,0.000,0.000,0.000,0.293,0.305,0.321,0.032,0.000,211.000,40.000,4.000,0.000,0.000,0.000:
1000
0000
1010
0000
,
1000
0001
0010
0000
,
0100
0100
0100
0000
,
0010
0001
0010
1000
,
0010
0000
0010
0000
,
0100
0000
0100
0000
,
1000
0100
0010
0001
,
1000
0000
0000
1001
,
0010
0010
0010
0000
,
0100
0100
0100
0000
,
0001
0001
0001
0000
,
1000
1000
1000
1000
,
0100
0100
0100
0000
,
0010
0010
0001
1000
,
0010
0010
0010
0000
,
0110
0000
0000
0110
0000
0000
0110
0000
,
0100
0000
0100
0000
,
0001
1000
0001
0000
,
0100
0000
0100
0000
,
1000
0001
1000
0000
,
0100
0000
0100
0000
,
0001
1000
0001
0000
,
0010
0000
0010
0000
,
0100
1000
1010
0000
,
0010
0100
0001
0000
,
0010
0100
1000
0000
,
0001
1000
0100
0001
,
1000
0010
0001
0000
,
1000
0100
0010
0000
,
0001
0100
0010
0000
,
1000
0001
0100
1000
,
0001
0010
1000
0000
,
1001
0110
1001
0110
,
0010
0000
0010
0000
,
0100
0001
0010
1000
,
0100
0000
0100
0000
,
0011
1010
0011
1010
,
0100
0000
0100
0000
,
0010
0000
0110
0000
,
0100
0000
0110
0000
,
1001
0110
1001
0110
,
0010
0000
0010
0000
,
0001
0010
1000
0100
,
0001
0000
0001
0000
,
1100
0101
1100
0101
,
0001
0000
0001
0000
,
1000
0000
1001
0000
,
0001
0000
0000
1001
0000
0000
1000
0000
,
0100
0100
0010
0001
,
1000
1000
0010
0100
,
0001
1000
0100
0010
,
0001
0000
0000
1001
0000
0000
0001
0000
,
2000
0000
0000
0000
,
0000
0000
0000
0000
,
3200
0000
0000
0000
,
0000
0000
0000
0000
,
0320
0000
0000
0000
,
0000
0000
0000
0000
,
0032
0000
0000
0000
,
1003
1000
1000
0000
,
1001
0110
1001
0110
,
0010
0000
0010
0000
,
1000
0010
0001
0100
,
1000
0000
1000
0000
,
1100
0101
1100
0101
,
0100
0000
0100
0000
,
0010
0000
0110
0000
,
0100
0000
0110
0000
,
0100
1000
0010
0000
,
0100
0001
0010
0000
,
0001
0010
0001
0100
,
1000
0010
1000
0100
,
0001
0010
0001
0000
,
1000
0001
0010
0100
,
1000
1000
0010
0000
,
0110
0000
0000
0110
0000
0000
0110
0000
,
0100
0000
0000
0000
;

//---------------dance-single - Blank----------------
#NOTES:
     dance-single:
     :
     Beginner:
     2:
     0.165,0.275,0.121,0.032,0.000,125.000,15.000,4.000,0.000,0.000,0.000,0.165,0.275,0.121,0.032,0.000,125.000,15.000,4.000,0.000,0.000,0.000: // measure 0
0000
0000
0000
0000
,  // measure 1
1000
0000
1000
0000
,  // measure 2
0000
0000
0000
0000
,  // measure 3
0001
0000
0001
0000
,  // measure 4
0000
0000
0000
0000
,  // measure 5
0100
0000
0100
0000
,  // measure 6
0000
0000
0000
0000
,  // measure 7
0010
0000
0010
0000
,  // measure 8
1000
0000
0001
0000
,  // measure 9
1000
0000
0010
0000
,  // measure 10
1000
0000
0001
0000
,  // measure 11
1000
0000
0100
0000
,  // measure 12
0001
0000
1000
0000
,  // measure 13
0001
0000
0100
0000
,  // measure 14
1000
0000
0010
0000
,  // measure 15
0001
0000
0100
0000
,  // measure 16
1000
0000
0000
0000
,  // measure 17
1000
0000
0000
0000
,  // measure 18
0001
0000
0000
0000
,  // measure 19
0001
0000
0000
0000
,  // measure 20
0010
0000
0000
0000
,  // measure 21
0010
0000
0000
0000
,  // measure 22
0100
0000
0000
0000
,  // measure 23
0100
0000
0000
0000
,  // measure 24
1001
0000
0000
0000
,  // measure 25
0110
0000
0000
0000
,  // measure 26
1001
0000
0000
0000
,  // measure 27
0100
0000
0100
0000
,  // measure 28
1001
0000
0000
0000
,  // measure 29
0110
0000
0000
0000
,  // measure 30
1001
0000
0000
0000
,  // measure 31
0010
0000
0010
0000
,  // measure 32
1000
0000
1000
0000
,  // measure 33
0001
0000
0100
0000
,  // measure 34
0001
0000
0001
0000
,  // measure 35
1000
0000
0100
0000
,  // measure 36
0010
0000
0010
0000
,  // measure 37
0001
0000
1000
0000
,  // measure 38
0010
0000
0010
0000
,  // measure 39
1000
0000
0001
0000
,  // measure 40
1001
0000
1000
0000
,  // measure 41
0100
0000
0100
0000
,  // measure 42
0010
0000
0001
0000
,  // measure 43
0100
0000
0100
0000
,  // measure 44
0001
0000
0100
0000
,  // measure 45
1000
0000
0100
0000
,  // measure 46
0001
0000
0010
0000
,  // measure 47
1000
0000
0010
0000
,  // measure 48
0100
0100
0100
0000
,  // measure 49
0100
0100
0100
0000
,  // measure 50
0010
0010
0010
0000
,  // measure 51
1001
1001
1001
0000
,  // measure 52
2000
0000
0000
0000
,  // measure 53
0000
0000
0000
0000
,  // measure 54
3200
0000
0000
0000
,  // measure 55
0000
0000
0000
0000
,  // measure 56
0320
0000
0000
0000
,  // measure 57
0000
0000
0000
0000
,  // measure 58
0032
0000
0000
0000
,  // measure 59
1003
0000
1000
0000
,  // measure 60
1001
0000
0010
0000
,  // measure 61
0100
0000
0010
0000
,  // measure 62
1001
0000
0100
0000
,  // measure 63
0010
0000
0100
0000
,  // measure 64
0110
0000
1000
0000
,  // measure 65
0001
0000
1000
0000
,  // measure 66
0110
0000
0001
0000
,  // measure 67
1000
0000
0001
0000
,  // measure 68
1000
0000
1000
0000
,  // measure 69
0001
0000
0001
0000
,  // measure 70
1000
0000
0100
0000
,  // measure 71
0010
0000
0001
0000
,  // measure 72
1000
0000
1000
0000
,  // measure 73
0001
0000
0001
0000
,  // measure 74
1000
0000
0100
0000
,  // measure 75
0001
0000
0010
0000
,  // measure 76
0110
0000
0000
0000
;
