#TITLE:New Magical Definition;
#SUBTITLE:electro mix;
#ARTIST:Oh,la,la! remixed by SLAKE;
#TITLETRANSLIT:;
#SUBTITLETRANSLIT:;
#ARTISTTRANSLIT:;
#GENRE:TEKNOGIRL REMIX;
#CREDIT:Telperion;
#BANNER:nmdem-bn.png;
#BACKGROUND:nmdem-bq.png;
#LYRICSPATH:;
#CDTITLE:!CDTitle.png;
#MUSIC:nmdem.ogg;
#OFFSET:-0.335;
#SAMPLESTART:7.446;
#SAMPLELENGTH:14.222;
#SELECTABLE:YES;
#DISPLAYBPM:135.000;
#BPMS:0.000=135.000
;
#STOPS:
;
#BGCHANGES:;
#KEYSOUNDS:;
#ATTACKS:;

//---------------dance-single - Telperion----------------
#NOTES:
     dance-single:
     Telperion:
     Hard:
     9:
     0.550,0.533,0.284,0.115,0.404,388.000,32.000,13.000,0.000,0.000,0.000,0.550,0.533,0.284,0.115,0.404,388.000,32.000,13.000,0.000,0.000,0.000:
0000
0000
0000
0000
,
0000
0000
0000
0000
,
0000
0000
0000
0000
,
0000
0000
0000
0000
,
0001
0001
0001
0001
,
0001
0000
0000
0000
1000
0100
0010
0002
0000
0000
1000
0000
0000
0010
0000
0000
,
1003
0010
1000
0001
1000
0000
1000
0000
,
1000
0000
0000
0000
0001
0100
0010
2000
0000
0000
0001
0000
0000
0010
0000
0000
,
3001
0010
0001
1000
0001
1000
0001
1000
,
0001
0000
0000
0000
0100
0001
0100
0020
0000
0000
1000
0000
0000
0100
0000
0000
,
1030
0010
1000
0100
1000
0001
0010
0100
,
0110
0000
0000
0000
0110
0000
0000
0000
1001
0000
0001
0000
1000
0001
0000
0000
,
0011
0000
0010
0000
0100
1000
0000
0000
1000
0000
0010
0000
1000
0001
0000
0000
,
0001
0000
0010
0000
0001
1000
0000
1000
0001
0000
0010
0000
0100
1000
0000
0000
,
1000
0000
0010
0000
0100
0001
0000
0000
0001
0000
0010
0000
0100
1000
0000
0000
,
1000
0000
0010
0000
0100
0001
0000
0001
1000
0000
0010
0000
0100
0000
0000
0000
,
0001
0000
0010
0000
0100
1000
0100
0000
1000
0000
0010
0000
0100
0001
0100
0000
,
0001
0000
0010
0000
0001
1000
0001
0000
0100
0000
0010
0000
1000
0001
1000
0000
,
0100
0010
0100
0100
1000
0010
1000
1000
,
0001
0000
0010
0000
0001
0000
0001
0000
1000
0000
1000
0000
0001
0100
0001
0100
,
0010
0010
1000
0010
,
0100
0000
0000
0000
0001
0000
1000
0001
0000
0000
1000
0000
0001
1000
0100
0010
,
0001
0001
0010
0100
,
1000
0000
0000
0000
1000
0000
0010
0100
0000
0000
0010
0000
1000
0010
1000
0001
,
0100
0100
0001
0001
,
1000
0000
0000
0000
0001
0000
0010
0100
0000
0000
1000
0000
0001
1000
0001
0100
,
0010
0010
1010
1001
,
1000
0100
0000
0110
0000
0010
0000
0010
,
0000
0000
0001
0000
1000
0000
0001
0100
0000
0002
0000
0000
1003
0001
0000
0000
,
0110
0001
1000
0000
0011
0000
0110
0000
,
1100
0000
0000
0000
0001
1000
0100
0020
0000
0000
0001
0000
0000
0100
0000
0000
,
0031
0010
0000
0000
0110
0000
1000
0000
,
1001
0000
0000
0000
0001
0100
0010
2000
0000
0000
0001
0000
0000
0010
0000
0000
,
3001
1000
0001
0100
0101
0000
0110
0000
,
1010
0000
0000
0000
0001
1000
0001
0020
0000
0000
0100
0000
0000
0001
0000
0000
,
0130
0110
0000
0000
1001
0000
0000
0000
,
0110
0000
0000
0000
0110
0000
0000
0000
1001
0000
1000
0000
0001
1000
0000
0000
,
1010
0000
0010
0000
0100
0001
0000
0000
0001
0000
0010
0000
0100
1000
0000
0000
,
1000
0000
0010
0000
1000
0001
0000
0001
1000
0000
0010
0000
0100
0001
0000
0000
,
0001
0000
0010
0000
0001
1000
0000
0000
1000
0000
0010
0000
1000
0100
0000
0000
,
0100
0000
0010
0000
0001
1000
0000
1000
0100
0000
0010
0000
0001
0000
0000
0000
,
1000
0000
0010
0000
0100
0001
0100
0000
0001
0000
0010
0000
0100
1000
0100
0000
,
1000
0000
0010
0000
1000
0001
1000
0000
0100
0000
0010
0000
0001
1000
0001
0000
,
0100
0010
1000
1000
0001
0010
0100
0100
,
1000
0010
0100
0100
0001
0001
1000
1000
,
0010
0000
0000
0000
0100
0000
0000
0001
0000
0000
0001
0000
1000
0100
0000
0001
,
0000
0000
0100
0000
0010
0000
0000
0001
0000
0000
0001
0000
1000
0010
0000
0010
,
0100
0000
0000
0000
0001
0000
0000
1000
0000
0000
1000
0000
0001
0100
0000
1000
,
0000
0000
0100
0000
0010
0000
0000
1000
0000
0000
1000
0000
0001
0020
0000
0000
,
0030
0000
0000
0000
,
0000
0000
0001
0000
0001
0000
1000
0100
0000
2000
0000
0000
3001
1000
0000
0000
,
0110
1000
0001
0000
0011
0000
0101
0000
,
1001
0000
0000
0000
1000
0100
0010
0002
0000
0000
0010
0000
0000
1000
0000
0000
,
0103
0010
0000
0000
0110
0000
1000
0000
,
1001
0000
0000
0000
0001
1000
0001
0020
0000
0000
0100
0000
0000
0001
0000
0000
,
0130
1000
0001
1000
1100
0000
0110
0000
,
0011
0000
0000
0000
1000
0001
0100
0020
0000
0000
0100
0000
0000
1000
0000
0000
,
0130
0110
1000
0001
0100
0001
1000
0001
,
0100
0001
0100
0001
1000
0001
1000
0100
0010
0001
0010
0001
1000
0001
1000
0001
,
0200
0000
0000
0000
,
0300
0000
0000
0000
;

//---------------dance-single - Telperion----------------
#NOTES:
     dance-single:
     Telperion:
     Medium:
     6:
     0.423,0.426,0.284,0.151,0.049,284.000,32.000,17.000,0.000,0.000,0.000,0.423,0.426,0.284,0.151,0.049,284.000,32.000,17.000,0.000,0.000,0.000:
0000
0000
0000
0000
,
0000
0000
0000
0000
,
0000
0000
0000
0000
,
0000
0000
0000
0000
,
1000
1000
1000
1000
,
1000
0000
0000
0000
0100
0010
0000
0020
0000
0000
0030
0000
0000
0000
0000
0000
,
0001
1000
0001
0000
0001
0000
0001
0000
,
0001
0000
0000
0000
0100
0010
0000
0020
0000
0000
1030
0000
0010
0000
0000
0000
,
1000
0001
1000
0001
1000
0001
1000
0001
,
1000
0000
0000
0000
0100
0010
0000
0020
0000
0000
0030
0000
0000
0000
0000
0000
,
0001
0000
0001
0010
0001
1000
0000
1000
,
0010
0110
0220
0330
,
1001
0000
0001
0000
0010
0001
0010
0000
,
0100
0010
0100
0000
1000
0100
1000
0000
,
0001
0000
1000
0000
0010
1000
0010
0000
,
0100
0010
0100
0000
0001
0100
0001
0000
,
1000
0000
1000
0000
0010
0100
0010
0000
,
1000
0001
1000
0000
0100
0010
0100
0000
,
1000
0001
1000
0001
0010
0001
0010
0001
,
1000
0001
1000
0001
0100
0001
0100
0010
,
2000
0010
0010
0010
,
3001
0000
1000
0010
0100
0000
0001
1000
,
0002
0010
0010
0010
,
1003
0000
0000
0000
0001
0000
0010
0000
0001
0000
0000
1000
0000
0000
0100
0000
,
0020
0100
0100
0100
,
0031
0000
1000
0010
0100
0000
0001
1000
,
0020
0130
0101
1001
,
1000
0001
0010
0100
1000
0010
1000
0100
,
0000
0000
1000
0000
0001
0000
1000
0100
0000
2000
0000
0000
3001
0000
0000
0000
,
0011
0001
0011
0110
,
1100
0000
0001
1000
0000
0000
0100
0000
,
1001
0001
0100
0000
0110
0000
0001
0000
,
0110
0000
1000
0001
0000
0000
0100
0000
,
1001
1000
0100
0000
1100
0000
0110
0000
,
0011
0000
0001
1000
0000
0001
0100
0000
,
0010
1000
0010
0000
0110
0000
1000
0000
,
0110
0000
0110
0010
0200
0000
0300
0000
,
1001
0000
1000
0000
0010
1000
0010
0000
,
0100
0010
0100
0000
0001
0100
0001
0000
,
1000
0000
0001
0000
0010
0001
0010
0000
,
0100
0010
0100
0000
1000
0100
1000
0000
,
0001
0000
0001
0000
0010
0100
0010
0000
,
0001
1000
0001
0000
0100
0010
0100
0000
,
0001
1000
0001
1000
0010
1000
0010
1000
,
0001
1000
0001
1000
0100
1000
0100
0010
,
0002
1000
0010
0003
,
2000
0001
0100
3000
,
0002
1000
0010
0003
,
2000
0000
0010
0000
3001
1000
0000
0001
,
0010
0000
0000
0000
,
0000
0000
0001
0000
1000
0000
0001
0100
0000
0002
0000
0000
1003
0000
0000
0000
,
1010
1000
1010
0110
,
0101
0000
1000
0001
0000
0000
0010
0000
,
0100
0001
0100
0000
1100
0000
1000
0000
,
0101
0000
0001
1000
0000
0000
0100
0000
,
1001
1000
0100
0000
1100
0000
0110
0000
,
0011
0000
1000
0001
0000
1000
0100
0000
,
0100
0010
0100
0000
1100
0000
1000
0000
,
0101
0001
0100
0001
1000
0001
1000
0001
,
0020
0000
0000
0000
,
0030
0000
0000
0000
;

//---------------dance-single - Telperion----------------
#NOTES:
     dance-single:
     Telperion:
     Easy:
     3:
     0.268,0.346,0.160,0.293,0.000,160.000,18.000,33.000,0.000,0.000,0.000,0.268,0.346,0.160,0.293,0.000,160.000,18.000,33.000,0.000,0.000,0.000:
0000
0000
0000
0000
,
0000
0000
0000
0000
,
0000
0000
0000
0000
,
0000
0000
0000
0000
,
0001
0001
0001
0001
,
0001
1000
0110
0000
,
1000
1000
1000
1000
,
1000
0001
0110
0000
,
0001
0010
0001
0010
,
0100
1000
0101
0000
,
1000
0010
0100
0001
,
1001
0110
2002
3003
,
2000
0000
3020
0000
,
0230
0000
0002
0003
,
0320
0000
2030
0000
,
3002
0000
0003
0000
,
0002
0000
0023
0000
,
0230
0000
2000
3000
,
0320
0000
0032
0000
,
2003
0000
3000
0000
,
0001
0001
1000
0000
,
0010
0100
0001
0000
,
1000
1000
0001
0001
,
0010
0100
1000
0000
,
0010
0010
0100
0000
,
0001
1000
0100
0000
,
0010
0010
0100
1000
,
0000
0001
0000
0001
0000
0001
0000
0001
,
0000
0000
0000
0000
,
1001
1000
0010
0100
,
0001
1000
0110
0000
,
0001
0001
1000
0100
,
1000
0001
0110
0000
,
1000
0010
1000
0010
,
0001
0010
1001
0000
,
0001
0010
0100
1000
,
1001
0110
2002
3003
,
1200
0000
0320
0000
,
0032
0000
0200
0300
,
2003
0000
3020
0000
,
0230
0000
0300
0001
,
0200
0000
0320
0000
,
2030
0000
0002
0003
,
3002
0000
0023
0000
,
0230
0000
0300
0000
,
1000
0001
0000
0010
,
0100
1000
0000
0010
,
1000
0001
0000
0100
,
0001
0010
0000
0100
,
0110
0000
0000
0000
,
0000
0000
0000
0000
,
0001
0001
0001
0001
,
0001
0001
0011
0001
,
1000
1000
1000
1000
,
1000
0001
0110
0000
,
0001
0010
0100
0010
,
0001
1000
0101
0000
,
1000
0010
0100
0001
,
1000
0001
1000
0001
1000
0001
1000
0001
,
0200
0000
0000
0000
,
0300
0000
0000
0000
;

//---------------dance-single - Telperion----------------
#NOTES:
     dance-single:
     Telperion:
     Beginner:
     2:
     0.112,0.210,0.027,0.000,0.000,85.000,3.000,0.000,0.000,0.000,0.000,0.112,0.210,0.027,0.000,0.000,85.000,3.000,0.000,0.000,0.000,0.000:
0000
0000
0000
0000
,
0000
0000
0000
0000
,
0000
0000
0000
0000
,
0000
0000
0000
0000
,
1000
1000
1000
1000
,
1000
0000
0000
0000
,
0001
0000
0001
0000
,
0001
0000
0000
0000
,
1000
1000
1000
1000
,
1000
0000
0000
0000
,
0001
0000
1000
0000
,
0001
0000
0000
0000
,
0010
0000
0000
0000
,
0010
0000
0000
0000
,
0010
0000
0000
0000
,
0010
0000
0000
0000
,
0100
0000
0000
0000
,
0100
0000
0000
0000
,
0100
0000
0000
0000
,
0100
0000
0000
0000
,
1000
0000
0000
0000
,
0000
0000
0000
0000
,
1001
0000
0000
0000
,
0000
0000
0000
0000
,
0001
0000
0000
0000
,
0000
0000
0000
0000
,
1001
0000
0001
0000
,
1000
0000
0001
0000
,
0000
0000
0000
0000
,
0001
0001
0001
0001
,
0001
0000
0000
0000
,
1000
0000
1000
0000
,
1000
0000
0000
0000
,
0001
0001
0001
0001
,
0001
0000
0000
0000
,
1000
0000
0001
0000
,
1000
0000
0000
0000
,
0010
0000
0000
0000
,
0010
0000
0000
0000
,
0010
0000
0000
0000
,
0010
0000
0000
0000
,
0100
0000
0000
0000
,
0100
0000
0000
0000
,
0100
0000
0000
0000
,
0100
0000
0000
0000
,
0001
0000
0000
0000
,
0001
0000
0000
0000
,
1000
0000
0000
0000
,
1000
0000
0000
0000
,
1000
0001
1000
0001
,
1000
0001
1000
0001
,
1000
1000
1000
1000
,
1000
0000
0000
0000
,
0001
0000
0001
0000
,
0001
0000
0000
0000
,
1000
1000
1000
1000
,
1000
0000
0000
0000
,
0001
0000
1000
0000
,
0001
0000
1000
0000
,
0110
0000
0000
0000
;
