#VERSION:0.81;
#TITLE:KIMONO♥PRINCESS;
#SUBTITLE:;
#ARTIST:jun;
#TITLETRANSLIT:KIMONO PRINCESS;
#SUBTITLETRANSLIT:;
#ARTISTTRANSLIT:;
#GENRE:;
#ORIGIN:;
#CREDIT:;
#BANNER:[ONLY ONE FILE] - KIMONO PRINCESS.png;
#BACKGROUND:[ONLY ONE FILE] - KIMONO PRINCESS-bg.png;
#PREVIEWVID:;
#JACKET:[ONLY ONE FILE] - KIMONO PRINCESS-jacket.png;
#CDIMAGE:;
#DISCIMAGE:;
#LYRICSPATH:;
#CDTITLE:;
#MUSIC:[ONLY ONE FILE] - KIMONO PRINCESS.mp3;
#OFFSET:-1.330;
#SAMPLESTART:30.820;
#SAMPLELENGTH:15.000;
#SELECTABLE:YES;
#DISPLAYBPM:95.000:190.000;
#BPMS:0.000=190.000,
176.000=95.000,
198.500=190.000;
#STOPS:183.000=0.158,
183.250=0.158,
190.500=0.316,
198.500=0.316;
#DELAYS:;
#WARPS:;
#TIMESIGNATURES:0.000=4=4;
#TICKCOUNTS:0.000=4;
#COMBOS:0.000=1;
#SPEEDS:0.000=1.000=0.000=0;
#SCROLLS:0.000=1.000;
#FAKES:;
#LABELS:0.000=Song Start;
#BGCHANGES:;
#KEYSOUNDS:;
#ATTACKS:
;

//---------------dance-single - ----------------
#NOTEDATA:;
#CHARTNAME:;
#STEPSTYPE:dance-single;
#DESCRIPTION:;
#CHARTSTYLE:;
#DIFFICULTY:Hard;
#METER:9;
#RADARVALUES:0.656,0.820,0.258,0.124,0.043,441.000,27.000,13.000,0.000,0.000,0.000,0.000,0.000,0.656,0.820,0.258,0.124,0.043,441.000,27.000,13.000,0.000,0.000,0.000,0.000,0.000;
#CREDIT:;
#DISPLAYBPM:95.000:190.000;
#NOTES:
// measure 0
0000
0000
0000
0000
,  // measure 1
0000
0000
0000
0000
,  // measure 2
1000
0100
0001
0100
0010
0001
0100
1000
,  // measure 3
0000
0100
0001
0100
0001
0000
0101
0000
,  // measure 4
0001
0100
1000
0100
0010
1000
0100
0001
,  // measure 5
0000
0100
1000
0100
1000
0000
1100
0000
,  // measure 6
1000
0100
0001
0000
1000
0010
0001
0000
,  // measure 7
1000
0100
0010
0001
0010
0100
1000
0000
,  // measure 8
0000
1000
0010
0100
0001
0010
0100
1000
,  // measure 9
0000
0001
0010
0001
0100
0010
1000
0000
,  // measure 10
0000
0010
1000
0010
0100
0001
1000
0001
,  // measure 11
0000
0001
0000
1000
0001
0000
1001
0000
,  // measure 12
0000
1000
0100
0001
0100
1000
0010
0001
,  // measure 13
0000
0001
0010
1000
0100
0001
0100
0000
,  // measure 14
0000
1000
0010
0100
0001
0010
0100
1000
,  // measure 15
0000
1000
0000
0001
1000
0000
1001
0000
,  // measure 16
1000
0100
0001
0100
0000
1000
0010
0001
,  // measure 17
0010
0100
0001
0010
0000
0010
0001
0100
,  // measure 18
1000
0000
0001
0010
1000
0000
1000
0100
,  // measure 19
0001
0100
1000
0010
0100
0001
0010
0000
,  // measure 20
0000
0001
0010
0100
1000
0100
0010
0001
,  // measure 21
0000
1000
0100
0010
0001
0010
0100
1000
,  // measure 22
0001
0000
1000
0001
0000
0001
0010
0100
,  // measure 23
1000
0000
0000
1000
0000
1000
0100
0001
,  // measure 24
0000
0001
0100
0000
1000
0010
0001
0010
,  // measure 25
0000
1000
0100
0001
0100
0000
1000
0100
,  // measure 26
0001
0000
0001
0100
0000
1000
0010
0100
,  // measure 27
0001
0000
0100
0001
0000
0001
0010
0100
,  // measure 28
1000
0000
1001
0000
1000
0010
0100
0001
,  // measure 29
0000
0001
0100
0010
1000
0000
0001
0010
,  // measure 30
0100
0000
0010
0100
0000
1000
0010
0001
,  // measure 31
0010
0100
0001
0010
0100
1000
0001
1000
,  // measure 32
0000
0001
1000
0000
0001
0100
0010
1000
,  // measure 33
0000
0001
0010
0100
1000
0000
0001
0100
,  // measure 34
0001
0000
0100
0001
0000
1000
0100
1000
,  // measure 35
0000
0100
1000
0100
0001
0000
0100
0000
,  // measure 36
0000
1000
0010
0100
0001
0010
0100
1000
,  // measure 37
0000
0001
0010
0100
1000
0010
0001
0010
,  // measure 38
0000
1000
0100
0001
0100
0010
0001
0100
,  // measure 39
0000
0100
0010
1000
0000
1000
0100
0001
,  // measure 40
0100
0000
1000
0001
0000
0001
0010
0100
,  // measure 41
2000
0000
0010
3001
,  // measure 42
1001
0000
1010
0000
,  // measure 43
1100
1001
0101
0011
,  // measure 44
2001
0100
3010
0000
1002
0100
0013
0000
,  // measure 45
2001
0000
0010
0000
0100
0000
0001
0000
0010
0000
3100
0000
0001
0001
0102
0000
,  // measure 46
1000
0013
0000
2100
0001
3010
0000
0012
,  // measure 47
1003
2010
3001
1002
0100
0013
2001
0000
,  // measure 48
0000
0001
0000
0001
,  // measure 49
0001
0000
0001
0001
3001
0000
0001
1000
,  // measure 50
0000
0001
1000
0001
1000
0000
0001
0100
,  // measure 51
1000
0100
0010
1000
0100
0010
0001
1000
,  // measure 52
0000
1000
0100
0001
0000
1000
0010
0001
,  // measure 53
0010
0100
1000
0010
1000
0000
0010
1000
,  // measure 54
0000
0010
0000
1000
0010
0000
1000
0100
,  // measure 55
0001
0100
0000
1000
0010
0001
0000
0010
,  // measure 56
1000
0000
0001
0100
1000
0000
0001
0010
,  // measure 57
1000
0100
0000
1001
0000
0001
0010
0100
,  // measure 58
1000
0001
0010
0100
1000
0100
0010
0001
,  // measure 59
1000
0100
0010
0001
0100
1000
0100
0001
,  // measure 60
0010
1000
0010
0001
0100
0010
1000
0100
,  // measure 61
0001
0000
1000
0010
0001
0010
0000
1000
,  // measure 62
0001
0000
0001
0100
1000
0200
0000
0000
,  // measure 63
0000
0000
0301
0000
0000
0000
0001
0000
0000
0001
0100
0000
0000
0000
0000
0000
,  // measure 64
0000
0100
0010
0000
0000
0000
0000
0000
0000
0010
1000
0000
0000
1000
0010
0000
,  // measure 65
0000
0010
0100
0000
0000
0100
0001
0000
0000
0000
0001
0000
0100
0000
1000
0000
,  // measure 66
0100
0010
1000
0100
0001
0000
0100
1000
,  // measure 67
0100
1000
0000
1100
0000
1000
0100
0001
,  // measure 68
0100
0010
0001
0100
1000
0000
0100
0001
,  // measure 69
0100
0001
0000
0101
0000
0001
0010
1000
,  // measure 70
0010
0100
1000
0010
0001
0000
0010
1000
,  // measure 71
0010
0000
1000
0000
0000
0000
1010
0000
0000
0000
1000
0000
0001
1000
0001
0000
,  // measure 72
0000
0000
0001
0000
1000
0001
1000
0000
0000
0000
1001
0000
0001
0000
0101
0000
,  // measure 73
0100
0220
0000
0000
0000
0000
0000
0000
,  // measure 74
0000
0000
0000
0330
;

//---------------dance-single - ----------------
#NOTEDATA:;
#CHARTNAME:;
#STEPSTYPE:dance-single;
#DESCRIPTION:;
#CHARTSTYLE:;
#DIFFICULTY:Medium;
#METER:6;
#RADARVALUES:0.461,0.571,0.258,0.029,0.005,308.000,27.000,3.000,0.000,0.000,0.000,0.000,0.000,0.461,0.571,0.258,0.029,0.005,308.000,27.000,3.000,0.000,0.000,0.000,0.000,0.000;
#CREDIT:;
#DISPLAYBPM:95.000:190.000;
#NOTES:
0000
0000
0000
0000
,
0000
0000
0000
0000
,
0010
0000
0100
0000
,
0010
0100
0010
0000
,
1000
0000
0001
0000
,
1000
0001
1000
0000
,
1010
0000
0101
0000
,
0011
1100
1001
0000
,
0010
0000
1000
0000
0010
1000
0010
0000
,
0100
0000
0001
0000
0100
0001
0100
0000
,
0010
1000
0100
0010
,
0001
0010
0100
1000
,
0010
0000
0100
0000
0001
0100
0001
0000
,
0010
0000
0100
0000
1000
0100
1000
0000
,
0010
0100
0001
0100
,
0010
1000
0100
0010
,
0001
0010
0001
0000
0000
0000
0100
0000
,
1000
0010
1000
0000
0000
0000
0100
0000
,
0001
0010
0100
0000
1000
0001
0100
0000
,
0001
0010
0100
1000
,
0000
0001
0001
0001
,
0000
1000
1000
1000
,
0010
0000
0100
0000
,
0110
0000
0000
0110
0000
0000
0110
0000
,
0000
0001
0010
0100
,
1000
0100
0010
0001
,
0010
0010
0001
0001
,
0100
0100
0010
0010
,
1000
0100
0010
0001
,
0010
0100
1000
0010
,
0100
0100
0010
0010
,
1000
1000
0001
0001
,
1000
0000
0010
0000
0100
0001
0100
0000
,
0001
0000
0010
0000
0100
1000
0100
0000
,
1000
0010
0100
0001
,
0100
0010
1000
0100
,
0010
0001
0010
0010
,
0100
1000
0010
0010
,
0100
0001
0010
0010
,
0100
1000
0010
1000
,
0100
0000
0010
0000
,
0001
0000
1010
0101
,
1001
0000
1100
0000
,
1001
0110
1001
0011
,
0010
1000
0001
0000
0001
0010
0100
0000
,
1000
0000
0100
0000
0010
0000
0000
0000
0001
0000
1000
0000
0001
0001
0001
0000
,
0010
0100
0000
1000
0010
0100
0000
0001
,
0010
0100
1000
0010
0100
0110
2001
0000
,
0000
0001
0000
0001
,
0001
0000
0001
0001
3001
0000
0000
0001
,
0000
0010
0000
0100
0000
1000
0000
0010
,
0000
0100
0000
0001
0000
0100
0001
0100
,
0000
0001
0010
0001
0000
0010
0100
0010
,
0000
0100
1000
0100
0000
1000
0000
0010
,
0000
0100
0001
0100
0000
0001
0000
0010
,
0000
0100
1000
0100
0000
1000
0000
0010
,
0000
1000
0000
0100
0000
0010
0000
0001
,
0000
0010
0000
0100
0000
1000
0100
1000
,
0100
1000
0100
1000
0000
0001
0010
0001
,
0010
0001
0010
0001
0000
1000
0100
1000
,
0100
1000
0100
1000
0000
0001
0010
0001
,
0010
0001
0010
0001
0000
1000
0000
0010
,
0000
0100
0001
0100
0001
0010
0000
0100
,
0000
1000
0000
0010
0000
1010
0000
0100
,
0000
0101
0000
0001
0000
0110
0000
1100
,
0000
1001
0000
1010
0000
0001
0000
0010
,
0000
0100
0000
1000
0000
0010
0000
0100
,
0000
0001
0100
0001
0000
0010
0000
0100
,
0000
1000
0000
0010
0000
0100
0000
0010
,
0000
1000
0010
1000
0000
0100
0000
0010
,
0000
0001
0000
0010
0000
0100
0000
1000
,
0000
0010
1000
0010
0000
0100
0000
0101
,
0000
0001
0000
1001
0000
0001
1000
0001
,
1000
2002
0000
0000
0000
0000
0000
0000
,
0000
0000
0000
3003
;

//---------------dance-single - ----------------
#NOTEDATA:;
#CHARTNAME:;
#STEPSTYPE:dance-single;
#DESCRIPTION:;
#CHARTSTYLE:;
#DIFFICULTY:Easy;
#METER:4;
#RADARVALUES:0.371,0.535,0.286,0.048,0.005,237.000,30.000,5.000,0.000,0.000,0.000,0.000,0.000,0.371,0.535,0.286,0.048,0.005,237.000,30.000,5.000,0.000,0.000,0.000,0.000,0.000;
#CREDIT:;
#DISPLAYBPM:95.000:190.000;
#NOTES:
0000
0000
0000
0000
,
0000
0000
0000
0000
,
0000
0000
0000
0000
,
0000
0000
0000
0000
,
0001
0000
0001
0000
,
1000
0000
1000
0000
,
1010
0000
0101
0000
,
0011
1100
1001
1010
,
0000
0001
0010
0100
,
0000
1000
0010
0100
,
0000
0001
0100
1000
,
0100
0001
0010
1000
,
0000
1000
0010
0001
,
0000
0001
0010
1000
,
0000
1000
0010
0001
,
0010
1000
0010
0001
,
0100
0010
1000
0001
,
0010
0100
1000
0100
,
0010
0001
0000
0001
,
0000
0001
0000
0001
,
0000
0001
0010
0100
,
0000
1000
0010
0100
,
0001
0000
0001
0000
,
1001
0000
1010
0000
,
0000
0001
0010
0100
,
1000
0010
0100
0001
,
0100
0000
0001
0000
,
0100
0000
0001
0000
,
0001
0010
0100
1000
,
0010
0100
0010
1000
,
0010
0000
1000
0000
,
0010
0000
1000
0000
,
0001
0010
0100
0010
,
0001
0100
0010
1000
,
0100
0000
0100
0000
,
0100
0000
0100
0000
,
2010
0001
0100
3010
,
0102
1000
0010
0103
,
2010
0001
0100
3010
,
0001
0000
0001
0000
,
0010
0100
1000
0010
,
0100
0000
0100
0001
,
0011
0000
1100
0000
,
0110
1001
1010
0101
,
1000
0001
0100
0000
0001
0010
0100
0000
,
1000
0000
0010
0000
0100
0000
0001
0000
0010
0000
0100
0000
0001
0001
0001
0000
,
0010
0100
0000
1000
0010
0100
0000
0001
,
0010
1000
0010
0001
0100
1000
0001
0000
,
0001
1000
1000
0010
,
0100
0000
0001
1000
0001
0010
0000
1000
,
0000
0001
0000
0010
0000
0100
0000
1000
,
0000
0001
0000
0100
0000
0010
0000
0000
,
0000
0010
0000
0000
0000
0100
0000
0000
,
0000
0100
0000
0000
0000
0001
0000
0010
,
0000
0100
0000
1000
0000
0100
0000
0010
,
0000
0001
0000
0010
0000
0100
0000
0000
,
0000
0010
0000
0000
0000
0001
0000
0000
,
0000
0100
0000
0000
0000
0010
0000
1000
,
0000
0100
0000
0010
0000
0001
0000
0010
,
0000
0100
0000
1000
0000
0010
0000
0100
,
0000
0001
0000
0100
0000
0010
0000
1000
,
0000
0100
0000
0010
0000
0001
0000
0000
,
0000
0010
0000
0000
0000
0100
0000
0000
,
0000
1000
0000
0010
0000
1010
0000
0000
,
0000
0101
0000
0000
0000
0011
0000
1100
,
0000
1001
0000
0110
0000
0001
0000
0010
,
0000
1000
0000
0010
0000
0001
0000
0100
,
0000
1000
0000
0100
0000
0001
0000
0010
,
0000
0100
0000
1000
0000
0100
0000
0010
,
0000
0011
0000
0011
0000
0001
0000
0100
,
0000
1000
0000
0100
0000
0001
0000
0010
,
0000
1000
0000
0010
0000
1001
0000
0000
,
0000
1010
0000
0000
0000
0101
0000
0011
,
0000
2200
0000
0000
0000
0000
0000
0000
,
0000
0000
0000
3300
;
