#TITLE:Goodnight;
#SUBTITLE:;
#ARTIST:Kitsune²;
#TITLETRANSLIT:;
#SUBTITLETRANSLIT:;
#ARTISTTRANSLIT:;
#CREDIT:;
#BANNER:bn.png;
#BACKGROUND:bg.png;
#LYRICSPATH:;
#CDTITLE:;
#MUSIC:Kitsune^2 Goodnight.mp3;
#OFFSET:-5.266;
#SAMPLESTART:25.460;
#SAMPLELENGTH:12.000;
#SELECTABLE:YES;
#BPMS:0.000=190.100,223.000=95.050,251.000=190.100,299.000=95.050;
#STOPS:28.000=0.947
,193.000=0.947
,222.000=0.947
;
#BGCHANGES:;

//---------------dance-single - ----------------
#NOTES:
     dance-single:
     :
     Hard:
     8:
     0.491,0.714,0.277,0.348,0.170:
2000
0000
0000
0000
,
0000
3001
0100
0100
,
0020
0000
0000
0100
0200
0000
0000
0000
,
0000
0000
0000
0000
0330
0000
0010
1000
,
0200
0000
0000
2300
,
0000
0000
0002
0000
,
0000
0000
0000
0000
,
3003
0000
0101
0001
0010
0000
0010
0001
,
0000
0001
0100
0000
0100
0010
0000
0010
,
1000
0001
0000
1000
0100
0000
0010
0100
,
0000
1000
0001
0000
0001
0100
0000
0001
,
0100
0001
0010
0100
1000
0000
0001
0100
,
0000
1000
0100
0000
0001
0100
0000
0001
,
0100
0001
1000
0010
0100
0000
0001
0100
,
0000
0010
2000
0000
0000
0000
0000
0000
,
3010
0000
0101
0000
1001
0000
0001
0100
,
1000
0200
0000
0000
0310
0000
1000
0000
,
0001
0000
0010
0000
0010
0200
0000
0000
,
1000
0000
0000
0000
1000
0000
0000
0300
,
1000
0010
0200
0000
0000
0310
0020
0000
,
0100
0000
0100
0030
,
0100
0010
0200
0000
0001
0000
0000
0301
,
1000
0002
0000
0000
1000
0000
0000
0000
,
1000
0003
1001
0000
0101
0000
1000
0001
,
0100
0020
0000
0000
0100
0000
0130
0000
,
0001
0000
0020
0000
0000
0001
0032
0000
,
0010
0000
0010
0013
,
0001
0000
1000
0001
0100
0100
0000
0100
,
0000
0000
0000
0100
0001
1000
0100
0010
,
0000
0000
0011
0000
0000
1100
0000
0000
,
1001
0000
0000
0000
0001
0100
0001
0100
0001
0000
0100
0000
0001
0000
2000
0000
,
0000
0000
3001
2000
0000
0000
3001
2000
,
0000
0001
0000
0000
0000
3001
0000
1000
,
0100
0010
0100
0000
0100
0010
0000
0002
,
0000
0020
0000
0000
0000
0000
0000
0000
,
0033
0000
0001
0002
0000
0000
0100
0203
,
0000
0010
0000
0000
0000
0310
0000
0010
,
1000
0001
0020
0000
0130
2000
0000
0002
,
3000
0020
0000
0000
0000
0000
0033
0010
,
0200
2000
0000
0000
0000
0000
0000
0000
,
3300
1001
0110
1001
,
0110
1000
0101
1000
,
0101
1000
0101
1000
,
0101
0001
1100
0001
,
1100
0001
1100
0001
,
1100
0010
1001
0100
,
1001
0010
1001
0100
,
1001
1000
0110
0001
,
0110
0000
1000
0000
0001
0100
0010
0000
,
0100
0001
0000
0010
0100
0000
0010
0001
,
0000
0010
0100
1000
0000
1000
0001
0000
,
0100
0010
0000
0100
0001
0000
0010
0100
,
0000
1000
0010
0100
0000
0010
1000
0000
,
0001
0010
0000
0100
1000
0000
1000
0001
,
0000
0100
0010
1000
0000
0010
0100
0000
,
0001
0010
0000
0100
1000
0000
0000
0000
,
0001
1000
0100
1000
0000
0000
0100
0000
1000
0000
0010
0000
0100
0000
0001
0200
,
0000
0000
0000
0000
0000
0000
0000
0000
0300
0000
0010
1000
0010
0000
0000
0100
,
0002
0000
0000
0000
0000
0000
0000
0000
0003
0000
0000
1000
0002
0000
0000
0000
,
0003
1000
0100
0002
0000
0000
0000
0000
0000
0000
0003
0000
0200
0000
0000
0000
,
0300
0010
0001
2000
0000
0000
3000
0000
0001
0000
1000
0000
0010
0000
0000
0100
,
0020
0000
0000
0000
0000
0000
0030
0000
0100
0000
0010
0000
1000
0100
0010
0001
,
0000
0010
0000
0000
0000
0001
0010
0100
1000
0001
0000
0000
1001
0000
0000
0000
,
0000
0000
0110
0000
0000
0000
0000
0000
1001
0000
0000
0000
1000
0100
1000
0100
,
1000
0100
1000
0100
0000
0000
1000
1001
,
0000
0000
0001
0101
0000
0002
0000
0000
,
0000
0103
0000
0100
0010
1000
0100
0000
,
0100
1000
0000
0002
0000
0200
0000
0000
,
0000
0000
0000
0000
0303
0000
0001
0101
,
0000
0000
0100
0110
0000
0110
0000
0000
,
0000
1001
0000
0001
0100
1000
0100
0000
,
0010
1000
0000
0002
0000
0020
0000
0000
,
0000
0000
0033
0001
0200
0020
0000
0000
,
0000
0000
0000
0000
0000
0330
0100
0000
,
0100
0000
0000
0000
0100
0000
0000
0000
0100
0000
0000
0000
0100
0001
0100
0000
,
0001
0100
0000
0010
1000
0000
0001
0100
0000
0010
1000
0010
0000
1000
0100
0000
,
0010
0001
0000
1000
0100
0000
0010
0001
0000
1000
0100
0010
0000
0010
0100
0000
,
0001
1000
0000
0010
0100
0000
0001
1000
0000
0001
0100
0010
0000
0100
0010
0000
,
1000
0000
0000
0001
0000
0000
0100
0000
0001
0000
0100
0000
0002
0000
0000
0000
0000
0000
0000
0000
0000
0000
0000
0000
0003
0000
0000
0000
0000
0000
0000
0000
0000
0000
0000
0000
0000
0000
0000
0000
0000
0000
0000
0000
0000
0000
0000
0000
;

//---------------dance-single - ----------------
#NOTES:
     dance-single:
     :
     Medium:
     5:
     0.369,0.434,0.214,0.166,0.024:
1000
0000
0000
1000
0000
0000
1000
0000
,
0000
0001
0100
0010
,
0100
0000
0000
0100
0000
0000
0100
0000
,
0000
0000
0000
0000
0000
0000
0010
0100
,
0010
0000
0000
1000
0000
0000
0001
0000
,
0000
0000
1000
0000
,
0001
0000
0000
1000
0000
0000
0100
0000
,
0000
0010
0001
0010
,
0100
0010
0001
0010
,
0100
1000
0100
0010
,
0100
1000
0100
0010
,
0100
1000
0010
0100
,
0010
1000
0010
0100
,
0010
0100
0001
0010
,
0100
0110
0000
0000
,
0000
0000
1001
0000
0001
0000
1000
0001
,
1000
0001
0000
0000
1000
0000
0001
0000
,
0100
0000
0001
0000
0100
0020
0000
0000
,
0000
0000
0000
0030
,
0100
0010
2000
0000
0000
0001
0002
0000
,
0000
0000
0000
3003
,
0000
0001
0200
0000
0000
0000
0000
0310
,
1000
0020
0000
0000
0000
0000
0000
0000
,
0030
0000
0110
0000
0000
0000
0000
0100
,
0010
0200
0000
0000
0000
0000
0301
0000
,
1000
0000
0200
0000
0000
0010
0020
0000
,
0000
0000
0330
0010
,
0001
0000
0001
0010
0100
1000
0000
0100
,
0000
0000
0000
1000
0100
0010
0100
1000
,
0000
0000
1100
0000
0000
0011
0000
0000
,
2002
0000
0000
3003
,
0000
0101
0000
1010
,
0000
0110
0000
0000
0000
0001
0000
1000
,
0001
1000
0001
0000
0001
0100
0000
0100
,
0000
0200
0000
0000
0000
0000
0000
0000
,
0300
0110
0000
1010
,
0000
0101
0000
0000
0000
1001
0000
0001
,
1000
0010
1000
0000
0010
0100
0000
0001
,
0000
0020
0000
0000
0000
0000
0000
0130
,
0010
0002
0000
0000
0000
0000
0000
0000
,
0000
1003
0001
1000
,
0001
1000
0100
0001
,
0100
1000
0100
0001
,
0100
1000
0010
0001
,
0010
1000
0010
0001
,
0010
1010
1010
0010
,
1000
0001
0010
0100
,
1000
0100
1000
0010
,
0100
0001
0101
1010
,
0010
1000
0010
0100
,
0010
1000
0001
0010
,
0100
0010
0001
1000
,
0010
0100
0101
1010
,
0010
0010
0100
0100
,
0001
1000
0100
0010
,
0100
1000
1001
0001
,
0100
0000
0001
0000
0100
0010
1000
0000
,
0100
0000
1000
0100
0001
0000
0001
0100
,
0010
0000
0010
0001
0100
0000
0010
0100
,
0001
1000
0001
0010
0100
1000
0100
0000
,
1000
0000
0100
1000
0010
0000
0100
0000
,
0001
0000
1000
0001
0100
0000
0001
0000
,
1000
0000
0001
1000
0010
0110
1001
0000
,
0000
1001
0000
0000
2002
0000
0000
0000
,
0000
0000
3003
0000
0000
0000
0001
0100
,
0000
0000
0100
0010
0000
0100
0000
0000
,
0000
0010
0000
0010
1000
0010
1000
0000
,
0010
1000
0000
0020
0000
0200
0000
0000
,
0000
0000
0330
1001
,
0000
0000
0101
0000
0000
1010
0000
0000
,
0000
1000
0000
1000
0100
0010
0001
0000
,
0001
0010
0000
0001
0000
0200
0000
0000
,
0000
0000
0000
0301
0100
0020
0000
0000
,
0000
0000
0000
0130
,
0100
0000
0100
0000
0100
0000
0010
1000
,
0000
0010
0000
0000
1000
0000
0000
0001
0000
0000
0010
0000
0000
0000
0010
0000
,
0000
0001
0000
0000
0100
0000
0000
1000
0000
0000
0100
0000
0000
0000
0010
0000
,
0000
0100
0000
0000
0010
0000
0000
1000
0000
0000
0001
0000
0000
0000
1000
0000
,
0001
0200
0002
0303
0000
0000
0000
0000
;

//---------------dance-single - ----------------
#NOTES:
     dance-single:
     :
     Easy:
     3:
     0.225,0.279,0.047,0.230,0.000:
0020
0000
0000
0000
,
0030
0000
0000
0000
,
0200
0000
0000
0000
,
0300
0000
0000
0000
,
0002
0000
0000
0000
,
0003
0000
0000
0000
,
2000
0000
0000
0000
,
3000
0001
1000
0000
,
1000
0000
0001
0000
,
0100
0000
0001
0000
,
1000
0000
0100
0000
,
1000
0000
0010
0000
,
0100
0000
0010
0000
,
1000
0000
0001
0000
,
1000
1000
0000
0000
,
0000
0010
0000
0100
,
0001
0100
0010
0100
,
0001
1000
1000
2000
,
0000
0000
3000
0000
,
0001
2000
0000
0200
,
0000
0000
3300
0000
,
0000
1000
0000
0000
,
0001
0002
0000
0000
,
0003
0202
0000
0303
,
0001
0100
0000
0100
,
0010
0020
0000
0200
,
0000
0000
0330
0010
,
1000
0001
1000
0100
,
1000
0000
0100
0010
,
0001
0000
1000
0000
0000
0001
0000
0000
,
0200
0000
0000
0300
,
0000
0001
0000
0100
,
0000
0010
0000
0000
0000
0100
0000
0000
,
0010
0000
1000
0000
0000
0010
0000
0100
,
0000
0002
0000
0000
0000
0000
0000
0000
,
0003
1000
0000
1000
,
0000
0001
0000
0000
0000
1000
0000
0000
,
0100
0000
1000
0000
0000
0010
0000
0010
,
0000
0020
0000
0000
0000
0000
0000
0000
,
0000
0200
0000
0000
,
0000
0330
0000
0000
,
0000
0010
0000
1000
,
0000
0001
0000
1000
,
0000
0100
0000
1000
,
0000
0010
0000
0100
,
0000
0001
0001
0100
,
0000
0010
0000
0100
,
0000
0001
0000
1000
,
0000
1001
0001
0001
,
1000
1000
0001
1000
,
0001
1000
0010
0010
,
0100
0100
0010
0100
,
0010
0100
0010
1000
,
0010
1000
0010
1000
,
0100
1000
1000
0100
,
0010
0001
1000
0000
,
0002
0000
0000
0200
,
0000
0000
0303
0200
,
0000
0000
0300
0020
,
0000
0000
0030
0100
,
0001
1000
0100
1000
,
0200
0000
1300
0100
,
2000
0000
0000
0000
0001
3000
0001
0000
,
0000
0001
0000
0000
0002
0000
0000
0000
,
0003
0000
0000
0001
,
0000
0000
0100
0000
0000
0010
0000
0000
,
0000
0100
0000
0000
0010
0000
1000
0000
,
0000
0010
0000
1000
0000
0020
0000
0000
,
0000
0000
0030
0110
,
0000
0000
0110
0000
0000
0110
0000
0000
,
0000
0010
0000
0000
1000
0000
0001
0000
,
0000
1000
0000
1000
0000
2000
0000
0000
,
0000
0000
0000
0002
,
0000
0000
0000
3003
,
0000
0000
0000
0220
,
0000
0000
0000
0000
,
0000
0000
0000
0000
0000
0330
0010
0000
,
0100
0001
1000
0001
,
1000
0000
0000
0000
0000
0000
0000
0000
0000
0000
0000
0000
0000
0000
0000
0000
0000
0000
0000
0000
0000
0000
0000
0000
0100
0000
0000
0000
0000
0000
0000
0000
0000
0000
0000
0000
0000
0000
0000
0000
0000
0000
0000
0000
0000
0000
0000
0000
0020
0030
0000
0000
0000
0000
0000
0000
0000
0000
0000
0000
0000
0000
0000
0000
0000
0000
0000
0000
0000
0000
0000
0000
0000
0000
0000
0000
0000
0000
0000
0000
0000
0000
0000
0000
0000
0000
0000
0000
0000
0000
0000
0000
0000
0000
0000
0000
0000
0000
0000
0000
0000
0000
0000
0000
0000
0000
0000
0000
0000
0000
0000
0000
0000
0000
0000
0000
0000
0000
0000
0000
0000
0000
0000
0000
0000
0000
0000
0000
0000
0000
0000
0000
0000
0000
0000
0000
0000
0000
0000
0000
0000
0000
0000
0000
0000
0000
0000
0000
0000
0000
0000
0000
0000
0000
0000
0000
0000
0000
0000
0000
0000
0000
0000
0000
0000
0000
0000
0000
0000
0000
0000
0000
0000
0000
0000
0000
0000
0000
0000
0000
0000
0000
0000
0000
0000
0000
0000
0000
0000
0000
0000
0000
;

//---------------dance-single - ----------------
#NOTES:
     dance-single:
     :
     Beginner:
     2:
     0.122,0.155,0.016,0.000,0.004: // measure 1
0010
0000
0000
0000
,  // measure 2
0000
0000
0000
0000
,  // measure 3
1000
0000
0000
0000
,  // measure 4
0000
0000
0000
0000
,  // measure 5
0001
0000
0000
0000
,  // measure 6
0000
0000
0010
0000
,  // measure 7
0000
0000
0000
0000
,  // measure 8
0000
0100
0000
0000
,  // measure 9
0000
0000
0000
0000
,  // measure 10
0000
0010
0000
0000
,  // measure 11
0000
0000
0000
0000
,  // measure 12
0000
1000
0000
0000
,  // measure 13
0000
0000
0000
0000
,  // measure 14
0000
0001
0000
0000
,  // measure 15
0000
1000
0000
0000
,  // measure 16
0000
0001
0000
0100
,  // measure 17
0000
0000
0010
0010
,  // measure 18
0010
0100
0000
0000
,  // measure 19
0000
0000
0000
0000
,  // measure 20
0000
0010
0000
1000
,  // measure 21
0000
0000
0000
0000
,  // measure 22
0000
0001
0000
0000
,  // measure 23
0000
0100
0000
0000
,  // measure 24
0000
1001
0000
0000
,  // measure 25
0000
0001
0000
1000
,  // measure 26
1000
1000
0000
0010
,  // measure 27
0000
0000
0000
0100
,  // measure 28
0100
0100
0000
0000
,  // measure 29
0000
0010
0000
0100
,  // measure 30
0000
1001
0000
0000
,  // measure 31
0000
0000
0000
0000
,  // measure 32
0000
1000
0000
1000
,  // measure 33
0000
1000
0000
0000
,  // measure 34
0000
0010
0000
0100
,  // measure 35
0000
0010
0000
0000
,  // measure 36
0000
0001
0000
0001
,  // measure 37
0000
0001
0000
0000
,  // measure 38
0000
0100
0000
0010
,  // measure 39
0000
0100
0000
0000
,  // measure 40
0000
0001
0000
0000
,  // measure 41
0000
1000
0000
0000
,  // measure 42
0000
0001
0000
0000
,  // measure 43
0000
0000
0000
0000
,  // measure 44
0000
0100
0000
0000
,  // measure 45
0000
0000
0000
0000
,  // measure 46
0000
0001
0001
0000
,  // measure 47
0000
0000
0000
0000
,  // measure 48
0000
1000
0000
0000
,  // measure 49
0000
0000
0010
0010
,  // measure 50
0000
0000
0100
0000
,  // measure 51
0100
0000
0010
0000
,  // measure 52
0100
0000
0010
0000
,  // measure 53
0100
0000
0001
0001
,  // measure 54
0000
0000
1000
0000
,  // measure 55
0001
0000
1000
0000
,  // measure 56
0001
0000
0100
0010
,  // measure 57
0000
0000
0000
0100
,  // measure 58
0000
0000
0000
0001
,  // measure 59
0001
0000
0000
1000
,  // measure 60
0000
0100
0000
1000
,  // measure 61
0000
0001
0000
0100
,  // measure 62
0100
0000
0001
1000
,  // measure 63
0000
0001
0100
0010
,  // measure 64
0000
0000
0010
0000
,  // measure 65
0000
0000
0000
0100
,  // measure 66
0000
0100
0000
0100
,  // measure 67
0000
0000
0000
0001
,  // measure 68
0001
0001
0000
1000
,  // measure 69
1000
1000
0000
0010
,  // measure 70
0000
0010
0000
0010
,  // measure 71
0000
0000
0000
0100
,  // measure 72
0000
0010
0000
1000
,  // measure 73
0000
0000
0001
0001
,  // measure 74
0000
0000
0000
1000
,  // measure 75
0000
0001
0000
0100
,  // measure 76
0000
0000
0000
0001
,  // measure 77
0000
0000
0000
1000
,  // measure 78
0000
0000
0000
0100
,  // measure 79
0010
0000
0000
0000
0000
0000
0000
0000
0000
0000
0000
0000
0000
0000
0000
0000
0000
0000
0000
0000
0000
0000
0000
0000
0000
0000
0000
0000
0000
0000
0000
0000
0000
0000
0000
0000
0000
0000
0000
0000
0000
0000
0000
0000
0000
0000
0000
0000
0000
0001
0000
0000
0000
0000
0000
0000
0000
0000
0000
0000
0000
0000
0000
0000
0000
0000
0000
0000
0000
0000
0000
0000
0000
0000
0000
0000
0000
0000
0000
0000
0000
0000
0000
0000
0000
0000
0000
0000
0000
0000
0000
0000
0000
0000
0000
0000
0000
0000
0000
0000
0000
0000
0000
0000
0000
0000
0000
0000
0000
0000
0000
0000
0000
0000
0000
0000
0000
0000
0000
0000
0000
0000
0000
0000
0000
0000
0000
0000
0000
0000
0000
0000
0000
0000
0000
0000
0000
0000
0000
0000
0000
0000
0000
0000
0000
0000
0000
0000
0000
0000
0000
0000
0000
0000
0000
0000
0000
0000
0000
0000
0000
0000
0000
0000
0000
0000
0000
0000
0000
0000
0000
0000
0000
0000
0000
0000
0000
0000
0000
0000
0000
0000
0000
0000
0000
0000
0000
0000
0000
0000
0000
0000
;
