#TITLE:FLUTTER (Baby Dragon Rmx);
#SUBTITLE:;
#ARTIST:Foozogz befriends Norris3942 ft. DJ YOSHITAKA;
#TITLETRANSLIT:;
#SUBTITLETRANSLIT:;
#ARTISTTRANSLIT:;
#GENRE:;
#CREDIT:;
#BANNER:;
#BACKGROUND:;
#LYRICSPATH:;
#CDTITLE:;
#MUSIC:FLUTTER (Baby Dragon Rmx).ogg;
#OFFSET:-5.540;
#SAMPLESTART:48.540;
#SAMPLELENGTH:12.000;
#SELECTABLE:YES;
#BPMS:0.000=173.000
;
#STOPS:
;
#BGCHANGES:;
#KEYSOUNDS:;
#ATTACKS:;

//---------------dance-single - Dreamland-san----------------
#NOTES:
     dance-single:
     :
     Hard:
     8:
     0.502,0.531,0.235,0.073,0.126,396.000,29.000,9.000,0.000,0.000,0.000,0.502,0.531,0.235,0.073,0.126,396.000,29.000,9.000,0.000,0.000,0.000:
1001
0100
0000
0100
,
0000
0100
0000
0100
,
0000
0100
0000
0100
,
0001
0100
1000
0100
,
0001
0010
0000
0010
,
0000
0010
0000
0010
,
0000
0010
0000
0010
,
0001
0100
0020
0000
,
1030
0000
0000
0000
0001
0000
0000
0000
0010
0000
0000
0010
0000
0000
0010
0000
,
0000
0000
0000
0000
0001
0000
0000
0000
0100
0000
0000
0100
0000
0000
0100
0000
,
0000
0000
0000
0000
0010
0000
0000
0000
1000
0000
0000
0001
0000
0000
1000
0000
,
0100
0010
1000
0000
0010
0100
1000
0000
,
0010
0000
0000
0000
0100
0000
0000
0000
1000
0000
0000
1000
0000
0000
1000
0000
,
0000
0000
0100
0000
0001
0000
0000
0000
0100
0000
0000
0100
0000
0000
0100
0000
,
0000
0000
0010
0000
1000
0000
0000
0000
0100
0000
0000
0100
0000
0000
0100
0000
,
1000
0100
0001
0000
0100
0010
0001
0000
,
0100
0000
0010
0000
0000
0010
0100
0000
,
0010
0000
1000
0000
0000
0010
1000
0000
,
0100
0000
0010
0000
0000
0100
0010
0000
,
0001
0100
0010
0000
0100
0001
1000
0000
,
0100
0000
0010
0000
0000
0100
1000
0000
,
0001
0000
0100
0000
0000
0010
0100
0000
,
0001
0000
0010
0000
0100
1000
0001
0000
,
0100
0000
0010
0000
1000
0001
0010
0000
,
0100
0000
1000
0000
0100
0000
0000
0000
0010
0000
0000
0001
0000
0000
0010
0000
,
0000
0000
0100
0000
1000
0000
0000
0000
0010
0000
0000
0100
0000
0000
0010
0000
,
0000
0000
1000
0000
0001
0000
0000
0000
0010
0000
0000
0100
0000
0000
0010
0000
,
0000
0000
0001
0000
0000
0100
0000
0000
0010
0000
0000
1000
0000
0000
0001
0000
,
0010
0100
1000
0000
0100
0010
0001
0000
,
0100
0010
1000
0000
0001
0010
0100
0000
,
2000
3020
0230
0301
,
1000
0000
0000
0001
0000
0000
0100
0000
0000
0010
0000
0000
1000
0000
0001
0000
,
1000
0001
0100
0000
0001
1000
0100
0000
,
1000
0001
0010
0000
0001
1000
0010
0000
,
1000
0100
0010
0000
0001
0100
0010
0000
,
0100
0001
0010
0100
,
1000
0001
0100
0000
0010
1000
0001
0000
,
0010
0100
0010
0000
0001
1000
0010
0000
,
0100
0001
0000
0000
0100
0000
0010
0000
,
1000
0000
0100
0000
0100
0010
0100
1000
,
0001
0100
0010
0000
1000
0001
0010
0000
,
0100
1000
0001
0000
0100
0010
0100
0000
,
0001
1000
0100
0000
0010
0100
1000
0000
,
0001
0100
0010
1000
,
0001
0010
0001
0010
0001
0000
0010
0000
,
0100
1000
0100
1000
0100
0000
1000
0000
,
0001
0100
0010
0000
1000
0100
0010
0000
,
0100
0000
1000
0000
0001
0100
0010
0000
,
0100
0000
0000
0101
0000
0000
0001
0000
0000
1001
0000
0000
1000
0000
1100
0000
,
1000
0010
0100
0000
0001
0100
0010
0000
,
0010
0000
0000
1100
0000
0000
0010
0000
0000
0101
0000
0000
0010
0000
1001
0000
,
1000
0001
0100
0010
0100
0001
1000
0000
,
1000
0000
0000
1100
0000
0000
0001
0000
0000
0101
0000
0000
0100
0000
0110
0000
,
0010
1000
0100
0000
1000
0001
0100
0000
,
0010
0000
0000
0101
0000
0000
0100
0000
0000
1010
0000
0000
0010
0000
0000
0000
,
0200
0000
0000
0310
,
2002
0000
0000
0000
,
0000
0000
0000
0000
,
3003
0000
0000
0000
,
0000
0000
0000
0000
,
0000
0000
0000
0000
,
0000
0000
0000
0000
,
1001
0001
0001
0001
,
1001
1000
1000
1000
,
1001
0001
0110
0100
,
0010
0000
0000
1000
0000
0000
0100
0000
0000
0001
0000
0000
0100
0000
1000
0000
,
0010
0100
0001
0010
0100
0010
0001
0100
,
0010
1000
0001
0010
0100
1000
0100
0000
,
0010
0001
0100
0010
1000
0001
0010
0100
,
1000
0100
0010
0001
0100
0010
1000
0000
,
0001
0010
0100
0001
0100
1000
0010
0100
,
1000
0100
0001
1000
0100
0001
0100
0010
,
0001
1000
0010
0100
0001
0010
0100
1000
,
0002
0000
0000
0000
1003
1000
0001
0001
,
0100
0000
0000
1001
0000
0000
0010
0000
0000
1001
0000
0000
0100
0000
0110
0000
,
0010
1000
0100
0000
0010
0001
0100
0000
,
0010
0000
0000
0101
0000
0000
0010
0000
0000
1100
0000
0000
0001
0000
0110
0000
,
0010
1000
0100
0001
0100
1000
0010
0000
,
0010
0000
0000
1010
0000
0000
0100
0000
0000
0101
0000
0000
0001
0000
1001
0000
,
1000
0100
0001
0000
0001
0100
0010
0000
,
1000
0000
0000
1100
0000
0000
0001
0000
0000
0011
0000
0000
0100
0000
0000
0000
,
0020
0000
0000
0130
,
1001
0000
0000
0000
;

//---------------dance-single - Dreamy----------------
#NOTES:
     dance-single:
     :
     Beginner:
     2:
     0.134,0.266,0.113,0.186,0.000,79.000,14.000,23.000,0.000,0.000,0.000,0.134,0.266,0.113,0.186,0.000,79.000,14.000,23.000,0.000,0.000,0.000:
2002
0000
0000
0000
,
0000
0000
0000
0000
,
0000
0000
3003
0000
,
0020
0000
0030
0000
,
0002
0000
0000
0000
,
0000
0000
0003
0000
,
2000
0000
0000
3000
,
0200
0000
0300
0000
,
0010
0000
0000
0000
,
0001
0000
0000
0000
,
0100
0000
0000
0000
,
1000
0000
0000
0000
,
0100
0000
0000
0000
,
0010
0000
0000
0000
,
1000
0000
0000
0000
,
0001
0000
0000
0000
,
0010
0000
0000
0000
,
0100
0000
0000
0000
,
0001
0000
0000
0000
,
0100
0000
0000
0000
,
0010
0000
0000
0000
,
0001
0000
0000
0000
,
0100
0000
0000
0000
,
1000
0000
0000
0000
,
0100
0000
0000
0000
,
1001
0000
0000
0000
,
0010
0000
0000
0000
,
1001
0000
0000
0000
,
1000
0000
0110
0000
,
0001
0000
0110
0000
,
2002
0000
0000
3003
,
0000
0000
0000
0000
,
0010
0000
0000
0000
,
1000
0000
0001
0000
,
0100
0000
0000
0000
,
0010
0000
0010
0000
,
1000
0000
0000
0000
,
0100
0000
1000
0000
,
0001
0000
0000
0000
,
1000
0000
0001
0000
,
0100
0000
0000
0000
,
0010
0000
1000
0000
,
0100
0000
0000
0000
,
0001
0000
0100
0000
,
1000
0000
0000
0000
,
0010
0000
0100
0000
,
0001
0000
0000
0000
,
2002
0000
0000
3003
,
0000
0000
0000
0000
,
0200
0000
0000
0300
,
0000
0000
0000
0000
,
0002
0000
0000
0003
,
0000
0000
0000
0000
,
2000
0000
0000
3000
,
0000
0000
0000
0000
,
0100
0000
0000
0000
,
2002
0000
0000
0000
,
0000
0000
0000
0000
,
3003
0000
0000
0000
,
0000
0000
0000
0000
,
0000
0000
0000
0000
,
0000
0000
0000
0000
,
0001
0000
0000
0000
,
1000
0000
0000
0000
,
1001
0000
1001
0000
,
2002
0000
3003
0000
,
0000
0000
0100
0000
,
0000
0000
0010
0000
,
0000
0000
0001
0000
,
1000
0000
0010
0000
,
0000
0000
0100
0000
,
0000
0000
0001
0000
,
0100
0000
0000
0000
,
0010
0000
1000
0000
,
0001
0000
0000
0000
,
2002
0000
0000
3003
,
0000
0000
0000
0000
,
2002
0000
0000
3003
,
0000
0000
0000
0000
,
2002
0000
0000
3003
,
0000
0000
0000
0000
,
0100
0000
0000
0000
,
0010
0000
0000
0000
;

//---------------dance-single - Dreamland-san----------------
#NOTES:
     dance-single:
     :
     Medium:
     6:
     0.355,0.432,0.081,0.073,0.016,288.000,10.000,9.000,0.000,0.000,0.000,0.355,0.432,0.081,0.073,0.016,288.000,10.000,9.000,0.000,0.000,0.000:
1000
0000
0010
0000
,
0100
0000
0001
0000
,
0010
0000
0100
0000
,
1000
0000
0001
0100
,
0010
0000
0100
0000
,
0001
0000
1000
0000
,
0100
0000
1000
0000
,
0020
0000
0000
0000
,
0130
0001
0100
0100
,
0010
1000
0010
0010
,
1000
0001
1000
1000
,
0001
0010
0100
1000
,
0010
0100
0010
0010
,
0100
0001
0100
0100
,
0001
1000
0001
0001
,
0010
0100
1000
0001
,
0100
0010
0000
0010
,
0100
0001
0000
0001
,
0010
0100
0000
0100
,
1000
0000
0001
0000
0100
0010
0100
0000
,
0001
0010
0000
0010
,
0001
0100
0000
0100
,
0010
1000
0000
1000
,
0001
0000
0100
0000
0000
0100
0001
0000
,
0010
0100
1000
0001
,
0100
0010
0100
0001
,
0010
0100
1000
0100
,
0010
0001
0100
0010
,
0100
0001
0100
0000
0010
1000
0010
0000
,
1000
0001
1000
0000
0001
0010
0001
0000
,
0200
0320
2030
3001
,
1000
0000
0000
0010
0000
0000
0100
0000
0000
0001
0000
0000
0100
0000
0010
0000
,
1000
0000
0001
0000
0100
0010
0100
0000
,
0001
0000
0010
0000
0100
1000
0001
0000
,
0100
0000
0010
0000
0100
0001
1000
0000
,
0100
0010
1001
0000
,
0010
0000
1000
0000
0100
0010
0100
0000
,
1000
0000
0001
0000
0100
0010
0100
0000
,
0001
0010
0100
1000
,
0001
0001
1000
1000
,
0001
0000
0010
0000
0100
0001
0100
0000
,
0010
0000
0001
0000
0100
1000
0100
0000
,
0001
0000
0010
0000
0100
1000
0001
0000
,
0100
0010
1001
0000
,
0010
1000
0100
1000
,
0010
0100
0010
0000
1000
0001
1000
0000
,
0010
0100
0001
0010
,
2002
0000
0000
3003
,
1000
0000
0000
0001
0000
0000
1000
0000
,
0010
0100
0001
0100
,
0010
0000
0000
1000
0000
0000
0100
0000
,
1000
0010
0100
0001
,
0010
0000
0000
0100
0000
0000
0001
0000
,
0100
1000
0010
0100
,
0001
0000
0000
0010
0000
0000
0100
0000
,
0010
0001
0100
0010
,
2002
0000
0000
0000
,
0000
0000
0000
0000
,
3003
0000
0000
0000
,
0000
0000
0000
0000
,
0000
0000
0000
0000
,
0000
0000
0000
0000
,
1001
0000
0000
0000
,
0110
0000
0000
0000
,
1100
0000
0011
0000
,
1000
0000
0000
0100
0000
0000
0010
0000
0000
0001
0000
0000
0010
0000
0100
0000
,
1000
0000
0100
0000
0010
0001
0100
0000
,
0010
0000
0100
0000
0001
0010
0100
0000
,
0001
0000
0100
0000
1000
0010
0100
0000
,
0001
0000
0100
0000
0010
1000
0001
0000
,
0010
0000
0100
0000
1000
0010
0100
0000
,
1000
0000
0100
0001
0010
0000
0100
0000
,
1000
0000
0001
0100
0010
0000
1000
0000
,
1001
0000
0000
0000
0010
0100
0010
0100
,
0001
0000
0000
0100
0000
0000
0010
0000
,
1000
0100
0010
0100
,
1000
0000
0000
0001
0000
0000
0100
0000
,
0010
1000
0001
0010
,
0100
0000
0000
0001
0000
0000
0100
0000
,
1000
0010
0100
0001
,
0010
0000
0000
0100
0000
0000
1000
0000
,
0020
0000
0000
0130
,
1001
0000
0000
0000
;

//---------------dance-single - Dreamy----------------
#NOTES:
     dance-single:
     :
     Easy:
     4:
     0.264,0.266,0.040,0.081,0.000,213.000,5.000,10.000,0.000,0.000,0.000,0.264,0.266,0.040,0.081,0.000,213.000,5.000,10.000,0.000,0.000,0.000:
0000
1000
0000
1000
,
0000
0001
0000
0001
,
0000
0100
0000
0100
,
0000
0010
0000
0010
,
0000
0100
0000
0100
,
0000
0001
0000
0001
,
0000
1000
0000
1000
,
0000
0000
2000
0000
,
3010
0000
0010
0000
,
0100
0000
0100
0000
,
0001
0000
0001
0000
,
0010
0100
1000
0010
,
0100
0000
0100
0000
,
0001
0000
0001
0000
,
0010
0000
0010
0000
,
0100
0001
0100
1000
,
0010
0000
0100
0000
,
0100
0000
0001
0000
,
0001
0000
0010
0000
,
0100
1000
0010
0100
,
1000
0100
0001
0000
,
0001
0100
1000
0000
,
1000
0100
0001
0000
,
0010
0100
0001
0000
,
0100
0000
0010
0000
,
0001
0100
0010
0000
,
1000
0000
0100
0000
,
0010
0100
1000
0001
,
0100
0010
0100
0010
,
1000
0001
1000
0001
,
2002
0000
0000
3003
,
0100
0000
0000
0010
0000
0000
1001
0000
,
1000
0010
0100
0001
,
0010
0100
1000
0000
,
1000
0010
0100
0001
,
0100
0010
1000
0000
,
0001
0010
0100
1000
,
0001
0100
0100
0010
,
0100
0001
1000
0100
,
0010
0010
0010
0000
,
0010
0001
0100
0010
,
0100
0002
1003
0000
,
0100
0010
0100
1000
,
0001
0100
0010
0000
,
0010
1000
0100
1000
,
0001
0001
0100
0100
,
0010
1000
1000
0001
,
0001
0000
0010
0100
,
1000
0000
0000
0000
,
0001
0100
0010
0100
,
0001
0000
0000
0000
,
0010
0100
0001
0100
,
1000
0000
0000
0000
,
0010
0100
1000
0100
,
0001
0000
0000
0000
,
0020
0000
0000
0130
,
2002
0000
0000
0000
,
0000
0000
0000
0000
,
3003
0000
0000
0000
,
0000
0000
0000
0000
,
0000
0000
0000
0000
,
0000
0000
0000
0000
,
0010
0000
0000
0000
,
1000
0000
0000
0000
,
0001
0000
0100
0000
,
0220
0000
0000
0330
,
0010
1000
0100
0001
,
0100
1000
0010
0100
,
0001
0010
0100
0001
,
0100
1000
0010
0100
,
1000
0100
0010
1000
,
0001
0010
0100
1000
,
0001
0100
0010
0100
,
0001
1000
0100
0010
,
0001
0000
0000
0000
,
0010
0100
1000
0001
,
0100
0000
0000
0000
,
0010
1000
0100
0010
,
0001
0000
0000
0000
,
0100
0010
0100
0001
,
0010
0000
0000
0000
,
0200
0000
0000
0310
,
1001
0000
0000
0000
;

//---------------dance-single - Dreamland-san----------------
#NOTES:
     dance-single:
     :
     Challenge:
     11:
     0.773,0.863,0.510,0.065,0.555,597.000,63.000,8.000,0.000,0.000,0.000,0.773,0.863,0.510,0.065,0.555,597.000,63.000,8.000,0.000,0.000,0.000: // measure 0
0010
1000
0100
0001
0000
0001
0100
1000
,  // measure 1
0000
1000
0010
0001
0000
0001
0010
1000
,  // measure 2
0000
1000
0001
0010
0000
0010
0100
0010
,  // measure 3
0000
0010
0001
0100
0000
0100
0010
1000
,  // measure 4
0001
0010
0100
1000
0000
1000
0100
0010
,  // measure 5
0000
0010
0001
0100
0000
0100
0001
0010
,  // measure 6
0000
0100
0001
0100
0000
0010
0001
0100
,  // measure 7
0000
0010
0000
1000
0000
0001
0100
0010
,  // measure 8
1000
0000
0010
0000
0100
0001
0100
0000
0010
1000
0000
0010
0000
0000
0100
0000
,  // measure 9
0001
0000
0010
0000
0100
1000
0100
0000
0010
0001
0000
0100
0000
0000
0010
0000
,  // measure 10
0100
0000
0001
0000
0010
0100
0001
0000
0100
1000
0000
0100
0000
0000
0010
0000
,  // measure 11
0001
0000
1000
0000
0010
0100
0010
0000
1000
0001
0000
1000
0000
0000
0010
0000
,  // measure 12
0100
0001
0010
0100
1000
0010
0100
0001
,  // measure 13
0100
0000
0010
0000
1000
0100
0001
0000
0100
1000
0000
0010
0000
0000
0100
0000
,  // measure 14
0001
0000
0010
0000
0100
1000
0100
0000
0010
0001
0000
0100
0000
0000
0010
0000
,  // measure 15
0100
0000
0001
0000
0010
0100
1000
0000
0010
0100
0000
0001
0000
0000
0100
0000
,  // measure 16
0010
1000
1100
0000
0000
0001
0101
0000
,  // measure 17
0010
1000
1001
0000
0000
1000
1100
0000
,  // measure 18
1000
0010
1010
0000
0000
0010
0110
0000
,  // measure 19
0100
0001
0010
0100
0010
0001
0100
0010
,  // measure 20
1000
0001
1001
0000
0000
0100
1001
0000
,  // measure 21
1000
0010
1010
0000
0000
0010
1010
0000
,  // measure 22
0100
0010
0011
0000
0000
0100
0011
0000
,  // measure 23
0001
0100
1000
0100
0001
0010
1000
0010
,  // measure 24
0001
0000
0100
0000
0010
1000
0010
0000
0100
0000
0000
0100
0000
0000
0100
0000
,  // measure 25
0001
0000
0010
0000
0100
0010
0001
0000
1000
0000
0000
1000
0000
0000
1000
0000
,  // measure 26
0010
0000
0100
0000
0001
0100
0010
0000
0100
0000
0000
0100
0000
0000
0100
0000
,  // measure 27
0010
0000
1000
0000
0001
0010
0100
0000
0001
0000
0000
0100
0000
0000
0010
0000
,  // measure 28
0001
0100
1000
0000
0100
0001
0010
0000
,  // measure 29
0100
1000
0001
0000
0100
0010
1000
0000
,  // measure 30
0001
0010
0001
0000
0100
0000
0010
1000
0010
0000
0100
0000
1001
0000
0000
0000
,  // measure 31
1100
0000
0000
0011
0000
0000
0101
0000
0000
1010
0000
0000
0110
0000
1001
0000
,  // measure 32
0010
1000
0100
0010
0100
1000
0001
0100
,  // measure 33
0010
1000
0001
0010
0100
0010
0001
0100
,  // measure 34
0010
1000
0001
0100
0010
0100
0001
0010
,  // measure 35
0100
0000
1000
0100
0000
0010
0001
0000
1000
0010
1000
0010
0000
0100
0001
0000
,  // measure 36
0020
0000
0000
0000
0031
0100
0001
0100
0010
0000
1000
0000
0000
0000
0100
0000
,  // measure 37
1000
0000
0010
0100
0000
0000
0001
0100
0010
0000
1000
0000
1002
0000
0000
0000
,  // measure 38
0013
0100
1100
0000
1000
0010
1010
0000
,  // measure 39
0101
0000
0000
0000
1001
0000
0000
0000
1000
0000
0010
0000
0100
0001
0010
0100
,  // measure 40
1000
0010
0100
0001
0100
0010
1000
0100
,  // measure 41
0001
0100
1000
0010
0100
0001
0010
0100
,  // measure 42
0001
0100
0010
0001
0100
0010
1000
0001
,  // measure 43
0100
0000
0010
1000
0000
0001
0100
0000
0001
0010
0001
0010
0000
0100
1000
0000
,  // measure 44
0020
0000
0000
0000
0130
0001
0100
0001
0100
0000
0010
0000
1000
0000
0100
0000
,  // measure 45
1000
0000
0010
0100
0000
0000
0010
1000
0100
0000
0010
0000
0021
0000
0000
0000
,  // measure 46
0031
0100
0101
0000
1000
0100
1100
0000
,  // measure 47
1010
0000
0000
0000
0101
0000
0000
0000
0001
0000
0010
0000
0100
1000
0100
0010
,  // measure 48
0001
0000
0000
0101
0000
0000
1000
0000
0000
1100
0000
0000
0010
0000
1001
0000
,  // measure 49
1000
0000
0010
0000
0100
0001
0100
0000
0010
1000
0000
0001
0000
0010
0100
0000
,  // measure 50
1000
0000
0000
0101
0000
0000
0001
0000
0000
1010
0000
0000
1000
0000
0110
0000
,  // measure 51
0010
0000
1000
0100
0000
0100
1000
0000
0010
0100
0001
0100
0010
1000
0001
0010
,  // measure 52
0100
0000
0000
1100
0000
0000
1000
0000
0000
1010
0000
0000
0010
0000
0110
0000
,  // measure 53
0100
0000
0001
0000
0010
0100
0010
0000
0001
0100
0000
0010
0000
0100
0001
0000
,  // measure 54
0010
0000
0001
0000
0100
0000
0010
0000
0000
1000
0000
0000
0100
0000
0000
0010
0000
0000
0001
0000
0000
0100
0000
0000
,  // measure 55
0020
0000
0000
0130
,  // measure 56
2002
0000
0000
0000
,  // measure 57
0000
0000
0000
0000
,  // measure 58
3003
0000
0000
0000
,  // measure 59
0000
0000
0000
0000
,  // measure 60
0000
0000
0000
0000
,  // measure 61
0000
0000
0000
0000
,  // measure 62
1000
0001
1000
0001
1000
0001
1000
0001
,  // measure 63
0100
0010
0100
0010
0100
0010
0100
0010
,  // measure 64
1000
0100
1000
0100
0010
0001
0010
0001
,  // measure 65
0100
0000
0000
0010
0000
0000
1000
0000
0000
0001
0000
0000
0010
0000
0100
0000
,  // measure 66
1000
0000
0010
0100
0000
0100
0001
0010
0100
1000
0010
0100
0001
0100
0010
1000
,  // measure 67
0001
0000
0010
0100
1000
0000
0100
0001
0100
0000
1000
0010
0100
0000
0001
0100
,  // measure 68
0010
0000
1000
0100
0000
1000
0100
0010
0001
0000
0001
0100
0000
0100
0010
1000
,  // measure 69
0001
0000
0000
0001
0000
0000
0001
0000
1000
0100
1000
0100
0000
0010
0001
0000
,  // measure 70
0100
0000
1000
0100
0000
0001
0010
0000
0100
1000
0100
0000
0010
0001
0100
0000
,  // measure 71
0010
0000
0100
0001
0010
0000
0100
1000
0010
0000
1000
0100
0010
0000
0001
0100
,  // measure 72
0001
0000
0010
0100
0000
1000
0010
0100
0001
0000
0100
0010
0000
0100
0001
0010
,  // measure 73
0100
0000
0000
0100
0000
0000
0100
0000
1000
0010
0100
0001
0000
0100
0010
0000
,  // measure 74
1010
0000
0000
0101
0000
0000
0011
0000
0000
1100
0000
0000
1001
0000
0110
0000
,  // measure 75
0010
0000
1000
0000
0001
0010
0100
0000
0010
0001
0000
0100
0000
0000
0010
0000
,  // measure 76
0110
0000
0000
0101
0000
0000
0011
0000
0000
1100
0000
0000
1010
0000
1001
0000
,  // measure 77
1000
0000
0010
0100
0000
1000
0100
0000
0001
0010
0100
1000
0010
0100
0001
0000
,  // measure 78
0101
0000
0000
1100
0000
0000
0011
0000
0000
1010
0000
0000
0110
0000
1001
0000
,  // measure 79
0001
0000
0100
0000
0010
1000
0001
0000
0010
0100
0000
0110
0000
0000
1001
0000
,  // measure 80
1000
0000
0000
1010
0000
0000
0001
0000
0000
0101
0000
0000
0100
0000
1001
0000
,  // measure 81
0020
0000
0000
0130
,  // measure 82
1001
0000
0000
0000
;
