#TITLE:ECSTASY;
#SUBTITLE:;
#ARTIST:ATB;
#TITLETRANSLIT:;
#SUBTITLETRANSLIT:;
#ARTISTTRANSLIT:;
#GENRE:;
#CREDIT:;
#BANNER:ECSTASY-banner.png;
#BACKGROUND:ECSTASY-bg.png;
#LYRICSPATH:;
#CDTITLE:cdtitle.png;
#MUSIC:ECSTASY.ogg;
#OFFSET:-0.020;
#SAMPLESTART:30.200;
#SAMPLELENGTH:14.800;
#SELECTABLE:YES;
#BPMS:0.000=130.000
,30.000=65.000
,31.000=130.000
,63.000=65.000
,65.000=130.000
,157.000=65.000
,159.000=130.000
,191.000=65.000
,193.000=130.000
;
#STOPS:
;
#BGCHANGES:16.000=Wave1.avi=1.000=1=0=1===CrossFade==,
30.000=Blackhole1.avi=0.800=0=0=1=====,
31.000=cube6.avi=1.000=0=0=1=====,
47.000=Film5.avi=1.000=0=0=1=====,
55.000=wheel1.avi=1.000=0=0=1=====,
63.000=Blackhole1.avi=1.000=0=0=1=====,
65.000=Heat1A.avi=1.000=0=0=1=====,
73.000=Unicorn1.avi=1.000=0=0=1=====,
81.000=heat1.avi=1.000=0=0=1=====,
89.000=Unicorn1.avi=1.000=0=0=1=====,
97.000=Wave1.avi=1.000=0=0=1=====,
105.000=Unicorn1.avi=1.000=0=0=1=====,
113.000=Wave2.avi=1.000=0=0=1=====,
121.000=Unicorn1.avi=1.000=0=0=1=====,
125.000=Blackhole1.avi=1.000=0=0=1=====,
129.000=fireworks1.avi=1.000=0=0=1=====,
145.000=water2.avi=1.000=0=0=1=====,
157.000=Blackhole1.avi=1.000=0=0=1=====,
159.000=cube6.avi=1.000=0=0=1=====,
175.000=Film5.avi=1.000=0=0=1=====,
183.000=tunnel2.avi=1.000=0=0=1=====,
185.000=tunnel4.avi=1.000=0=0=1=====,
187.000=wheel3.avi=1.000=0=0=1=====,
189.000=Wheel4.avi=1.000=0=0=1=====,
191.000=Blackhole1.avi=1.000=0=0=1=====,
193.000=heat1.avi=1.000=0=0=1=====,
201.000=Unicorn1.avi=1.000=0=0=1=====,
209.000=Wave2.avi=1.000=0=0=1=====,
217.000=Unicorn1.avi=1.000=0=0=1=====,
224.500=ECSTASY-bg.png=1.000=0=0=1=====,
99999=-nosongbg-=1.000=0=0=0 // don't automatically add -songbackground-
;
#KEYSOUNDS:;
#ATTACKS:;

//---------------dance-single - Rygon----------------
#NOTES:
     dance-single:
     :
     Beginner:
     2:
     0.185,0.172,0.112,0.077,0.000,129.000,13.000,9.000,0.000,0.000,0.000,0.185,0.172,0.112,0.077,0.000,129.000,13.000,9.000,0.000,0.000,0.000:
0000
0000
0000
0000
,
0000
0000
0000
0000
,
0000
0000
0000
0000
,
0000
0000
0000
0000
,
1000
1000
0000
0000
,
0001
0001
0000
0000
,
0010
0010
0010
0000
,
0200
0000
0300
0100
,
0000
0100
0000
1000
,
1000
1000
0000
0001
,
0000
0001
0000
0100
,
0100
0100
0000
0010
,
0010
0010
0000
1000
,
0000
1000
0000
0001
,
0001
0001
0000
2000
,
0000
0002
0000
3003
,
0000
1001
0000
1001
,
0000
0010
0010
0010
,
0000
1000
1000
0001
,
0000
0001
0001
1000
,
0000
1001
0000
1001
,
0000
0100
0100
0100
,
0000
0001
0001
1000
,
0000
1000
1000
0001
,
0000
0110
0000
0110
,
0000
1000
1000
1000
,
0000
0100
0100
0010
,
0000
0010
0010
0100
,
0000
0110
0000
0110
,
0000
0001
0001
0001
,
0000
0010
0010
0100
,
0000
0200
0000
0300
,
0000
1000
1000
0000
,
0000
0001
0001
0000
,
0000
0100
0000
0100
,
0000
0010
0000
0010
,
0000
1000
1000
0000
,
0000
0001
0001
0000
,
0000
0010
0010
0010
,
0000
0200
0300
0010
,
0000
0010
0000
0001
,
0001
0001
0000
1000
,
0000
1000
0000
0010
,
0010
0010
0000
0100
,
0100
0100
0000
0001
,
0000
0001
0000
1000
,
1000
1000
0000
0002
,
0000
2000
0000
3003
,
0000
1001
0000
1001
,
0000
0100
0100
0100
,
0000
0001
0001
1000
,
0000
1000
1000
0001
,
0000
1001
0000
1001
,
0000
0010
0010
0010
,
0000
1000
1000
0001
,
0000
0001
0001
1000
,
0000
2002
0000
0000
,
0000
3003
0000
0000
;

//---------------dance-single - Rygon----------------
#NOTES:
     dance-single:
     :
     Easy:
     4:
     0.243,0.222,0.258,0.086,0.000,158.000,30.000,10.000,0.000,0.000,0.000,0.243,0.222,0.258,0.086,0.000,158.000,30.000,10.000,0.000,0.000,0.000:
0000
0000
0000
0000
,
0000
0000
0000
0000
,
0000
0000
0000
0000
,
0000
0000
0000
0000
,
0001
0001
1000
0000
,
1000
1000
0100
0000
,
0100
0010
1001
0000
,
0020
0000
0030
0010
,
0100
0010
0000
0001
,
1000
1001
0000
1000
,
0100
1000
0000
0010
,
0100
0110
0000
0100
,
0001
0100
0000
0001
,
1000
0001
0000
1000
,
0100
1000
1001
0002
,
0000
2000
0000
3003
,
0000
1001
0100
1001
,
0000
0100
0010
0100
,
0000
0001
0100
1000
,
0000
1000
0010
0001
,
0000
1001
0010
1001
,
0000
0010
0100
0010
,
0000
1000
0010
0001
,
0000
0001
0100
1000
,
0000
0110
1000
0110
,
0000
0001
1000
0001
,
0000
0010
0001
0100
,
0000
0100
1000
0010
,
0000
0110
1000
0110
,
0000
1000
0001
1000
,
0000
0100
0001
0010
,
1000
0200
0000
0300
,
0010
0001
0001
1000
,
0000
1000
1000
0001
,
0000
0010
0100
0110
,
0000
0100
0010
0110
,
0000
0001
0001
0100
,
0000
1000
1000
0100
,
0000
0010
0100
0110
,
0000
2002
3003
0100
,
1000
0100
1000
1001
,
0001
1001
0000
0001
,
0100
0001
0100
0110
,
0010
0110
0000
0010
,
1000
0010
1000
1001
,
0001
1001
0000
0001
,
0010
0001
1001
2000
,
0000
0002
0000
3003
,
0000
1001
0110
1001
,
0000
0010
0100
0010
,
0000
1000
0100
0001
,
0010
1000
0100
0001
,
0000
1001
0110
1001
,
0000
0100
0010
0100
,
0000
0001
0010
1000
,
0100
0001
0010
1000
,
0000
2002
0000
0000
,
0000
3003
0000
0000
;

//---------------dance-single - Rygon----------------
#NOTES:
     dance-single:
     :
     Medium:
     7:
     0.445,0.401,0.344,0.507,0.000,263.000,40.000,59.000,0.000,0.000,0.000,0.445,0.401,0.344,0.507,0.000,263.000,40.000,59.000,0.000,0.000,0.000:
0000
0000
0000
0000
,
0000
0000
0000
0000
,
0000
0000
0000
0000
,
0000
0000
0000
0000
,
0020
0000
2030
0000
3100
0010
0002
0000
,
1000
0010
0203
0000
,
0310
0000
1000
0000
0001
0010
0100
1000
,
0002
0000
0100
0000
0203
0000
0310
1000
,
0100
0011
2100
3002
,
1000
0000
2003
0000
0010
0000
3010
0100
,
0001
0100
0020
0000
2030
0000
3200
0000
,
0302
0000
0023
0000
1030
0000
0010
1000
,
0001
0011
0201
1000
,
0302
0000
0010
0000
1003
0000
0001
0100
,
1000
0100
0001
0000
2000
0000
0100
0000
,
3002
0010
1000
0203
,
0010
0310
0110
0000
1001
0000
1000
0100
,
0001
0000
0001
0100
1000
0001
1000
0000
,
1001
0002
0010
2003
,
0010
3002
0103
0101
,
1001
0000
0110
0000
1001
0000
1000
0010
,
0001
0000
0001
0010
1000
0001
1000
0000
,
1001
0002
0100
2003
,
0100
3002
0013
0011
,
1001
0000
1000
0100
0001
0100
1000
0100
,
0001
0000
0001
0100
1000
0100
0001
0100
,
1000
2010
3001
0012
,
1003
1010
0011
0101
,
1100
0000
0001
0100
1000
0100
0001
0100
,
1000
0000
1000
0100
0001
0100
1000
0100
,
0001
0012
1003
2010
,
3001
0002
0000
2000
,
0000
0000
3003
0000
0000
0000
1000
0100
,
0020
0032
0100
0010
,
2003
0000
3001
0100
0010
1000
0100
0000
,
0021
0230
2300
0001
,
3000
0000
0002
0000
0203
0000
1300
0100
,
0020
1000
0230
0301
,
0100
0000
0001
1000
0100
0010
0100
0000
,
1000
0000
0002
0000
1003
0000
0100
1000
,
0010
0101
2010
3002
,
1000
0000
2003
0000
0100
0000
3100
0010
,
0001
0010
0200
0000
2300
0000
3020
0000
,
0032
0000
0203
0000
1300
0000
0100
1000
,
0001
0101
0021
1000
,
0032
0000
0100
0000
1003
0000
0001
0010
,
1000
0010
0001
0010
0100
1000
0010
0100
,
0010
0100
0001
1000
0001
1000
0020
0000
,
0100
0130
0001
0100
1000
0100
0001
0100
,
1000
0000
1000
0100
0001
0100
1000
0100
,
0001
0012
1003
2010
,
3001
0011
1010
1100
,
0101
0000
0001
0010
1000
0010
0001
0010
,
1000
0000
1000
0010
0001
0010
1000
0010
,
0001
0102
1003
2100
,
3001
0101
1100
1010
,
0011
2002
0000
0000
,
0000
0000
0000
0000
,
0000
3003
0000
0000
;

//---------------dance-single - Rygon----------------
#NOTES:
     dance-single:
     :
     Hard:
     8:
     0.500,0.601,0.206,0.645,0.129,308.000,24.000,75.000,0.000,0.000,0.000,0.500,0.601,0.206,0.645,0.129,308.000,24.000,75.000,0.000,0.000,0.000: // measure 0
0000
0000
0000
0000
,  // measure 1
0000
0000
0000
0000
,  // measure 2
0000
0000
0000
0000
,  // measure 3
0000
0000
0000
0000
,  // measure 4
0002
0000
2003
0000
3100
1000
0010
0000
,  // measure 5
2010
3002
0023
2030
,  // measure 6
3001
0100
1000
0001
0100
0000
1100
0000
,  // measure 7
0102
0000
0013
0000
2100
0000
3010
0100
,  // measure 8
0001
0100
0010
0000
2010
0000
3002
0000
,  // measure 9
2003
0100
3200
0000
0320
0001
0031
0100
,  // measure 10
1000
0100
0002
0000
0203
0000
2300
0000
,  // measure 11
3020
0000
0032
0000
1003
0001
1000
0010
,  // measure 12
0001
0010
0200
0000
0302
0010
0023
0100
,  // measure 13
0230
0000
2300
0000
3001
0000
1000
0010
,  // measure 14
0001
0010
2000
0000
3002
1000
1003
0100
,  // measure 15
0010
0001
0000
2000
0000
0001
3002
0000
,  // measure 16
0100
0000
0103
0000
0100
0000
0010
0000
0100
0000
0001
1000
0000
0000
0100
0000
,  // measure 17
0000
0000
0100
0000
0100
0000
0010
0000
0100
0000
1000
0001
0000
0000
0100
0000
,  // measure 18
0000
0010
1000
0000
2100
0000
3001
0000
,  // measure 19
0102
0023
1000
0001
,  // measure 20
1030
0000
0000
0000
0010
0000
0100
0000
0010
0000
0001
1000
0000
0000
0010
0000
,  // measure 21
0000
0000
0010
0000
0010
0000
0100
0000
0010
0000
1000
0001
0000
0000
0010
0000
,  // measure 22
0000
0100
1000
0000
2010
0000
3001
0000
,  // measure 23
0012
0203
1000
0001
,  // measure 24
1300
0000
0000
0000
0100
0000
0010
0000
0100
0000
0001
1000
0000
1000
0100
0000
,  // measure 25
0000
0000
0100
0000
0100
0000
0010
0000
0100
0000
1000
0001
0000
0001
0100
0000
,  // measure 26
0000
0010
1000
0000
2100
0000
3001
0000
,  // measure 27
0102
0023
1000
0001
,  // measure 28
1030
0000
0000
0000
0010
0000
0100
0000
0010
0000
0001
1000
0000
1000
0010
0000
,  // measure 29
0000
0000
0010
0000
0010
0000
0100
0000
0010
0000
1000
0001
0000
0001
0010
0000
,  // measure 30
0000
0100
1000
0000
2010
0000
3001
0000
,  // measure 31
0012
0203
0000
0020
,  // measure 32
0000
0000
0330
0000
0000
0000
0010
1000
,  // measure 33
0200
0302
0103
2100
,  // measure 34
3020
0000
0130
0001
0100
1000
0200
0000
,  // measure 35
0301
0011
2100
3010
,  // measure 36
0102
0000
1003
0000
0100
0000
0001
0100
,  // measure 37
2000
3010
0021
1000
,  // measure 38
0001
0000
1030
0100
0001
0100
1000
0010
,  // measure 39
0001
0000
0000
0000
0010
0000
0000
0000
1000
0000
0000
1000
0000
0000
2000
0000
0002
0000
0000
0000
3003
0000
0000
0000
0100
0000
0000
0000
0010
0000
0000
0000
,  // measure 40
1000
0010
0100
0000
0102
0000
2003
0000
,  // measure 41
3002
0010
0023
0000
0230
1000
1300
0010
,  // measure 42
0001
0010
2000
0000
3020
0000
0032
0000
,  // measure 43
0203
0000
2300
0000
3001
1000
0001
0100
,  // measure 44
1000
0100
0020
0000
2030
0100
3200
0010
,  // measure 45
0320
0000
0032
0000
1003
0000
0001
1000
,  // measure 46
0001
0000
0100
0000
1000
0000
0001
0000
1000
0000
0100
0000
0001
1000
0001
1000
,  // measure 47
0010
0100
0010
0100
0001
0010
0001
0010
0100
1000
0100
1000
0020
0000
0000
0000
,  // measure 48
0130
0000
0100
0000
0100
0000
0010
0000
0100
0000
0001
1000
0000
1000
0100
0000
,  // measure 49
0000
0000
0100
0000
0100
0000
0010
0000
0100
0000
1000
0001
0000
0001
0100
0000
,  // measure 50
0000
0010
1000
0000
2010
0000
3001
0000
,  // measure 51
0012
0203
1000
0001
,  // measure 52
1300
0000
0000
0000
0010
0000
0100
0000
0010
0000
1000
0001
0000
0001
0010
0000
,  // measure 53
0000
0000
0010
0000
0010
0000
0100
0000
0010
0000
0001
1000
0000
1000
0010
0000
,  // measure 54
0000
0100
0001
0000
0102
0000
1003
0000
,  // measure 55
2100
3020
0001
1000
,  // measure 56
0031
2002
0000
0000
,  // measure 57
0000
0000
0000
0000
,  // measure 58
0000
3003
0000
0000
;

//---------------dance-double - Rygon----------------
#NOTES:
     dance-double:
     :
     Easy:
     3:
     0.240,0.222,0.155,0.069,0.000,169.000,18.000,8.000,0.000,0.000,0.000,0.240,0.222,0.155,0.069,0.000,169.000,18.000,8.000,0.000,0.000,0.000:
00000000
00000000
00000000
00000000
,
00000000
00000000
00000000
00000000
,
00000000
00000000
00000000
00000000
,
00000000
00000000
00000000
00000000
,
00100000
10000000
00010000
00000000
,
00100000
00000000
00100000
00000000
,
00001000
00010000
00001000
00000000
,
00000100
00000000
00000020
00000130
,
00000001
00000100
00000001
00000010
,
00000000
00000110
00000000
00000100
,
00010000
00001000
00010000
00001000
,
01000000
00100000
00000000
00100000
,
10000000
00100000
10000000
01000000
,
00000000
01100000
00000000
00100000
,
00001000
00010000
00001000
00010000
,
00000100
00000010
00000100
00002000
,
00000000
00003001
00001000
00001001
,
00000000
00001000
00000001
00001001
,
00000000
00000001
00000100
00001000
,
00010000
01000000
10000000
00010000
,
00000000
10000000
00010000
10010000
,
00000000
00010000
10000000
10010000
,
00000000
10000000
01000000
00010000
,
00001000
00000100
00000001
00001000
,
00000000
00000001
00001000
00001001
,
00000000
00001000
00000001
00001001
,
00000000
00000001
00000010
00001000
,
00010000
00100000
10000000
00010000
,
00000000
10000000
00010000
10010000
,
00000000
00010000
10000000
10010000
,
00000000
10000000
00100000
00010000
,
00001000
00000010
00000002
00002000
,
00000000
00003003
00000000
00001000
,
00001000
00000100
00010000
01000000
,
10000000
00100000
00000000
00100000
,
00000000
01000000
00001000
00011000
,
00000000
00010000
00010000
01000000
,
10000000
00100000
01000000
00001000
,
00000000
00001000
00010000
00000100
,
00000020
00000001
00000031
00000010
,
00000001
00000010
00000001
00000100
,
00000000
00000110
00000000
00000010
,
00010000
00001000
00010000
00001000
,
00100000
01000000
00000000
01000000
,
10000000
01000000
10000000
00100000
,
00000000
01100000
00000000
01000000
,
00001000
00010000
00001000
00010000
,
00000010
00000100
00000010
00002000
,
00000000
00003001
00001000
00001001
,
00000000
00001000
00000001
00001001
,
00000000
00000001
00000100
00001000
,
00010000
01000000
10000000
00010000
,
00000000
10000000
00010000
10010000
,
00000000
00010000
10000000
10010000
,
00000000
10000000
01000000
00010000
,
00001000
00000100
00000001
00001000
,
00000000
00002002
00000000
00000000
,
00000000
00003003
00000000
00000000
;

//---------------dance-double - Rygon----------------
#NOTES:
     dance-double:
     :
     Medium:
     5:
     0.370,0.351,0.318,0.215,0.000,239.000,37.000,25.000,0.000,0.000,0.000,0.370,0.351,0.318,0.215,0.000,239.000,37.000,25.000,0.000,0.000,0.000:
00000000
00000000
00000000
00000000
,
00000000
00000000
00000000
00000000
,
00000000
00000000
00000000
00000000
,
00000000
00000000
00000000
00000000
,
10000000
01000000
00010000
00100000
,
10000000
01000000
00010000
00100000
,
10000000
01000000
00010000
00001000
,
00000100
00000001
00002000
00003001
,
00000010
00000000
00000100
00001000
00000020
00000000
00010030
00000000
,
00001000
00001000
00010000
01000000
,
10000000
00000000
00100000
01000000
00020000
00000000
00130000
00000000
,
00001000
00001000
00010000
00000100
,
00000010
00000000
00000001
00000100
00001000
00000000
00000200
00000000
,
00000320
00002030
00003200
00010300
,
01000000
00000000
00100000
01000000
10000000
00000000
00020000
00000000
,
02030000
03002000
00023000
00030100
,
00000000
00001001
00001100
00010100
,
00001000
00110000
11000000
10100000
,
01000000
00000000
00010000
00100000
00001000
00000000
00010000
00000010
,
00001000
00000000
00000010
00010000
00001000
00000000
00010000
00001000
,
00100000
10010000
01010000
01001000
,
00010000
00001010
00000101
00000011
,
00000100
00000000
00001000
00000010
00010000
00000000
00001000
00100000
,
00010000
00000000
00100000
00001000
00010000
00000000
00001000
00010000
,
00000010
00001001
00001010
00010010
,
00001000
01010000
10100000
11000000
,
00100000
00000000
00010000
01000000
00001000
00000000
00010000
00000100
,
00001000
00000000
00000100
00010000
00001000
00000000
00010000
00001000
,
01000000
10010000
00110000
00101000
,
00010000
00001100
00000011
00000101
,
00000010
00000000
00001000
00000100
00010000
00000000
00001000
01000000
,
00010000
00000000
01000000
00001000
00020000
00000000
00002000
00000000
,
00000000
00033000
00000000
00001000
,
00000100
00000001
00000010
00000100
,
00000100
00001000
00000100
00010000
,
00001000
00100000
01000000
20000000
,
30010000
10000000
00100000
00010000
,
10000000
01000000
00010000
00100000
,
00001000
00010000
00000100
00000010
,
00000001
00000200
00000010
00000301
,
00000100
00000000
00000010
00001000
00000200
00000000
00010300
00000000
,
00001000
00001000
00010000
00100000
,
10000000
00000000
01000000
00100000
00020000
00000000
01030000
00000000
,
00001000
00001000
00010000
00000010
,
00000100
00000000
00000001
00000010
00001000
00000000
00000020
00000000
,
00000230
00002300
00003020
00010030
,
01000000
00000000
01000000
10000000
00100000
01000000
00020000
00000000
,
00230000
00000000
00301000
00010000
00001000
00010000
00000010
00000000
,
00000000
00001001
00001100
00010100
,
00001000
00110000
11000000
10100000
,
01000000
00000000
00010000
00100000
00001000
00000000
00010000
00000010
,
00001000
00000000
00000010
00010000
00001000
00000000
00010000
00001000
,
00100000
10010000
01010000
01001000
,
00010000
00001010
00000101
00000011
,
00000100
00000000
00001000
00000010
00010000
00000000
00001000
00100000
,
00010000
00000000
00100000
00001000
00010000
00000000
00001000
00010000
,
00000010
00000220
00000000
00000000
,
00000000
00000000
00000000
00000000
,
00000000
00000330
00000000
00000000
;

//---------------dance-double - Rygon----------------
#NOTES:
     dance-double:
     :
     Hard:
     8:
     0.540,0.601,0.344,0.533,0.146,338.000,40.000,62.000,0.000,0.000,0.000,0.540,0.601,0.344,0.533,0.146,338.000,40.000,62.000,0.000,0.000,0.000:
00000000
00000000
00000000
00000000
,
00000000
00000000
00000000
00000000
,
00000000
00000000
00000000
00000000
,
00000000
00000000
00000000
00000000
,
02000000
00000000
23000000
00000000
30010000
00100000
20000000
00000000
,
30200000
00302000
00023000
00230000
,
01300000
00001000
00000100
00000010
00010000
00001000
00100000
01000000
,
10000000
00000000
11000000
00000000
00120000
01000000
01030000
00001000
,
00000010
00001000
00100000
00001000
00000100
00000010
00000110
00000000
,
00000101
00000000
00000021
00000000
00000130
00000000
00001000
00000100
,
00010000
01000000
10000000
00100000
01000000
00010000
00110000
00000000
,
21000000
00000000
30010000
00000000
01001000
00000000
00001000
00000010
,
00000100
00001000
00000010
00000100
00001000
00010000
00100000
01000000
,
00010000
00100000
12000000
00000000
03100000
00000000
00100000
00001000
,
00010000
00000100
00000020
00000001
00000032
00000100
00000103
00000010
,
00001000
00001100
00000000
00011000
00000000
00101000
00021000
00000000
,
00001000
00000000
00031000
00000000
00001000
00000000
00010000
00000000
00001000
00000000
01000000
00100000
00000000
00100000
01000000
00000000
,
00001000
00000000
00010000
00000000
00000100
00000000
00000010
00000000
00000100
00000000
00010000
00001000
00000000
00001000
00010000
00000000
,
01000000
10000000
10200000
00000000
00320000
00000000
02030000
00000000
,
23000000
30100000
01010000
00201000
,
00300100
00000000
00000000
00000000
00010000
00000000
00001000
00000000
00010000
00000000
00000010
00000100
00000000
00000100
00000010
00000000
,
00010000
00000000
00001000
00000000
00100000
00000000
01000000
00000000
00100000
00000000
00001000
00010000
00000000
00010000
00001000
00000000
,
00000010
00000001
00000201
00000000
00002300
00000000
00003020
00000000
,
00000032
00000103
00001010
00010200
,
00100300
00000000
00000000
00000000
01000000
00000000
10000000
00000000
00100000
00000000
01000000
00010000
00000000
00010000
00100000
00000000
,
00001000
00000000
00010000
00000000
00000100
00000000
00000010
00000000
00000001
00000000
00000100
00000010
00000000
00000010
00001000
00000000
,
00000100
00010000
00011000
00000000
00201000
00000000
02300000
00000000
,
13000000
10100000
00101000
00010100
,
00001001
00000000
00000000
00000000
00000010
00000000
00000001
00000000
00000100
00000000
00000010
00001000
00000000
00001000
00000100
00000000
,
00010000
00000000
00001000
00000000
00100000
00000000
01000000
00000000
10000000
00000000
00100000
01000000
00000000
01000000
00010000
00000000
,
00100000
00001000
00011000
00000000
00010200
00000000
00000320
00000000
,
00000031
00000102
00000000
00002000
,
00000000
00000000
00003003
00000000
00000000
00000000
00000001
00001000
,
00000100
00000010
00002000
00000000
00203000
00000000
01300000
00000000
,
11000000
00000000
10000000
00100000
00010000
00001000
00000010
00000001
,
00000100
00001000
00010000
00000000
00012000
00000000
00203000
00000000
,
00302000
00000000
00013000
00100000
00001000
00000010
00010000
00000000
,
00012000
00203000
02300000
23000000
,
30010000
01000000
00001000
00010000
00000010
00000100
00001000
00000100
,
00000001
00000000
00000000
00000000
00000010
00000000
00000000
00000000
00000100
00000000
00000000
00000100
00000000
00000000
00000100
00000000
00000020
00000000
00000000
00000000
00000000
00000000
00000000
00000000
00000031
00000000
00000000
00000000
00000100
00000000
00000000
00000000
,
00000010
00001000
00000100
00000001
00000100
00001000
00000010
00010000
,
00100000
00010000
00001000
00000010
00001000
00010000
00001000
01000000
,
10000000
00100000
02000000
00000000
03010000
01000000
10000000
01000000
,
00010000
00100000
00101000
00000000
00010100
00000000
00000200
00000000
,
00000320
00000032
00002003
00023000
,
00230000
00000000
20300000
00000000
30020000
00000000
10030000
01000000
,
00100000
00000000
00010000
00000000
01000000
00000000
00001000
00000000
00010000
00000000
00000100
00000000
00000010
00000001
00000010
00000001
,
00001000
00000010
00001000
00000010
00010000
00001000
00100000
00001000
00010000
00000010
00010000
00001000
00200000
00000000
00000000
00000000
,
00001000
00000000
00301000
00000000
00010000
00000000
00001000
00000000
00010000
00000000
00000010
00000100
00000000
00000100
00000010
00000000
,
00010000
00000000
00001000
00000000
00100000
00000000
01000000
00000000
00100000
00000000
00001000
00010000
00000000
00010000
00001000
00000000
,
00000010
00000001
00000201
00000000
00002300
00000000
00003020
00000000
,
00000032
00000103
00001010
00010200
,
00100300
00000000
00000000
00000000
00001000
00000000
00010000
00000000
00001000
00000000
01000000
00100000
00000000
00100000
01000000
00000000
,
00001000
00000000
00010000
00000000
00000100
00000000
00000010
00000000
00000100
00000000
00010000
00001000
00000000
00001000
00010000
00000000
,
01000000
10000000
10200000
00000000
00320000
00000000
02030000
00000000
,
23000000
30100000
01010000
00201000
,
00300100
00022000
00000000
00000000
,
00000000
00000000
00000000
00000000
,
00000000
00033000
00000000
00000000
;
