#TITLE:reunion;
#SUBTITLE:;
#ARTIST:Tatsh;
#TITLETRANSLIT:;
#SUBTITLETRANSLIT:;
#ARTISTTRANSLIT:;
#CREDIT:;
#BANNER:[Last Word] - reunion.png;
#BACKGROUND:[Last Word] - reunion-bg.png;
#LYRICSPATH:;
#CDTITLE:;
#MUSIC:[Last Word] - reunion.mp3;
#OFFSET:-2.982;
#SAMPLESTART:34.260;
#SAMPLELENGTH:13.420;
#SELECTABLE:YES;
#BPMS:0.000=184.001;
#STOPS:;
#BGCHANGES:;

//---------------dance-single - ----------------
#NOTES:
     dance-single:
     :
     Hard:
     9:
     0.784,0.866,0.383,0.212,0.069: // measure 1
2100
0010
0100
0001
,  // measure 2
0100
0010
0100
3001
,  // measure 3
0102
1000
0100
0010
,  // measure 4
0100
0000
0000
0000
1000
0000
0000
0000
0100
0000
0100
0000
1003
0000
0000
0001
,  // measure 5
1000
0000
0010
1000
0100
0001
0100
1000
,  // measure 6
0010
0000
0100
0001
0010
1000
0010
0001
,  // measure 7
1000
0100
0001
0100
1000
0010
0001
0010
,  // measure 8
1001
0000
0000
0000
0000
0000
0000
0000
0010
0000
0100
0001
0100
0000
0010
1000
,  // measure 9
0010
0100
0001
0020
0000
0130
0000
1000
,  // measure 10
0001
0010
0001
0100
0000
0010
1000
0100
,  // measure 11
0001
0100
1000
0020
0000
0130
0000
0001
,  // measure 12
0010
0001
0100
2000
0000
3100
0001
0010
,  // measure 13
1000
0010
0001
0200
0000
0310
0000
1000
,  // measure 14
0001
0010
0001
0100
0000
0010
1000
0100
,  // measure 15
0001
0100
1000
0020
0000
0130
0000
0001
,  // measure 16
0010
1000
0010
0001
0000
0100
0010
1000
,  // measure 17
0100
0010
0001
0010
0100
1000
0010
1000
,  // measure 18
0100
0000
0001
0000
0100
0000
1000
0000
0100
0000
0010
0000
0001
0000
0010
0100
,  // measure 19
0010
0001
0100
0010
1000
0100
0001
0100
,  // measure 20
1000
0000
0010
0000
0100
0000
0001
0000
0010
0000
0001
0000
0100
0010
0100
0001
,  // measure 21
0100
0010
1000
0001
0010
0100
1000
0001
,  // measure 22
0100
0000
0001
0000
0010
0000
1000
0000
0010
0000
0100
0000
0001
0000
0100
1000
,  // measure 23
0100
0010
0001
1000
0010
0100
0001
0010
,  // measure 24
0001
0100
0010
1000
0100
0001
0100
1000
,  // measure 25
1010
0000
0010
0100
0001
0010
0011
0000
,  // measure 26
0001
0100
1000
0000
1100
0000
0100
0001
,  // measure 27
0010
0000
0100
0000
1100
0000
0000
0000
0100
0000
1000
0000
0010
0000
0100
0001
,  // measure 28
1000
0000
0010
1000
0010
0001
0011
0000
,  // measure 29
0010
0100
0001
0000
0101
0000
0100
0010
,  // measure 30
1000
0000
0100
0000
0110
0000
0000
0000
0010
0000
0001
0000
1000
0001
1000
0001
,  // measure 31
1000
0000
1000
0100
0001
0100
1100
0000
,  // measure 32
1000
0010
0100
0000
0110
0000
0100
0001
,  // measure 33
0010
0000
1000
0000
1010
0000
0000
0000
0010
0000
0001
0000
0100
0000
0000
0010
,  // measure 34
1000
0000
0100
1000
0010
0100
0110
0000
,  // measure 35
0100
0001
0010
0000
1010
0000
1000
0010
,  // measure 36
0001
0100
0110
0000
0010
1000
0100
1000
,  // measure 37
0020
0030
0001
0020
0030
1000
0200
0300
,  // measure 38
1000
0020
0030
0100
0001
0010
1000
0010
,  // measure 39
0002
0003
0100
0020
0030
1000
0200
0300
,  // measure 40
1000
0002
0003
0010
0100
1000
0100
0010
,  // measure 41
0002
0003
1000
0020
0030
0100
0002
0003
,  // measure 42
1000
0200
0300
1000
0010
0100
0001
0010
,  // measure 43
1000
0010
1000
0010
0001
0010
0001
0010
,  // measure 44
0001
0100
0001
0100
1000
0100
1000
0100
,  // measure 45
0101
0000
0100
0010
1000
0100
1000
0010
,  // measure 46
0100
0001
0010
1000
0010
0001
0100
0000
,  // measure 47
0010
1000
0100
0001
0100
1000
0010
0100
,  // measure 48
0001
0010
1000
0010
0001
0100
0010
0000
,  // measure 49
1000
0100
0001
0100
1000
0000
0010
0100
,  // measure 50
0001
0010
0100
1000
0001
0100
0010
1000
,  // measure 51
0002
0100
0010
1003
,  // measure 52
0001
0100
0010
1000
0001
0010
1000
0010
,  // measure 53
0001
0100
0010
0100
0001
1000
0010
1000
,  // measure 54
0100
1000
0010
0100
0001
0010
1000
0000
,  // measure 55
0010
0001
0100
0001
1000
0100
1000
0010
,  // measure 56
0100
0001
0010
1000
0010
0001
0100
0000
,  // measure 57
0010
1000
0100
1000
0010
0100
0001
0010
,  // measure 58
0001
1000
0100
1000
0010
0100
0001
0000
,  // measure 59
0010
0001
0100
0010
1000
0100
0001
0100
,  // measure 60
1000
0010
0100
0001
0010
1000
0010
0000
,  // measure 61
0001
0100
0001
0100
0001
1000
0001
1000
,  // measure 62
0100
1000
0100
1000
0010
1000
0010
1000
,  // measure 63
0010
0100
0010
0100
0001
0100
0001
0100
,  // measure 64
0001
0010
0001
0010
0001
1000
0001
1000
,  // measure 65
0100
1000
0010
1000
0100
0010
0001
0010
,  // measure 66
0100
1000
0010
0100
0001
0100
1000
0100
,  // measure 67
0001
0010
0100
1000
0010
0100
0001
1000
,  // measure 68
0100
1000
0010
0100
0001
0010
0100
1000
,  // measure 69
1001
0000
0001
0100
0001
1000
1100
0000
,  // measure 70
1000
0010
0100
0000
0101
0000
0100
0001
,  // measure 71
0010
1000
1010
0000
1000
0010
0001
0100
,  // measure 72
0101
0000
0000
0000
0100
0000
0010
0000
1000
0000
0100
0000
0101
0000
0000
0001
,  // measure 73
0100
1000
0010
0100
0110
0000
0100
0001
,  // measure 74
0010
0000
0100
0000
1100
0000
0000
0000
1000
0000
0010
0000
0100
0000
0001
1000
,  // measure 75
0100
0000
1000
0100
0001
0100
1100
0000
,  // measure 76
1000
0000
0010
0000
0100
0000
0001
0100
0010
0000
0000
0000
0100
0000
0001
0010
,  // measure 77
1000
0000
1010
0000
0010
0001
0100
0000
,  // measure 78
0110
0000
0010
1000
0100
0001
0101
0000
,  // measure 79
0100
0010
0001
0000
0100
0001
1000
0010
,  // measure 80
1000
0000
0100
0000
0010
0000
0001
0000
0100
0000
0010
0000
1000
0001
1000
0001
,  // measure 81
0000
0000
0000
0000
0011
0010
0100
0110
,  // measure 82
0100
1000
1100
1000
0010
0110
0100
0001
,  // measure 83
0101
0001
0011
0010
0110
0100
1000
1010
,  // measure 84
0010
0100
0101
0001
0010
0011
0010
0100
,  // measure 85
0110
0100
1100
1000
1001
0000
0000
0000
,  // measure 86
0000
0202
0000
0303
1010
0000
0000
0000
,  // measure 87
0000
2200
0000
3300
0011
2002
0000
0000
,  // measure 88
0000
0000
0000
0000
,  // measure 89
0000
0000
3003
0000
;

//---------------dance-single - ----------------
#NOTES:
     dance-single:
     :
     Medium:
     7:
     0.603,0.541,0.611,0.073,0.000:
2100
0100
0001
0001
,
0100
0100
0010
3010
,
0002
0010
0100
0100
,
1000
0000
1003
0000
0001
1000
0100
0000
,
0010
0011
0101
0110
,
0010
1010
1100
1001
,
1000
0010
0100
0001
1000
0100
0010
0001
,
1000
0000
1100
0101
,
1000
0100
1000
0000
0100
0010
0100
0000
,
0010
0001
0010
0000
0001
0000
0101
0000
,
0100
0010
0100
0000
0010
1000
0010
0000
,
1000
0100
1000
0000
0001
0000
0101
0000
,
0100
1000
0100
0000
1000
0010
1000
0000
,
0010
0001
0010
0000
0001
0000
0101
0000
,
0100
0001
0100
0000
0001
0010
0001
0000
,
0010
1000
0010
0000
1000
0000
1001
0000
,
1000
1100
0100
0110
,
0010
0000
0011
0000
0001
0100
0010
1000
,
0001
1001
1000
1100
,
0100
0000
0110
0000
0010
0001
0100
0010
,
1000
0101
0010
1100
,
0010
0000
1001
0000
0001
0100
1000
0010
,
0001
1001
0010
1100
,
1000
0100
0010
0001
1000
0010
0100
0001
,
1000
0001
0100
0110
,
0010
1000
0100
0000
0010
0000
0001
0000
,
1000
0000
1100
0000
0100
1000
0001
0000
,
0101
0001
0010
0110
,
0100
1000
0001
0000
0100
0000
0010
0000
,
1000
0000
1001
0000
1000
0100
0001
0100
,
1000
0001
0100
1010
,
0010
1000
0100
0000
0010
0000
0001
0000
,
0100
0000
1010
0000
0010
0100
0001
0000
,
1001
1000
0100
0101
,
0001
0100
1000
0000
1010
0000
0010
0000
,
0100
0000
0101
0000
0001
0100
1000
0100
,
0001
1001
1000
1100
,
1000
0000
1001
0000
0001
0100
0010
1000
,
0001
0011
0001
1001
,
0001
0000
0101
0000
0001
0100
0010
1000
,
0001
0101
1000
1100
,
0001
0000
0011
0000
1000
0010
0100
0001
,
1000
1100
1000
1001
,
1000
0010
0001
0010
1000
0100
0001
0100
,
1000
0001
0100
0101
,
0001
0000
1000
0000
0100
1000
0010
1000
,
0100
0010
0001
0011
,
0010
0000
0100
0000
1000
0001
0010
0001
,
1000
0010
0100
0101
,
0001
0000
0010
0000
0100
1000
0001
1000
,
0020
0100
0100
0130
,
0001
0100
0001
0000
1000
0100
1000
0000
,
0001
0000
0011
0000
0001
0100
0001
0000
,
1000
0000
1100
0000
1000
0001
1000
0000
,
0010
0000
0110
0000
0010
1000
0010
0000
,
0100
0000
0101
0000
0001
0100
0001
0000
,
0010
0000
0110
0000
0100
1000
0001
0000
,
0100
0000
0110
0000
0010
1000
0001
0000
,
1000
0000
1100
0000
1000
0100
0001
0000
,
1000
0000
1010
0000
1000
0010
0001
0000
,
1000
0100
1000
0000
0001
0100
0001
0000
,
1000
0010
1000
0000
0001
0010
0001
0000
,
1000
0001
0100
0000
0001
1000
0010
0000
,
1000
0001
0010
0000
0001
1000
0100
0000
,
1000
0100
0001
0000
1000
0010
0001
0000
,
1000
0100
0001
0000
1000
0010
0001
0000
,
1000
0100
1000
0000
0100
0001
0100
0000
,
0001
0010
0001
0000
0010
1000
0010
0000
,
1000
0001
0100
0110
,
0010
1000
0100
0000
0010
0000
0001
0000
,
1000
0000
1100
0000
0100
1000
0001
0000
,
0101
0001
0010
0110
,
0100
1000
0001
0000
0100
0000
0010
0000
,
1000
0000
1001
0000
1000
0100
0001
0100
,
1000
0001
0100
1010
,
0010
1000
0100
0000
0010
0000
0001
0000
,
0100
0000
1010
0000
0010
0100
0001
0000
,
1001
1000
0100
0101
,
0001
0100
1000
0000
1010
0000
0010
0000
,
0100
0000
0101
0000
0001
0100
1000
0100
,
0000
0000
0000
0000
0001
0000
0001
0100
,
0000
0100
0010
0000
0010
1000
0000
1000
,
0001
0000
1001
0000
0001
0000
0001
0010
,
0000
0010
1000
0000
1000
0100
0000
0100
,
0001
1000
1001
0000
,
0000
0202
0000
0303
1010
0000
0000
0000
,
0000
2200
0000
3300
0011
2002
0000
0000
,
0000
0000
0000
0000
,
0000
0000
3003
0000
;

//---------------dance-single - ----------------
#NOTES:
     dance-single:
     :
     Easy:
     5:
     0.392,0.361,0.016,0.024,0.000:
1000
0100
1000
0100
,
0001
0100
0001
0100
,
1000
0010
1000
0010
,
0001
0010
0001
0010
,
1000
0100
0010
0001
,
1000
0010
0100
0001
,
1000
0100
0001
0100
,
1001
0000
0010
0100
,
0110
0010
1000
0100
,
1000
0001
0010
0001
,
0100
0010
1000
0010
,
0100
0001
1000
0100
,
0010
0001
1000
0001
,
0100
0010
1000
0100
,
0001
0100
1000
0010
,
0001
0010
1000
0001
,
0100
0100
0010
0010
,
1000
1000
0100
0100
,
0010
0010
0001
0001
,
1000
1000
0100
0100
,
0010
0010
0001
0001
,
1000
1000
0100
0100
,
0001
0001
0100
0100
,
1000
1000
0001
0001
,
1000
0100
1000
0001
,
0100
0001
1000
0010
,
1000
0001
0010
0001
,
1000
0100
0010
0001
,
0100
0010
1000
0010
,
0100
0001
0010
0100
,
1000
0100
0001
1000
,
0010
0001
1000
0100
,
0001
1000
0010
0001
,
1000
0010
0100
0001
,
0010
0100
1000
0001
,
0010
0001
1000
0010
,
0100
0000
0000
0001
0000
0000
0010
0000
,
0000
0100
0000
0000
1000
0000
0010
0000
,
0100
0000
0000
0001
0000
0000
1000
0000
,
0000
0100
0000
0000
0001
0000
0100
0000
,
1000
0000
0000
0010
0000
0000
0100
0000
,
0000
0001
0000
0000
0010
0000
0100
0000
,
1000
0100
0001
0100
,
1000
0010
0001
0010
,
1000
0100
0010
0100
,
1000
0010
0100
0010
,
1000
0001
0010
0001
,
1000
0010
1000
0001
,
1000
0100
0010
0001
,
1000
0010
0100
0001
,
1000
1000
1000
1000
,
0001
0001
0001
0001
,
1000
0010
0100
0010
,
1000
0100
0010
0100
,
1000
0001
0010
0001
,
1000
0010
0100
0010
,
1000
0100
0001
0100
,
1000
0010
0001
0010
,
1000
0100
0001
0010
,
0001
0100
1000
0010
,
1000
0100
0010
0001
,
1000
0010
0100
0001
,
1000
0001
0010
0001
,
0100
0010
1000
0010
,
0100
0001
1000
0100
,
0001
0100
1000
0010
,
0001
0010
1000
0100
,
0010
0001
0100
0010
,
1000
0100
1000
0001
,
0100
0001
1000
0010
,
1000
0001
0010
0001
,
1000
0100
0010
0001
,
0100
0010
1000
0010
,
0100
0001
0010
0100
,
1000
0100
0001
1000
,
0010
0001
1000
0100
,
0001
1000
0010
0001
,
1000
0010
0100
0001
,
0010
0100
1000
0001
,
0010
0001
1000
0010
,
0000
0000
0000
0000
0001
0000
0000
0100
,
0000
0000
0010
0000
0000
1000
0000
0000
,
0100
0000
0010
0000
0001
0000
0000
1000
,
0000
0000
0010
0000
0000
0100
0000
0000
,
0001
0000
1000
0001
1000
0000
0000
0000
,
0000
0020
0000
0030
0100
0000
0000
0000
,
0000
0002
0000
0003
1000
0200
0000
0000
,
0000
0000
0000
0000
,
0000
0000
0300
0000
;

//---------------dance-single - ----------------
#NOTES:
     dance-single:
     :
     Beginner:
     2:
     0.166,0.216,0.024,0.016,0.000:
1000
0000
0000
0000
,
0100
0000
0000
0000
,
0010
0000
0000
0000
,
0001
0000
0000
0000
,
1000
0000
0000
0000
,
0001
0000
0000
0000
,
0100
0000
0100
0000
,
0100
0000
0000
0000
,
0010
0000
0000
0000
,
1000
0000
0000
0000
,
0100
0000
0000
0000
,
0010
0000
0000
0000
,
0001
0000
0000
0000
,
1000
0000
0000
0000
,
0100
0000
0000
0000
,
1000
0000
0000
0000
,
0010
0000
0010
0000
,
0100
0000
0100
0000
,
0001
0000
0001
0000
,
1000
0000
1000
0000
,
0100
0000
0100
0000
,
0010
0000
0010
0000
,
0001
0000
0001
0000
,
1000
0000
1000
0000
,
0010
0000
0000
0100
,
0000
0000
0001
0000
,
0000
0010
0000
0000
,
0100
0000
0000
1000
,
0000
0000
0010
0000
,
0000
0100
0000
0000
,
0001
0000
0000
0010
,
0000
0000
0100
0000
,
0000
1000
0000
0000
,
0001
0000
0000
0100
,
0000
0000
0010
0000
,
0000
1000
0000
0000
,
0001
0000
0001
0000
,
0010
0000
0010
0000
,
0100
0000
0100
0000
,
1000
0000
1000
0000
,
0001
0000
0001
0000
,
0100
0000
0100
0000
,
1000
0000
1000
0000
,
0100
0000
0100
0000
,
0001
0000
0000
0000
,
1000
0000
0000
0000
,
0010
0000
0000
0000
,
0100
0000
0100
0000
,
0100
0000
0000
0000
,
0001
0000
0000
0000
,
0010
0000
0000
0000
,
0100
0000
0100
0000
,
1000
0000
1000
0000
,
0001
0000
0001
0000
,
0010
0000
0010
0000
,
0100
0000
0100
0000
,
1000
0000
1000
0000
,
0010
0000
0010
0000
,
0100
0000
0100
0000
,
0001
0000
0001
0000
,
1000
0000
0100
0000
,
0001
0000
0100
0000
,
1000
0000
0010
0000
,
0001
0000
0010
0000
,
1000
0000
0001
0000
,
0100
0000
0010
0000
,
1000
0000
0001
0000
,
0100
0000
0010
0000
,
1000
0000
0000
0100
,
0000
0000
0010
0000
,
0000
0001
0000
0000
,
0100
0000
0000
0010
,
0000
0000
1000
0000
,
0000
0001
0000
0000
,
1000
0000
0000
0100
,
0000
0000
0010
0000
,
0000
0001
0000
0000
,
1000
0000
0000
0010
,
0000
0000
0100
0000
,
0000
0001
0001
0001
,
0000
0000
0000
0000
1000
0000
0000
1000
,
0000
0000
1000
0000
0000
1000
0000
0000
,
1000
0000
0000
0000
0001
0000
0000
0001
,
0000
0000
0001
0000
0000
0001
0000
0000
,
0001
0000
1001
0000
,
0000
0000
0110
0000
,
0000
0000
2002
0000
,
0000
0000
0000
0000
,
0000
0000
3003
0000
;
