#TITLE:glacial;
#SUBTITLE:;
#ARTIST:小坂りゆ;
#TITLETRANSLIT:;
#SUBTITLETRANSLIT:;
#ARTISTTRANSLIT:Riyu Kosaka;
#CREDIT:;
#BANNER:[Last Word] - glacial.png;
#BACKGROUND:[Last Word] - glacial-bg.png;
#LYRICSPATH:;
#CDTITLE:;
#MUSIC:[Last Word] - glacial.mp3;
#OFFSET:-0.020;
#SAMPLESTART:37.060;
#SAMPLELENGTH:15.620;
#SELECTABLE:YES;
#BPMS:0.000=152.000;
#STOPS:;
#BGCHANGES:;

//---------------dance-single - ----------------
#NOTES:
     dance-single:
     :
     Medium:
     6:
     0.420,0.406,0.068,0.000,0.010:
0000
0000
0000
0000
,
0000
0000
0000
0000
,
0000
0000
0000
0000
,
0000
0000
0000
0000
,
1000
0000
0001
0100
0001
0000
0000
0000
,
1000
0000
0010
1000
0010
0000
0000
0000
,
0100
0001
0010
0100
,
1000
0000
0001
1000
0001
0000
1001
0000
,
1000
0000
0010
0100
0010
0000
0100
0000
,
0001
0000
0010
0001
0010
0000
0001
0000
,
0100
0000
0010
0000
1000
0100
1000
0000
,
0010
0000
0100
0001
0100
0000
0010
0000
,
1000
0000
0001
0000
0010
0001
0010
0000
,
0001
0000
0100
0001
0100
0000
0010
0000
,
1000
0100
0010
0001
,
1000
0001
1000
1001
,
1000
0000
0010
1000
0010
0000
0100
0010
,
0100
0000
0001
0100
0001
0000
0010
0001
,
0010
0000
0001
1000
0001
0000
0010
0000
,
0001
0000
0100
0010
0100
0000
0110
0000
,
0010
0000
1000
0100
1000
0000
0010
0000
,
0100
0000
0001
0100
0001
0000
0010
0000
,
0001
0010
0001
0000
1000
0010
1000
0000
,
1001
0000
0110
1001
,
0001
0000
0010
0001
0100
0000
0001
0000
,
0010
0000
0100
1000
0010
0000
1000
0000
,
0001
0010
0001
0000
1000
0010
1000
0000
,
0001
0000
0100
0001
1000
0000
0100
0000
,
1000
0010
0100
0000
0001
0000
0010
0000
,
0001
0100
0000
0010
1000
0000
0100
0000
,
0010
0001
1000
0010
,
0100
0001
0100
0000
0010
0000
1000
0000
,
0100
0010
0100
0000
0010
0000
0001
0010
,
0001
0000
0100
0000
0010
0000
1000
0001
,
1000
0010
1000
0100
,
0010
0001
1000
0010
,
0100
0000
0001
0100
0001
0000
0010
0000
,
0001
0000
1000
0001
1000
0000
0010
0000
,
0100
0000
0001
0000
0010
0000
0001
1000
,
0001
1000
0010
1000
,
0100
0000
0010
0001
0010
0000
0001
0000
,
0100
0000
0010
1000
0010
0000
1000
0000
,
0100
0001
0100
1000
,
0010
0000
0100
0010
0100
0000
0001
0000
,
0010
0000
0001
0000
1000
0000
0010
1000
,
0010
0000
0100
0000
0001
0000
1000
0001
,
1000
0010
1000
0100
,
0001
0100
1000
0100
,
0001
0000
0010
0001
0010
0000
0011
0000
,
0001
0000
0100
0001
0100
0000
0010
0000
,
1000
0000
0100
1000
0100
0000
0010
0001
,
0010
0000
0001
0100
0001
0000
0100
0000
,
0010
1000
0010
0000
1000
0100
1000
0000
,
0001
0000
0010
0001
0010
0000
0001
0000
,
0100
0010
1000
0100
,
0001
0100
0001
0000
0100
0000
1000
0000
,
0010
1000
0010
0000
0100
0000
0001
0100
,
0001
0000
0010
0000
0001
0000
1000
0001
,
1000
0010
1000
0100
,
0001
0100
0001
0000
0100
1000
0100
0000
,
0010
0001
0010
0000
0001
0000
1000
0001
,
1000
0000
0010
0000
1000
0000
0100
0010
,
0100
0010
0001
1000
,
0010
0000
0000
1000
0000
0000
0100
0000
0000
0010
0000
0000
0001
0000
1000
0000
;

//---------------dance-single - ----------------
#NOTES:
     dance-single:
     :
     Beginner:
     1:
     0.108,0.156,0.000,0.010,0.000:
0000
0000
0000
0000
,
0000
0000
0000
0000
,
0000
0000
0000
0000
,
0000
0000
0000
0000
,
1000
0000
0000
0000
,
0010
0000
0000
0000
,
0100
0000
0000
0000
,
0001
0000
0001
0000
,
0001
0000
0000
0000
,
0010
0000
0000
0000
,
0100
0000
0000
0000
,
1000
0000
1000
0000
,
1000
0000
0000
0000
,
0010
0000
0000
0000
,
0100
0000
0000
0000
,
0001
0000
0001
0000
,
0001
0000
0000
0000
,
0010
0000
0000
0000
,
1000
0000
0000
0000
,
0010
0000
0000
0000
,
0001
0000
0000
0000
,
0100
0000
0000
0000
,
0010
0000
0010
0000
,
0010
0000
0000
0000
,
1000
0000
1000
0000
,
1000
0000
0000
0000
,
0001
0000
0001
0000
,
0001
0000
0000
0000
,
0100
0000
0100
0000
,
0100
0000
0000
0000
,
0010
0000
0010
0000
,
0010
0000
0000
0000
,
1000
0000
0000
0000
,
0001
0000
0000
0000
,
0020
0000
0000
0030
,
0000
0000
0000
0000
,
0001
0000
0000
0000
,
1000
0000
0000
0000
,
0100
0000
0000
0000
,
0001
0000
0000
0000
,
0100
0000
0000
0000
,
1000
0000
0000
0000
,
0010
0000
0000
0000
,
0100
0000
0000
0000
,
0001
0000
0000
0000
,
0010
0000
0010
0000
,
0010
0000
0000
0000
,
0100
0000
0000
0000
,
1000
0000
1000
0000
,
1000
0000
0000
0000
,
0001
0000
0001
0000
,
0001
0000
0000
0000
,
0010
0000
0010
0000
,
0010
0000
0000
0000
,
0100
0000
0100
0000
,
0100
0000
0000
0000
,
1000
0000
0000
0000
,
0010
0000
0000
0000
,
0100
0000
0000
0000
,
0001
0000
0001
0000
,
0001
0000
0000
0000
,
0010
0000
0000
0000
,
0100
0000
0000
0000
,
1000
1000
1000
1000
;

//---------------dance-single - ----------------
#NOTES:
     dance-single:
     :
     Easy:
     4:
     0.278,0.312,0.010,0.000,0.000:
0000
0000
0000
0000
,
0000
0000
0000
0000
,
0000
0000
0000
0000
,
0000
0000
0000
0000
,
1000
0100
1000
0000
,
0001
0010
0001
0000
,
1000
0010
0100
0001
,
0100
0010
1000
1001
,
0001
0010
0100
0000
,
1000
0010
0001
0000
,
0010
1000
0100
0001
,
0100
0000
1000
0000
,
0010
0000
0100
0001
,
0010
0001
1000
0000
,
0100
0010
0001
1000
,
0010
0100
0001
0000
,
0010
0010
0001
0001
,
0100
0100
0010
0010
,
0000
1000
0100
0001
,
0100
1000
0010
0000
,
0100
0001
0010
0000
,
1000
0010
0001
0000
,
0100
0010
1000
0001
,
0010
0000
0001
1000
,
0100
1000
0001
0000
,
0010
0001
1000
0000
,
0010
1000
0100
0001
,
0100
1000
0010
0000
,
0100
0001
0010
1000
,
0010
0001
0100
0000
,
0010
1000
0100
1000
,
0001
0010
0001
0000
,
1000
0000
0010
0100
,
0001
0100
0010
1000
,
0001
0000
0010
0000
,
0001
1000
0100
0000
,
0001
0001
0100
0100
,
1000
1000
0010
0010
,
0000
0100
0001
0010
,
0001
1000
0010
0000
,
1000
1000
0100
0100
,
0010
0010
0001
0001
,
0000
1000
0010
0100
,
0001
0010
0001
0000
,
0100
0000
0010
1000
,
0100
0001
0100
1000
,
0010
0000
0100
0000
,
0001
0000
0010
0001
,
1000
1000
0100
0000
,
0001
0001
0100
0000
,
1000
0010
0100
0001
,
0010
0001
1000
0000
,
0010
1000
0100
0001
,
0100
1000
0010
0000
,
0100
0001
0010
0001
,
1000
0010
1000
0000
,
0100
0000
1000
0001
,
0010
0001
1000
0010
,
0100
0000
0001
0000
,
0010
0000
0100
1000
,
0001
0000
0010
0001
,
0100
0010
1000
0100
,
0010
0000
0001
0000
,
1000
0000
0010
0000
0100
0000
0001
0001
;

//---------------dance-single - ----------------
#NOTES:
     dance-single:
     :
     Hard:
     7:
     0.547,0.531,0.137,0.381,0.220: // measure 1
0000
0000
0000
0000
,  // measure 2
0000
0000
0000
0000
,  // measure 3
0000
0000
0000
0000
,  // measure 4
0000
0000
0000
0000
,  // measure 5
1000
0000
0000
0010
0000
0000
0100
0000
0001
0000
0000
0000
0000
0000
0000
0000
,  // measure 6
1000
0000
0000
0100
0000
0000
0010
0000
0001
0000
0000
0000
0000
0000
0000
0000
,  // measure 7
1000
0000
0000
0000
0010
0000
0100
0000
0010
0000
0000
0100
0000
0000
0001
0000
,  // measure 8
0010
0000
0000
0100
0000
0000
1000
0000
0001
0000
0000
0000
1001
0000
0000
0000
,  // measure 9
1000
0000
0000
0010
0000
0000
0100
0000
0002
0000
0000
0000
1003
0000
0000
0000
,  // measure 10
0001
0000
0000
0010
0000
0000
0100
0000
2000
0000
0000
0000
3001
0000
0000
0000
,  // measure 11
1000
0000
0010
0100
0010
1000
0100
0010
,  // measure 12
0002
0000
1000
1000
1003
0000
0001
0000
,  // measure 13
0101
0000
0100
0000
0010
1000
0100
1000
,  // measure 14
0001
0000
0000
0010
0000
0000
0001
0000
0200
0000
0000
0000
0310
0000
0000
0000
,  // measure 15
0110
0000
0010
1000
0100
0000
0010
0001
,  // measure 16
0100
0000
0000
0010
0000
0000
1000
0000
0002
0000
0000
0000
1003
0000
0001
0000
,  // measure 17
0101
0000
0000
0001
0000
0000
0100
0000
0010
0000
0000
1000
0000
0000
0010
0000
,  // measure 18
0100
0000
0000
0001
0000
0000
1000
0000
0100
0000
0000
0010
0000
0000
0001
0000
,  // measure 19
1000
0000
0000
0000
0010
0000
1000
0000
0001
0000
0000
0010
0000
0000
0001
0000
,  // measure 20
0100
0000
0000
0010
0000
0000
1000
0000
0200
0000
0000
0000
0310
0000
0100
0000
,  // measure 21
1100
0000
0000
1000
0000
0000
0020
0000
0000
0000
0100
0000
0130
0000
0010
0000
,  // measure 22
0100
0000
0000
0001
0000
0000
0010
0000
0200
0000
0000
0000
1300
0000
0000
0000
,  // measure 23
1100
0000
1000
0100
0010
0001
1000
0000
,  // measure 24
2002
3003
1010
0101
,  // measure 25
0011
0000
0000
0010
0000
0000
0100
0000
2000
0000
0000
0000
3001
0000
0000
0000
,  // measure 26
1000
0000
0000
0010
0000
0000
0100
0000
0002
0000
0000
0000
0013
0000
0000
0000
,  // measure 27
0001
0000
0000
0100
0000
0000
0010
0000
1000
0000
0000
0100
0000
0000
0010
0000
,  // measure 28
0001
0000
1000
0010
0200
0000
0310
0000
,  // measure 29
0100
0001
0010
0001
0000
0100
0010
1000
,  // measure 30
0010
0100
0000
0002
0000
1000
1003
0001
,  // measure 31
0200
0320
2030
3001
,  // measure 32
1000
0100
0001
0100
2000
0000
3010
0100
,  // measure 33
0001
0000
0010
0000
0000
0000
0001
0000
0100
0000
0000
0010
0000
0000
1000
0000
,  // measure 34
0002
0000
0100
0103
0000
0001
0100
0010
,  // measure 35
2000
3001
0200
0310
,  // measure 36
1000
0100
0010
0000
0001
0100
0010
0100
,  // measure 37
0001
0000
0000
0010
0000
0000
0100
0000
1000
0000
0000
0010
0000
0000
0100
0000
,  // measure 38
0001
0000
0000
0100
0000
0000
0010
0000
1000
0000
0000
0100
0000
0000
0010
0000
,  // measure 39
0001
0000
0000
0000
1000
0000
0010
0000
1000
0000
0000
0010
0000
0000
0100
0000
,  // measure 40
0001
0000
0000
0010
0000
0000
0100
0000
2000
0000
0000
0000
3001
0000
0000
0000
,  // measure 41
0101
0000
0000
0100
0000
0000
0010
0000
1000
0000
0000
0100
0000
0000
0010
0000
,  // measure 42
0100
0000
0000
1000
0000
0000
0001
0000
0010
0000
0000
0001
0000
0000
0100
0000
,  // measure 43
0010
0000
0000
0000
1000
0000
0100
0000
0001
0000
0000
0100
0000
0000
1000
0000
,  // measure 44
0010
0000
0000
0100
0000
0000
0001
0000
0020
0000
0000
0000
0031
0000
0000
0000
,  // measure 45
0011
0000
0000
0000
0001
0000
0100
0000
0010
0000
0000
1000
0000
0000
0001
0000
,  // measure 46
0200
0000
0010
0310
0000
0100
0010
1000
,  // measure 47
0200
0310
0002
1003
,  // measure 48
0001
0100
0010
0000
1000
0100
0001
0100
,  // measure 49
1000
0000
0000
0010
0000
0000
0100
0000
0001
0000
0000
0000
0101
0000
0000
0000
,  // measure 50
0001
0000
0000
0010
0000
0000
0100
0000
2000
0000
0000
0000
3100
0000
0000
0000
,  // measure 51
1000
0000
0000
0010
0000
0000
0001
0000
1000
0000
0000
0100
0000
0000
0001
0000
,  // measure 52
1000
0000
0000
0010
0000
0000
0100
0000
0002
0000
0000
0000
0013
0000
0000
0000
,  // measure 53
0001
0010
0100
1000
0000
0010
1000
0001
,  // measure 54
0100
0001
0000
0020
0000
0100
0130
0010
,  // measure 55
0200
2300
3020
0130
,  // measure 56
0001
0100
0010
1000
0002
0000
1003
0001
,  // measure 57
0100
0000
0010
0000
0000
0000
1000
0000
0100
0000
0000
0010
0000
0000
0001
0000
,  // measure 58
2000
0000
0010
3010
0000
1000
0010
0100
,  // measure 59
0002
0103
2000
3100
,  // measure 60
0001
0010
0100
0000
1000
0010
0100
0010
,  // measure 61
1010
0000
0000
0000
1000
0000
0100
0000
0010
0000
0000
0001
0000
0000
0100
0000
,  // measure 62
0020
0000
0100
0130
0000
0010
1000
0100
,  // measure 63
0020
0031
0200
0310
,  // measure 64
1000
0010
0000
0010
0100
0000
0100
0001
0000
0001
1000
0000
0100
0000
0010
0000
;
