#TITLE:Lidl;
#SUBTITLE:(Donk Remix);
#ARTIST:DJ Shoujo;
#TITLETRANSLIT:;
#SUBTITLETRANSLIT:;
#ARTISTTRANSLIT:;
#CREDIT:;
#BANNER:;
#BACKGROUND:;
#LYRICSPATH:Lidl (Donk Remix).lrc;
#CDTITLE:;
#MUSIC:Lidl (Donk Remix).mp3;
#OFFSET:-6.440;
#SAMPLESTART:76.820;
#SAMPLELENGTH:12.800;
#SELECTABLE:YES;
#BPMS:0.000=150.000;
#STOPS:;
#BGCHANGES:;

//---------------dance-single - ----------------
#NOTES:
     dance-single:
     :
     Hard:
     7:
     0.529,0.483,0.218,0.132,0.014: // measure 1
0010
0001
0100
0000
0010
0000
1000
0000
,  // measure 2
0002
0000
0000
0000
1000
0000
0000
1000
0000
0000
1003
0000
0000
0000
0001
0000
,  // measure 3
1000
0000
0100
0000
0010
0100
1000
0000
,  // measure 4
1001
0000
0000
0110
0000
0000
1001
0000
0000
0000
0220
0000
0330
0000
0000
0000
,  // measure 5
0010
1000
0100
0000
0010
0000
0100
0000
,  // measure 6
0010
0001
0100
0000
0001
1000
0100
0000
,  // measure 7
1000
0001
0100
0000
1000
0000
0100
0000
,  // measure 8
0001
0100
0010
1000
0100
0010
0100
0000
,  // measure 9
0010
0001
0100
0000
0001
0000
1000
0000
,  // measure 10
0001
1000
0100
0000
0010
0100
1000
0000
,  // measure 11
0001
1000
0010
0000
0100
0000
0001
0000
,  // measure 12
1000
0100
0001
0100
1000
0001
1000
0000
,  // measure 13
0120
0000
1000
0000
0130
0010
0100
0000
,  // measure 14
0001
1000
0100
1000
0001
1000
0010
0000
,  // measure 15
0100
0010
1000
0000
0001
1000
0100
0010
,  // measure 16
0100
0000
0010
0100
0010
0010
0001
0001
,  // measure 17
1000
0000
0010
0100
0010
0000
1001
0000
,  // measure 18
0001
0000
0010
0001
0100
1000
0100
0001
,  // measure 19
1000
0000
0010
1000
0100
0000
0110
0000
,  // measure 20
0010
0001
1000
0100
0010
0200
1300
0000
,  // measure 21
0001
0100
1000
0100
1000
0100
0001
0100
,  // measure 22
0010
0000
1000
0100
0020
0000
0130
0000
,  // measure 23
0001
0010
0100
0010
0001
0100
1000
0100
,  // measure 24
0010
0100
0001
0001
1000
1000
1001
0000
,  // measure 25
0001
0010
0100
1000
0100
0000
1001
0000
,  // measure 26
0001
0100
0010
1000
0010
0000
0101
0000
,  // measure 27
0100
0010
1000
0000
0001
1000
0100
0010
,  // measure 28
0200
0000
0000
0010
0000
0000
0010
0000
0000
0000
0010
0000
0310
0000
0000
0000
,  // measure 29
0001
0100
1000
0100
,  // measure 30
0001
0000
1000
0100
1000
0100
0010
0001
,  // measure 31
0010
0001
1000
0010
,  // measure 32
0100
0000
0001
0100
0010
1000
0100
0010
,  // measure 33
0100
0000
1100
0000
1000
0001
0100
0000
,  // measure 34
0010
0000
1001
0000
0001
0010
0100
0000
,  // measure 35
0010
0001
0100
0010
1000
0000
0001
0000
,  // measure 36
0220
0000
0000
0330
,  // measure 37
1001
0000
0001
0010
0100
0010
0001
0000
,  // measure 38
1000
0010
0100
0001
1000
0000
0100
0000
,  // measure 39
0001
0100
1000
0100
0010
0100
0000
0010
,  // measure 40
0001
0000
0010
0001
1000
0010
0100
0000
,  // measure 41
0010
1000
0001
1000
0100
0010
0100
0000
,  // measure 42
0010
0001
0100
0001
1000
0010
0100
0000
,  // measure 43
0010
0100
0001
0010
0100
0010
0001
1000
,  // measure 44
2002
0000
0000
3003
,  // measure 45
0001
0100
0010
1000
0100
1000
0100
0000
,  // measure 46
1000
0100
0001
0100
1000
0001
0100
0000
,  // measure 47
0010
0100
0001
0010
0100
1000
0001
0000
,  // measure 48
1000
0010
0100
1000
0100
0001
1000
0000
,  // measure 49
0001
0010
0001
0010
0100
1000
0100
1000
,  // measure 50
0000
0001
0010
0001
0100
0010
0100
0001
,  // measure 51
0000
0010
0001
0000
1000
0001
1000
0010
,  // measure 52
0000
0100
0001
0010
0100
0010
0200
0000
,  // measure 53
1300
0000
0001
0000
0100
0001
0100
0010
,  // measure 54
0000
0100
0010
1000
0100
0010
0100
1000
,  // measure 55
0000
0001
0010
0000
0100
0010
0001
0100
,  // measure 56
0000
1000
0100
0001
1000
0100
1000
0000
,  // measure 57
1001
0000
0010
0001
0100
0010
1000
0000
,  // measure 58
0011
0000
1000
0100
0010
0100
1000
0000
,  // measure 59
0101
0010
1001
0010
,  // measure 60
1100
0011
0202
0303
,  // measure 61
1001
0000
0000
0000
;

//---------------dance-single - ----------------
#NOTES:
     dance-single:
     :
     Medium:
     5:
     0.420,0.396,0.161,0.237,0.005: // measure 1
2000
0000
0000
0002
0000
0000
3003
0000
,  // measure 2
0002
0000
0000
0100
0000
0103
0000
0000
,  // measure 3
2000
0000
0000
0010
0000
3010
1000
0000
,  // measure 4
0010
0000
0000
1000
0000
0000
1001
0000
0000
0000
2002
0000
3003
0000
0000
0000
,  // measure 5
0001
0000
0001
0000
0001
0100
0010
0000
,  // measure 6
0100
0000
0010
0000
1000
0010
1000
0000
,  // measure 7
0001
0000
1000
0000
0100
0010
0100
0000
,  // measure 8
0010
0001
0010
0000
0001
1000
0010
0000
,  // measure 9
0100
0000
0100
0000
0010
1000
0001
0000
,  // measure 10
1000
0000
1000
0000
0001
0010
0100
0000
,  // measure 11
0010
0000
0001
0000
1000
0010
0100
0000
,  // measure 12
0010
0100
0001
0000
1000
0001
1000
0000
,  // measure 13
2002
0000
3003
0000
0001
0100
0001
0000
,  // measure 14
2000
0000
3000
0000
0100
1000
0100
0000
,  // measure 15
0020
0000
0030
0000
0001
0100
0001
0000
,  // measure 16
2000
3000
0010
0100
,  // measure 17
1000
0100
0010
0100
,  // measure 18
1000
0000
0001
0000
0100
0010
0100
0000
,  // measure 19
0010
1000
0001
1000
,  // measure 20
0001
0100
2002
3003
,  // measure 21
0001
0000
1000
0000
0100
0010
0100
0000
,  // measure 22
0010
0001
2002
3003
,  // measure 23
1000
0010
0100
0000
0001
0100
0010
0000
,  // measure 24
1000
0000
0001
0000
1000
0100
0010
0000
,  // measure 25
0001
0000
0010
0000
0001
0100
1000
0000
,  // measure 26
0100
0000
0001
0000
1000
0100
0001
0000
,  // measure 27
0100
0010
0001
1000
,  // measure 28
2002
0000
0000
3003
,  // measure 29
1001
0000
0000
0000
1000
0010
1000
0000
,  // measure 30
0001
0000
0000
0000
0100
0100
0100
0000
,  // measure 31
0010
0000
0000
0000
1000
0010
0100
0000
,  // measure 32
0001
0000
1000
0010
1000
0010
1000
0000
,  // measure 33
0100
0000
0010
0000
1000
0100
1000
0000
,  // measure 34
0001
0000
0010
0000
0001
1000
0001
0000
,  // measure 35
1000
0100
0001
0100
,  // measure 36
2002
0000
0000
3003
,  // measure 37
1000
0000
0010
0000
0100
0001
0100
0000
,  // measure 38
0001
1000
0100
0000
0220
0000
0330
0000
,  // measure 39
0010
0000
0100
0000
0010
0001
0100
0000
,  // measure 40
0010
0000
1000
0000
0001
0100
1000
0000
,  // measure 41
0100
0000
0010
0000
1000
0100
0001
0000
,  // measure 42
0100
0000
0010
0000
0001
0100
0010
0000
,  // measure 43
1000
0000
0001
0000
0100
0010
0100
0000
,  // measure 44
2002
0000
0000
3003
,  // measure 45
0010
0000
1000
0000
0001
0100
0001
0000
,  // measure 46
1000
0000
0100
0000
1000
0100
1000
0000
,  // measure 47
0001
0000
0010
0000
0100
0010
0100
0000
,  // measure 48
0010
0001
0100
0000
0010
1000
0100
0000
,  // measure 49
1000
0000
0001
0000
1000
0010
0001
0000
,  // measure 50
0010
0000
1000
0000
0001
0010
1000
0000
,  // measure 51
0010
0000
0001
0000
0100
0010
0100
0000
,  // measure 52
0010
1000
0100
0000
0010
0001
0100
0000
,  // measure 53
0001
0000
1000
0000
0010
0010
0010
0000
,  // measure 54
0100
0001
0100
0000
0010
0010
0010
0000
,  // measure 55
0100
0000
0001
0000
0010
0010
0010
0000
,  // measure 56
0100
0010
0001
0000
1000
0010
0100
0000
,  // measure 57
1001
0000
0010
0000
0100
0100
0100
0000
,  // measure 58
0110
0000
1000
0000
0001
0001
0001
0000
,  // measure 59
1010
0100
0011
0100
,  // measure 60
1001
0110
2002
3003
;

//---------------dance-single - ----------------
#NOTES:
     dance-single:
     :
     Easy:
     3:
     0.231,0.256,0.123,0.085,0.000: // measure 1
1001
0000
0000
0000
,  // measure 2
0001
0000
0100
0000
,  // measure 3
0110
0000
0000
0000
,  // measure 4
1001
0000
0000
0000
,  // measure 5
0110
0000
0010
0000
,  // measure 6
1000
0001
1000
0000
,  // measure 7
0001
0000
1000
0000
,  // measure 8
0001
1000
0001
0000
,  // measure 9
1000
0000
0100
0000
,  // measure 10
0010
0100
0010
0000
,  // measure 11
0001
0000
1000
0000
,  // measure 12
0001
1000
0001
0000
,  // measure 13
0220
0000
0330
0000
,  // measure 14
0001
1000
0001
1000
,  // measure 15
0002
0000
0003
0000
,  // measure 16
0010
0100
0010
0100
,  // measure 17
0010
0000
0001
0000
,  // measure 18
1000
0001
1000
0001
,  // measure 19
1000
0000
0001
0000
,  // measure 20
0100
0000
0010
0000
,  // measure 21
1001
0000
0001
1000
,  // measure 22
0001
0000
1000
0010
,  // measure 23
1000
0000
0001
0100
,  // measure 24
0001
0000
0100
0010
,  // measure 25
0100
0000
0001
0001
,  // measure 26
0001
0000
1000
1000
,  // measure 27
1000
0000
0100
0100
,  // measure 28
0220
0000
0000
0330
,  // measure 29
1001
0000
0000
0000
,  // measure 30
0001
1000
0001
1000
,  // measure 31
0100
0000
0000
0000
,  // measure 32
0010
0100
0010
0100
,  // measure 33
1000
0000
0001
0001
,  // measure 34
0001
0000
1000
1000
,  // measure 35
1000
0000
0010
0010
,  // measure 36
0220
0000
0000
0330
,  // measure 37
1001
0000
0001
0000
,  // measure 38
1000
0001
1000
0000
,  // measure 39
0100
0000
0010
0000
,  // measure 40
0100
0000
1000
0001
,  // measure 41
1000
0000
0010
0000
,  // measure 42
0100
0000
0001
0010
,  // measure 43
0001
0000
1000
0000
,  // measure 44
0220
0000
0000
0330
,  // measure 45
1001
0000
0001
0000
,  // measure 46
1000
0001
1000
0000
,  // measure 47
0001
0000
0100
0000
,  // measure 48
0010
0100
0010
0000
,  // measure 49
0100
0000
0001
0000
,  // measure 50
1000
1000
1000
0000
,  // measure 51
0001
0000
1000
0000
,  // measure 52
0100
0100
0100
0000
,  // measure 53
0010
0000
0100
0000
,  // measure 54
0010
0001
0010
0001
,  // measure 55
1000
0000
0001
0000
,  // measure 56
1000
0001
1000
0001
,  // measure 57
0100
0000
0010
0000
,  // measure 58
0100
0010
0100
0010
,  // measure 59
1000
0000
0001
0000
,  // measure 60
1000
0001
1000
0000
,  // measure 61
1001
0000
0000
0000
;

//---------------dance-single - ----------------
#NOTES:
     dance-single:
     :
     Beginner:
     1:
     0.134,0.227,0.123,0.000,0.000: // measure 1
1000
0000
0000
0000
,  // measure 2
0001
0000
0000
0000
,  // measure 3
0100
0000
0000
0000
,  // measure 4
0010
0000
0000
0000
,  // measure 5
1001
0000
0000
0000
,  // measure 6
0010
0000
0100
0000
,  // measure 7
0001
0000
0000
0000
,  // measure 8
1000
0000
0001
0000
,  // measure 9
1000
0000
0000
0000
,  // measure 10
0100
0000
0010
0000
,  // measure 11
0100
0000
0000
0000
,  // measure 12
1000
0000
0001
0000
,  // measure 13
1001
0000
0000
0000
,  // measure 14
1000
0000
0000
0000
,  // measure 15
0100
0000
0000
0000
,  // measure 16
0010
0000
0000
0000
,  // measure 17
0001
0000
0000
0000
,  // measure 18
0100
0000
0000
0000
,  // measure 19
0010
0000
0000
0000
,  // measure 20
1000
0000
0000
0000
,  // measure 21
1001
0000
0000
0000
,  // measure 22
0001
0000
0000
0000
,  // measure 23
0010
0000
0000
0000
,  // measure 24
0001
0000
0000
0000
,  // measure 25
1000
0000
0000
0000
,  // measure 26
0100
0000
0000
0000
,  // measure 27
0010
0000
0000
0000
,  // measure 28
0110
0000
0000
0000
,  // measure 29
1001
0000
0000
0000
,  // measure 30
0001
0000
0100
0000
,  // measure 31
0001
0000
0000
0000
,  // measure 32
1000
0000
0001
0000
,  // measure 33
1000
0000
0000
0000
,  // measure 34
0100
0000
0010
0000
,  // measure 35
0100
0000
0000
0000
,  // measure 36
1001
0000
0000
0000
,  // measure 37
0110
0000
0000
0000
,  // measure 38
0010
0000
0001
0000
,  // measure 39
1000
0000
0000
0000
,  // measure 40
0001
0000
1000
0000
,  // measure 41
0010
0000
0000
0000
,  // measure 42
0100
0000
0010
0000
,  // measure 43
1000
0000
0000
0000
,  // measure 44
1001
0000
0000
0000
,  // measure 45
0110
0000
0000
0000
,  // measure 46
0100
0000
0001
0000
,  // measure 47
1000
0000
0100
0000
,  // measure 48
0010
0000
0100
0000
,  // measure 49
0010
0000
0000
0000
,  // measure 50
0100
0000
1000
0000
,  // measure 51
0001
0000
0100
0000
,  // measure 52
0010
0000
1000
0000
,  // measure 53
0001
0000
1000
0000
,  // measure 54
0100
0000
0010
0000
,  // measure 55
0100
0000
1000
0000
,  // measure 56
0001
0000
1000
0000
,  // measure 57
1001
0000
0001
0000
,  // measure 58
1001
0000
1000
0000
,  // measure 59
1001
0000
0001
0000
,  // measure 60
1000
1000
1000
0000
,  // measure 61
1001
0000
0000
0000
;
