#TITLE:LALALA;
#SUBTITLE:;
#ARTIST:Kabouter Plop;
#TITLETRANSLIT:;
#SUBTITLETRANSLIT:;
#ARTISTTRANSLIT:;
#CREDIT:;
#BANNER:[Last Word] - LALALA.png;
#BACKGROUND:[Last Word] - LALALA-bg.png;
#LYRICSPATH:;
#CDTITLE:;
#MUSIC:[Last Word] - LALALA.mp3;
#OFFSET:-0.716;
#SAMPLESTART:8.050;
#SAMPLELENGTH:18.020;
#SELECTABLE:YES;
#BPMS:0.000=130.000;
#STOPS:;
#BGCHANGES:;

//---------------dance-single - ----------------
#NOTES:
     dance-single:
     :
     Hard:
     9:
     0.626,0.878,0.362,0.161,0.573:
0000
0000
0000
0000
,
0000
0000
0000
0000
,
0000
0000
0000
0000
,
0000
0000
0000
0000
,
1001
0000
0000
0001
0100
0000
0000
0100
1000
0000
0000
1000
0100
0000
0000
0100
,
0010
0000
0000
0010
1000
0000
0000
1000
0001
0000
0100
0000
1000
0000
0100
0000
,
0001
0000
0000
0001
0010
0000
0000
0010
0100
0000
0000
0100
1000
0000
0000
1000
,
0010
0000
0000
0010
0001
0000
0000
0001
0010
0000
1000
0000
0100
0000
1000
0000
,
1001
0000
0000
1000
0100
0000
0000
0100
0001
0000
0000
0001
0100
0000
0000
0100
,
0010
0000
0000
0010
1000
0000
0000
1000
0010
0000
0001
0000
0100
0000
0010
0000
,
1000
0000
0000
1000
0100
0000
0000
0100
0001
0000
0000
0001
0100
0000
0000
0100
,
1000
0010
0100
0001
1000
0100
0010
0001
,
1001
0000
0000
0001
0100
0000
0000
0100
1000
0000
0000
1000
0100
0000
0000
0100
,
0001
0000
0000
0001
0010
0000
0000
0010
1000
0000
0010
0000
0001
0000
0100
0000
,
0010
0000
0000
0010
1000
0000
0000
1000
0100
0000
0000
0100
0001
0000
0000
0001
,
0100
0000
0000
0100
0010
0000
0000
0010
0001
0000
0010
0000
1000
0000
0010
0000
,
0110
0000
0000
0010
0001
0000
0000
0001
0100
0000
0000
0100
1000
0000
0000
1000
,
0100
0000
0000
0100
0010
0000
0000
0010
1000
0000
0010
0000
0001
0000
0010
0000
,
1000
0000
0000
1000
0100
0000
0000
0100
0001
0000
0000
0001
0100
0000
1000
0000
,
1001
0001
0100
0000
0010
1000
0100
0000
,
1000
0000
0100
0000
0001
0000
0100
0000
1000
0100
1000
0000
0010
0000
0100
0000
,
1000
0000
0100
0000
0010
0000
1000
0000
0010
1000
0010
0000
0100
0000
0001
0000
,
1000
0000
0010
0000
1000
0000
0100
0000
0001
0100
0001
0000
0100
0000
1000
0000
,
0010
0001
0010
1000
0100
0001
0100
1000
,
0010
0000
0100
0000
0001
0000
0010
0000
0100
1000
0100
0000
0010
0000
0001
0000
,
0100
0000
0010
0000
0001
0000
0010
0000
0100
1000
0100
0000
0001
0000
0100
0000
,
0010
0000
1000
0000
0100
0000
0010
0000
0001
0100
0001
0000
0010
0000
1000
0000
,
0010
0001
0100
1000
0100
0001
1000
0010
,
1000
0000
0100
0000
0010
0000
0001
0000
0010
0000
0100
0000
2200
0000
0000
3300
0000
0000
MMMM
0000
0000
0000
0000
0000
,
0001
0000
0100
0000
0010
0000
1000
0000
0010
0000
0100
0000
0202
0000
0000
0303
0000
0000
MMMM
0000
0000
0000
0000
0000
,
0001
0000
0010
0000
0100
0000
1000
0000
0100
0000
0010
0000
0022
0000
0000
0033
0000
0000
MMMM
0000
0000
0000
0000
0000
,
1000
0000
0010
0000
0100
0000
0001
0000
0100
0000
0010
0000
2020
0000
0000
3030
0000
0000
MMMM
0000
0000
0000
0000
0000
,
1100
MMMM
0110
MMMM
0011
MMMM
0101
MMMM
,
0110
MMMM
1010
MMMM
1100
MMMM
0110
MMMM
,
0011
0011
0022
MM33
1100
1100
2200
33MM
,
0101
0101
1010
1010
0011
0011
2200
33MM
,
0001
0100
0001
0100
0001
0000
1000
0100
1000
0100
1000
0000
0001
1000
0001
1000
,
0001
0000
0000
0001
0100
0000
0000
0100
1000
0000
0000
1000
0100
0000
0000
0100
,
0010
0000
0000
0010
1000
0000
0000
1000
0001
0000
0100
0000
1000
0000
0100
0000
,
0001
0000
0000
0001
0010
0000
0000
0010
0100
0000
0000
0100
1000
0000
0000
1000
,
0010
0000
0000
0010
0001
0000
0000
0001
0010
0000
1000
0000
0100
0000
1000
0000
,
1001
0000
0000
1000
0100
0000
0000
0100
0001
0000
0000
0001
0100
0000
0000
0100
,
0010
0000
0000
0010
1000
0000
0000
1000
0010
0000
0001
0000
0100
0000
0010
0000
,
1000
0000
0000
1000
0100
0000
0000
0100
0001
0000
0000
0001
0100
0000
0000
0100
,
1000
0010
0100
0001
1000
0100
0010
0001
,
1001
0000
0000
0001
0100
0000
0000
0100
1000
0000
0000
1000
0100
0000
0000
0100
,
0001
0000
0000
0001
0010
0000
0000
0010
1000
0000
0010
0000
0001
0000
0100
0000
,
0010
0000
0000
0010
1000
0000
0000
1000
0100
0000
0000
0100
0001
0000
0000
0001
,
0100
0000
0000
0100
0010
0000
0000
0010
0001
0000
0010
0000
1000
0000
0010
0000
,
0110
0000
0000
0010
0001
0000
0000
0001
0100
0000
0000
0100
1000
0000
0000
1000
,
0100
0000
0000
0100
0010
0000
0000
0010
1000
0000
0010
0000
0001
0000
0010
0000
,
1000
0000
0000
1000
0100
0000
0000
0100
0001
0000
0000
0001
0100
0000
1000
0000
,
1001
0001
0101
0100
0220
0000
0000
0000
,
0330
0000
0000
0000
;

//---------------dance-single - ----------------
#NOTES:
     dance-single:
     :
     Beginner:
     1:
     0.106,0.158,0.050,0.000,0.000: // measure 1
0000
0000
0000
0000
,  // measure 2
0000
0000
0000
0000
,  // measure 3
0000
0000
0000
0000
,  // measure 4
0000
0000
0000
0000
,  // measure 5
1000
0000
0000
0000
,  // measure 6
0001
0000
0000
0000
,  // measure 7
0010
0000
0000
0000
,  // measure 8
0100
0000
0100
0000
,  // measure 9
0100
0000
0000
0000
,  // measure 10
1000
0000
0000
0000
,  // measure 11
0001
0000
0001
0000
,  // measure 12
0001
0000
0000
0000
,  // measure 13
1000
0000
0000
0000
,  // measure 14
0010
0000
0000
0000
,  // measure 15
0100
0000
0000
0000
,  // measure 16
0001
0000
0001
0000
,  // measure 17
0001
0000
0000
0000
,  // measure 18
1000
0000
0000
0000
,  // measure 19
0010
0000
0010
0000
,  // measure 20
0010
0000
0000
0000
,  // measure 21
0100
0000
0100
0000
,  // measure 22
0100
0000
0100
0000
,  // measure 23
0010
0000
0010
0000
,  // measure 24
0010
0000
0010
0000
,  // measure 25
1000
0000
1000
0000
,  // measure 26
1000
0000
1000
0000
,  // measure 27
0001
0000
0001
0000
,  // measure 28
0001
0000
0001
0000
,  // measure 29
1001
0000
0000
0000
,  // measure 30
0110
0000
0000
0000
,  // measure 31
1001
0000
0000
0000
,  // measure 32
0110
0000
0000
0000
,  // measure 33
1000
0000
0001
0000
,  // measure 34
1000
0000
0001
0000
,  // measure 35
1000
0000
1000
0000
,  // measure 36
0001
0000
0001
0000
,  // measure 37
0000
0000
0000
0000
,  // measure 38
1000
0000
0000
0000
,  // measure 39
0010
0000
0000
0000
,  // measure 40
0100
0000
0000
0000
,  // measure 41
0001
0000
0001
0000
,  // measure 42
0001
0000
0000
0000
,  // measure 43
0010
0000
0000
0000
,  // measure 44
0100
0000
0100
0000
,  // measure 45
0100
0000
0000
0000
,  // measure 46
1000
0000
0000
0000
,  // measure 47
0001
0000
0000
0000
,  // measure 48
0100
0000
0000
0000
,  // measure 49
0010
0000
0010
0000
,  // measure 50
0010
0000
0000
0000
,  // measure 51
0100
0000
0000
0000
,  // measure 52
0001
0000
0001
0000
,  // measure 53
0001
0000
1001
0000
;

//---------------dance-single - ----------------
#NOTES:
     dance-single:
     :
     Easy:
     3:
     0.250,0.343,0.131,0.000,0.000: // measure 1
0000
0000
0000
0000
,  // measure 2
0000
0000
0000
0000
,  // measure 3
0000
0000
0000
0000
,  // measure 4
0000
0000
0000
0000
,  // measure 5
1001
0000
0001
0000
,  // measure 6
0100
0010
0100
0001
,  // measure 7
0100
0000
0010
0000
,  // measure 8
1000
0100
0010
0100
,  // measure 9
1000
0000
0010
0000
,  // measure 10
0100
0001
0010
0001
,  // measure 11
0100
0010
1000
0010
,  // measure 12
0100
0000
0001
0000
,  // measure 13
1001
0000
1000
0000
,  // measure 14
0100
0010
0001
1000
,  // measure 15
0100
0000
0010
0000
,  // measure 16
0001
0100
0010
1000
,  // measure 17
0001
0000
1000
0000
,  // measure 18
0001
0100
1000
0100
,  // measure 19
0001
0010
1000
0010
,  // measure 20
0001
0000
1000
0000
,  // measure 21
0001
0001
0100
0100
,  // measure 22
0010
0010
1000
1000
,  // measure 23
0001
0001
0010
0010
,  // measure 24
0100
0100
1000
1000
,  // measure 25
0001
0001
0100
0100
,  // measure 26
1000
1000
0100
0100
,  // measure 27
0001
0001
0010
0010
,  // measure 28
1000
1000
0010
0010
,  // measure 29
0001
1000
1001
0000
,  // measure 30
0010
0100
0110
0000
,  // measure 31
1000
0001
1001
0000
,  // measure 32
0010
0100
0110
0000
,  // measure 33
0001
0100
0010
1000
,  // measure 34
0001
0010
0100
1000
,  // measure 35
0001
1001
1000
1001
,  // measure 36
0001
1001
1000
1001
,  // measure 37
0001
0100
0010
1000
,  // measure 38
1001
0000
0001
0000
,  // measure 39
0100
0010
0100
0001
,  // measure 40
0100
0000
0010
0000
,  // measure 41
1000
0100
0010
0100
,  // measure 42
1000
0000
0010
0000
,  // measure 43
0100
0001
0010
0001
,  // measure 44
0100
0010
1000
0010
,  // measure 45
0100
0000
0001
0000
,  // measure 46
1001
0000
1000
0000
,  // measure 47
0100
0010
0001
1000
,  // measure 48
0100
0000
0010
0000
,  // measure 49
0001
0100
0010
1000
,  // measure 50
0001
0000
1000
0000
,  // measure 51
0001
0100
1000
0100
,  // measure 52
0001
0010
1000
0010
,  // measure 53
0001
1000
1001
0000
;

//---------------dance-single - ----------------
#NOTES:
     dance-single:
     :
     Medium:
     5:
     0.400,0.399,0.311,0.020,0.000: // measure 1
0000
0000
0000
0000
,  // measure 2
0000
0000
0000
0000
,  // measure 3
0000
0000
0000
0000
,  // measure 4
0000
0000
0000
0000
,  // measure 5
1000
0000
0100
0000
0010
0001
0010
0000
,  // measure 6
0001
0000
0100
0000
0010
1000
0010
0000
,  // measure 7
0100
0000
0001
0000
1000
0100
1000
0000
,  // measure 8
0001
0000
0100
0000
0010
1000
0010
0000
,  // measure 9
1001
0000
1000
0000
0100
0010
0100
0000
,  // measure 10
0010
0000
0001
0000
0100
0010
0100
0000
,  // measure 11
0010
0000
1000
0000
0001
0100
0001
0000
,  // measure 12
1000
0100
1000
0000
0001
0010
0001
0000
,  // measure 13
1010
0000
0010
0000
0100
0001
0010
0000
,  // measure 14
0100
0000
1000
0000
0010
0100
0001
0000
,  // measure 15
1000
0000
0100
0000
0010
0001
1000
0000
,  // measure 16
0010
0000
0100
0000
0001
0100
0010
0000
,  // measure 17
1010
0000
1000
0000
0100
0001
1000
0000
,  // measure 18
0001
0000
0100
0000
0010
1000
0001
0000
,  // measure 19
1000
0100
1000
0000
0001
0100
0001
0000
,  // measure 20
1000
1100
0001
0101
,  // measure 21
1000
0100
1000
0000
0100
0001
0100
0000
,  // measure 22
0001
0010
0001
0000
0010
1000
0010
0000
,  // measure 23
1000
0100
1000
0000
0100
0001
0100
0000
,  // measure 24
0001
0010
0001
0000
0010
1000
0010
0000
,  // measure 25
1000
0100
1000
0000
0100
0001
0100
0000
,  // measure 26
0001
0010
0001
0000
0010
1000
0010
0000
,  // measure 27
1000
0100
1000
0000
0100
0001
0100
0000
,  // measure 28
0001
0010
0001
0000
0010
1000
0010
0000
,  // measure 29
1001
1001
1001
0000
,  // measure 30
0110
0110
0110
0000
,  // measure 31
1100
1100
1100
0000
,  // measure 32
0101
0101
0101
0000
,  // measure 33
1000
1010
0010
0110
,  // measure 34
0100
0101
0001
1001
,  // measure 35
1000
0001
1000
0000
0001
1000
0001
0000
,  // measure 36
1000
0010
0100
0001
1000
0100
0010
0000
,  // measure 37
0011
1100
0101
1010
,  // measure 38
1001
0000
0001
0000
0010
0000
0100
1000
,  // measure 39
0100
0000
1000
0000
0010
0000
0100
0001
,  // measure 40
0100
0000
0010
0000
1000
0000
0001
0010
,  // measure 41
0001
0000
1000
0000
0010
0000
0100
0001
,  // measure 42
0100
0000
1001
0000
0001
0000
0010
0100
,  // measure 43
0010
0000
0100
0000
1000
0000
0010
0100
,  // measure 44
0010
0000
0100
0000
0001
0000
1000
0010
,  // measure 45
1000
0000
0001
0010
0001
0000
1000
0100
,  // measure 46
1000
0000
0101
0000
0100
0000
0010
1000
,  // measure 47
0100
0000
0010
0000
0001
0000
0100
0010
,  // measure 48
1000
0000
0001
0000
0010
0000
0100
1000
,  // measure 49
0001
0000
0100
0000
0010
0000
1000
0010
,  // measure 50
0100
0000
0101
0000
0001
0000
0010
1000
,  // measure 51
0001
0000
1000
0000
0010
0000
0100
0001
,  // measure 52
1000
0000
0001
0010
0001
0000
1000
0010
,  // measure 53
1000
1001
0202
0000
,  // measure 54
0303
0000
0000
0000
;
