#TITLE:Elisha;
#SUBTITLE:;
#ARTIST:DJ Yoshitaka;
#TITLETRANSLIT:;
#SUBTITLETRANSLIT:;
#ARTISTTRANSLIT:;
#CREDIT:;
#BANNER:;
#BACKGROUND:;
#LYRICSPATH:;
#CDTITLE:;
#MUSIC:Elisha.mp3;
#OFFSET:0.117;
#SAMPLESTART:57.480;
#SAMPLELENGTH:12.000;
#SELECTABLE:YES;
#BPMS:0.000=185.001,8.000=92.500,8.500=185.001,15.500=92.500,16.000=185.001,171.000=201.003,171.500=220.004,172.000=238.003,172.500=249.003,173.000=265.013,173.500=278.003,174.000=299.003,174.500=325.004,175.000=348.004,175.500=361.004,176.000=370.004,177.000=185.005;
#STOPS:;
#BGCHANGES:;

//---------------dance-single - ----------------
#NOTES:
     dance-single:
     :
     Hard:
     9:
     0.523,0.736,0.137,0.255,0.146:
0000
0000
0000
0000
1000
0100
0001
0100
,
0010
0001
1000
0010
0100
0001
0010
0100
,
0010
0001
0000
0001
0100
1000
0100
0001
,
0010
0000
0000
0000
0100
0000
0000
0000
1000
0000
0000
0000
0001
0000
0000
0000
0100
0000
0000
0000
0010
0000
0000
0000
1000
0000
0000
0000
0010
1000
0010
0000
,
1000
0000
1000
0001
0100
0001
1000
0010
,
0100
0001
0010
0100
1000
0010
0100
0000
,
0010
0000
1000
0000
0010
1000
0000
0001
,
0000
0000
0001
0000
0010
0000
0100
0000
1000
0000
0010
0000
0100
0001
0010
0000
,
0001
2002
0000
0000
,
0000
0000
0000
0000
3003
0000
0001
0010
,
0100
1000
2200
0000
0000
0000
0000
0000
,
0000
0000
0000
0000
3300
0000
1000
0010
,
0100
0001
0202
0000
0000
0000
0000
0000
,
0000
0000
0000
0000
0303
0000
0001
0100
,
1000
0100
0202
0000
0000
0000
0303
0000
,
2100
0200
0000
3300
,
0102
0200
0000
0000
,
0000
0000
0000
0000
0303
0000
0001
0100
,
0010
0100
0220
0000
0000
0000
0000
0000
,
0000
0000
0000
0000
0330
0000
0100
0010
,
1000
0010
2020
0000
0000
0000
0000
0000
,
0000
0000
0000
0000
3030
0000
1000
0010
,
0100
0001
0201
0000
0000
0000
0000
0000
,
0000
0002
0000
0000
,
0303
0000
0000
0001
0000
0100
0001
0000
,
0010
0000
0100
0000
1000
0010
0000
0100
,
0000
0010
0000
1000
0000
0010
1000
0000
,
0010
0000
0100
0000
0001
0100
0000
0010
,
0000
0100
0000
0001
0000
0100
0001
0000
,
0100
0000
0010
0000
1000
0001
0000
1000
,
0000
0001
0000
1000
0000
0001
1000
0000
,
0010
0000
0100
0000
0001
0100
0000
0010
,
0000
0000
1000
0000
0100
0000
0010
0000
0001
0000
0000
0000
0010
0000
0000
0100
,
0000
0000
1000
0000
0000
0000
0001
0000
0100
0000
0000
0000
0010
0000
0000
1000
,
0000
0000
0001
0000
0000
0000
0010
0000
0100
0000
0000
0000
1000
0000
0000
0001
,
0000
0000
0100
0000
0000
0000
0010
0000
1000
0000
0000
0000
0001
0000
0000
0010
,
0000
0000
0100
0000
1000
0000
0000
0001
0000
0000
0100
0000
0010
0000
0000
1000
,
0000
0000
0001
0000
0010
0000
0000
0100
0000
0000
0010
0000
0001
0000
0000
1000
,
0000
0000
0001
0000
0010
0100
1000
0000
0010
0000
0100
0001
0010
0000
0100
0000
,
1000
0010
0100
0000
0010
0100
0001
0000
0010
0000
0100
1000
0010
0000
0100
0000
,
0010
1000
0001
0000
2002
0000
0000
0000
0000
0000
0000
0000
0000
0000
0000
0000
,
0000
0000
0000
0000
,
0000
0000
0000
0000
,
0000
0000
0000
0000
,
3003
0000
1001
0000
0000
0000
0001
1000
,
0000
1000
0010
0001
0010
0100
0001
0010
,
0100
1000
0000
0010
0000
0100
0000
0001
,
0000
0100
0001
0010
0100
1000
0010
0001
,
0010
1000
0000
0010
0000
0100
0000
0001
,
0000
1000
0010
0100
0010
1000
0100
0001
,
0100
1000
0000
0001
0000
1000
0000
0010
,
0000
0100
0010
1000
0100
0010
0001
0100
,
1000
0100
0000
0001
0000
0010
0000
0100
,
0000
1000
0100
0001
0100
0010
0001
0100
,
1000
0100
0000
0010
0000
1000
0000
0001
,
0000
1000
0010
0100
0001
0010
0100
1000
,
0010
0100
0000
0010
0000
1000
0000
0001
,
0000
1000
0100
0010
0001
1000
0010
0100
,
0001
1000
0000
0010
0000
0100
0000
0001
,
0000
1000
0100
0001
0100
0010
0001
0000
,
1000
0000
0000
0000
0001
0000
0000
0000
1000
0000
0000
0000
0010
0000
0000
1000
,
0000
0000
0001
0000
0010
0000
0000
0100
0000
0000
1000
0000
0001
0000
0000
0100
,
0000
0000
0010
0000
1000
0000
0000
0001
0000
0000
0010
0000
0100
0000
0000
1000
,
0000
0000
0001
0000
0100
0000
0000
0010
0000
0000
1000
0000
0001
0000
0000
0010
,
0000
0000
0100
0000
0000
0010
0000
0000
0001
0000
1000
0000
0010
0000
1000
0010
,
0000
1000
0001
0000
0010
0000
0100
0000
1000
0000
0010
0000
0100
0000
0001
0010
,
0000
0001
0100
0000
0001
0000
0010
0000
0100
0000
1000
0010
0100
0000
0001
0000
,
1000
0000
0001
0010
0100
0000
1000
0000
0010
0100
0001
0000
0010
0000
0100
0000
,
1000
0010
0100
0001
1000
0001
2002
0000
,
0000
0000
0000
0000
,
3003
0000
0001
0010
0100
1000
2200
0000
,
0000
0000
0000
0000
,
3300
0000
1000
0010
0100
0001
0022
0000
,
0000
0000
0000
0000
,
0033
0000
0001
0100
1000
0100
0102
0000
,
0000
0000
0000
2000
,
0000
0000
0000
0000
,
3003
0000
0000
0000
;

//---------------dance-single - ----------------
#NOTES:
     dance-single:
     :
     Medium:
     6:
     0.445,0.489,0.146,0.146,0.000:
0000
0000
0000
0000
0001
1000
0001
0000
,
0010
0000
0100
0000
1000
0001
1000
0000
,
1000
0001
0000
0010
0100
1000
0000
0001
,
0000
0100
0000
0010
1000
0100
0000
1000
,
1100
0000
1000
0010
0100
0000
0010
0000
,
1000
0000
0001
1000
0100
0000
1000
0000
,
0010
0000
1000
0000
0010
1000
0000
0100
,
0000
1000
0100
1000
0100
0000
1000
0010
,
0100
1002
0000
0010
,
0000
0100
0000
1003
,
0001
2001
0000
0010
,
0000
0100
0000
3001
,
0100
1002
0000
1000
,
0000
0100
0000
1003
,
0010
2001
0000
3001
,
0100
1002
0000
0013
,
0100
2010
0000
0100
,
0000
0001
0000
3010
,
0100
0012
0000
0100
,
0000
1000
0000
0013
,
0100
0210
0000
1000
,
0000
0001
0000
0310
,
0100
2010
0000
0001
,
0100
3001
0000
0010
,
0000
0000
1000
0010
0000
0100
0001
0000
,
1000
0000
0001
0000
0010
0100
0000
1000
,
0000
0001
0000
0100
0000
0010
1000
0000
,
0001
0000
0100
0000
0010
1000
0000
0001
,
0000
0010
0000
0100
0000
1000
0001
0000
,
0100
0000
0010
0000
1000
0001
0000
1000
,
0000
0100
0000
0010
0000
0001
0010
0000
,
0100
0000
1000
0000
0001
0100
0000
0010
,
0000
1000
0000
0001
1000
0000
0010
1000
,
0010
0000
0100
0000
0001
0000
0010
0001
,
0010
0000
0100
0000
1000
0000
0010
1000
,
0010
0000
0100
0000
0001
0000
0100
0001
,
0100
0000
0010
1000
0010
0000
0100
0001
,
0100
0000
0001
0010
0001
0000
1000
0100
,
1000
0000
0001
0100
0010
0000
0010
1000
,
0001
0000
0001
0010
0100
1000
0001
0100
,
0010
2002
0000
0000
,
0000
0000
0000
0000
,
0000
0000
0000
0000
,
0000
0000
0000
0000
,
3003
0000
1001
0000
0000
0000
0001
1000
,
0000
1000
0001
0000
1000
0000
0010
0100
,
0001
0100
0000
0010
0000
1000
0000
0001
,
0000
1000
0100
0000
1000
0000
0001
0100
,
0010
1000
0000
0001
0000
0010
0000
0100
,
0000
1000
0001
0000
0100
0000
0010
1000
,
0001
0010
0000
0100
0000
1000
0000
0001
,
0000
0100
0010
0000
1000
0000
0001
1000
,
0100
1000
0000
0001
0000
0100
0000
0010
,
0000
1000
0001
0000
1000
0000
0010
1000
,
0001
0100
0000
0010
0000
1000
0000
0001
,
0000
0010
0100
0000
1000
0000
0001
0100
,
0010
1000
0000
0001
0000
0100
0000
0010
,
0000
1000
0001
0000
1000
0000
0100
1000
,
0001
0100
0000
0010
0000
1000
0000
0001
,
0000
1000
0010
0000
0100
0000
0001
0000
,
1000
0100
0010
0001
,
1000
0000
0001
1000
0001
0000
1000
0010
,
1000
0000
0001
0100
0001
0000
0001
0010
,
0001
0000
0010
0100
0010
0000
0100
1000
,
0100
0000
1000
0001
0100
0000
0010
1000
,
0001
0010
0100
0010
0001
0000
0001
1000
,
0010
0100
0001
1000
0010
0000
0001
1000
,
0000
1000
0010
0000
0010
0100
0000
0100
,
0001
0000
0001
0000
0001
1000
1002
0000
,
0000
0010
0000
0100
,
0000
1003
0010
2100
,
0000
0001
0000
0100
,
0000
3001
0010
0201
,
0000
0001
0000
0010
,
0000
1300
0010
0201
,
0000
0000
0000
0002
,
0000
0000
0000
0303
;

//---------------dance-single - ----------------
#NOTES:
     dance-single:
     :
     Easy:
     4:
     0.308,0.349,0.146,0.182,0.000:
0000
0000
0001
0000
,
1000
0000
0001
0000
,
1000
0000
0000
0001
0000
0000
0000
0100
,
0000
0000
0000
0010
0000
0000
0000
1000
,
0000
0001
0000
1000
,
0000
0010
0000
0100
,
0000
0001
0000
0001
,
0000
1000
1000
0001
,
0001
2010
0000
0001
,
0000
0100
0000
0001
,
3000
0102
0000
1000
,
0000
0100
0000
1000
,
0003
2010
0000
0001
,
0000
0100
0000
0010
,
3000
0102
0000
1000
,
0003
2010
0000
0001
,
3000
0102
0000
1000
,
0000
0010
0000
1000
,
0003
2010
0000
0001
,
0000
0100
0000
0010
,
3000
0102
0000
1000
,
0000
0010
0000
1000
,
0003
2010
0000
0001
,
0000
0200
0000
0000
,
3300
0001
1000
0010
,
0010
1000
1000
0001
,
0001
0010
0100
1000
,
1000
0001
0001
0100
,
0100
0010
1000
0001
,
0001
0010
0010
0100
,
0100
1000
0001
0100
,
0100
0010
0010
1000
,
1000
0001
0000
0001
,
0000
1000
0000
1000
,
0000
0001
0000
0001
,
0000
1000
0000
1000
,
0000
0010
0000
0100
,
0000
0001
0000
1000
,
0000
0010
0100
0001
,
0010
0100
1000
0001
,
1000
2002
0000
0000
,
0000
0000
0000
0000
,
0000
0000
0000
0000
,
0000
0000
0000
0000
,
0000
3003
0000
0000
0000
0000
0000
0000
0000
0000
0000
0000
0000
0000
0000
0000
0000
0000
0000
0000
0000
0000
0000
0000
0000
0000
0000
0000
0000
0000
0000
0000
0000
0000
0000
0000
0000
0000
0000
0000
0000
0000
0000
0000
0000
0000
0000
0000
1001
0000
0000
0000
0000
0000
0000
0000
0000
0000
0000
0000
0000
0000
0000
0000
0000
0000
0000
0000
0000
0000
0000
0000
0000
0000
0000
0000
0000
0000
0000
0000
0000
0000
0000
0000
0000
0000
0000
0000
0000
0000
0000
0000
0000
0000
0000
0000
0000
0000
0000
0000
0000
0000
0000
0000
0000
0000
0000
0000
0000
0000
0000
0000
0000
0000
0000
0000
0000
0000
0000
0000
0000
0000
0000
0000
0000
0000
0000
0000
0000
0000
0000
0000
0000
0000
0000
0000
0000
0000
0000
0000
0000
0000
0000
0000
0010
0000
0000
0000
0000
0000
0000
0000
0000
0000
0000
0000
0000
0000
0000
0000
0000
0000
0000
0000
0000
0000
0000
0000
0000
0000
0000
0000
0000
0000
0000
0000
0000
0000
0000
0000
0000
0000
0000
0000
0000
0000
0000
0000
0000
0000
0000
0000
,
1000
0001
0010
0100
,
1000
0001
1000
0010
,
0100
0001
0010
0100
,
0010
0001
1000
0110
,
0100
0001
1000
0100
,
1000
0001
0100
0010
,
0001
1000
0100
0010
,
0001
1000
0100
0010
,
0001
0001
0010
0100
,
1000
0001
0100
0010
,
1000
0001
1000
0100
,
0010
0001
1000
0001
,
0100
0001
1000
0001
,
0100
0010
1000
0001
,
0100
0001
1000
0010
,
0100
0001
1000
0100
,
0001
0100
0001
1000
,
0100
1000
0100
0010
,
0001
0010
0001
1000
,
0100
0010
0001
1000
,
0001
1000
0001
0100
,
0010
0100
0010
1000
,
0000
0001
0000
1000
,
0000
0001
1000
2002
,
0000
0000
0000
0000
,
0000
0000
3003
2020
,
0000
0000
0000
0000
,
0000
0000
3030
0202
,
0000
0000
0000
0000
,
0000
0000
0303
0102
,
0000
0000
0000
2000
,
0000
0000
0000
3003
;
