#TITLE:Don;
#SUBTITLE:;
#ARTIST:Miranda!;
#TITLETRANSLIT:;
#SUBTITLETRANSLIT:;
#ARTISTTRANSLIT:;
#GENRE:;
#CREDIT:;
#BANNER:don-banner.png;
#BACKGROUND:don-bg.png;
#LYRICSPATH:;
#CDTITLE:cdtitle.png;
#MUSIC:Don.mp3;
#OFFSET:-0.716;
#SAMPLESTART:56.378;
#SAMPLELENGTH:22.331;
#SELECTABLE:YES;
#BPMS:0.000=120.010
;
#STOPS:
;
#BGCHANGES:;
#KEYSOUNDS:;
#ATTACKS:;

//---------------dance-single - Blank----------------
#NOTES:
     dance-single:
     :
     Hard:
     9:
     0.609,0.595,0.070,0.174,1.000,347.000,6.000,15.000,0.000,0.000,0.000,0.609,0.595,0.070,0.174,1.000,347.000,6.000,15.000,0.000,0.000,0.000: // measure 0
0000
0000
0000
0000
,  // measure 1
0000
0000
0000
0000
0000
0000
0000
0000
0000
0000
0001
0100
,  // measure 2
0010
0000
0000
0010
1000
0100
0010
0000
0000
0010
0001
0100
,  // measure 3
0001
0000
0000
0010
0001
0100
0010
0000
0000
1001
0000
0000
,  // measure 4
1000
0010
0100
0001
0010
0001
0100
0000
0100
0000
0010
1000
,  // measure 5
0100
0000
0100
0000
1000
0010
0100
0000
0100
0001
0010
0001
,  // measure 6
0000
0000
0000
0100
0010
1000
0010
0100
0001
0000
0001
0010
,  // measure 7
0100
0000
0001
0000
0001
0100
0010
0000
0100
1000
0100
1000
,  // measure 8
0001
0000
0200
0000
0000
0320
0000
0000
2030
0000
0000
3200
,  // measure 9
0000
0000
0302
0000
0000
0203
0000
0000
0310
0000
0100
1000
,  // measure 10
0001
0000
1000
0000
0010
0100
0001
0000
0001
0000
1000
0010
,  // measure 11
0100
0000
0001
1000
0010
0100
0010
0000
0000
0110
0000
0000
,  // measure 12
1000
0100
1000
0010
1000
0010
0100
0000
0110
0000
0100
0001
,  // measure 13
0010
0000
0011
0000
1000
0010
1000
0000
0100
1000
0010
0100
,  // measure 14
0000
0000
0000
0010
1000
0100
1000
0000
1001
0000
0001
0100
,  // measure 15
0001
0000
1010
0000
0001
0100
0010
0000
0100
1000
0100
0010
,  // measure 16
0000
1000
0010
0100
0001
0010
0001
0000
0100
0000
0100
0010
,  // measure 17
1000
0001
0100
0001
0010
0001
0100
0000
0010
0000
0010
1000
,  // measure 18
0100
0000
0100
0000
1000
0010
0100
0000
0100
0000
0001
0010
,  // measure 19
0001
0000
0010
0100
0010
0001
0100
0001
0100
1000
0100
0001
,  // measure 20
1000
0000
1000
0100
0000
0100
0010
0000
0010
0001
0000
0001
,  // measure 21
1000
0000
1000
0010
0000
0010
0100
0000
0100
1000
0000
1000
,  // measure 22
0100
0001
1000
0200
0000
0010
0010
0000
0000
0300
0000
0010
,  // measure 23
0001
0100
0010
2000
0000
0001
0002
0000
0000
3003
0000
0000
,  // measure 24
0010
0000
0010
0100
0000
0100
0001
0000
0001
0010
0000
0010
,  // measure 25
0100
0000
0100
0001
0000
0001
0100
0000
0100
1000
0000
1000
,  // measure 26
0010
0100
0001
1000
0000
1000
0020
0000
0000
0030
0000
0100
,  // measure 27
0001
0010
0001
0100
0000
0010
2000
0000
0000
3000
0000
0001
,  // measure 28
1000
0010
0100
0001
0000
0001
0020
0000
0000
0030
0000
0001
,  // measure 29
0010
0100
1000
0010
0000
0010
0200
0000
0000
0300
0000
0001
,  // measure 30
1000
0010
0100
0010
0000
0100
0001
0010
0100
1000
0000
1000
,  // measure 31
0001
1000
0001
1000
0001
1000
0001
1000
0001
1000
0000
0010
,  // measure 32
0100
0010
0100
0010
0100
0010
0100
0010
0100
0010
0000
0100
,  // measure 33
0001
0100
0001
0100
0001
0100
0001
0100
0001
0100
0000
0001
,  // measure 34
0010
0001
0010
0100
0010
0100
1000
0100
1000
0010
0100
0010
,  // measure 35
0100
0000
0001
0000
0001
1000
0010
0000
0000
0000
0010
1000
,  // measure 36
0001
0000
0000
0001
0100
0001
0010
0000
0000
0001
1000
0001
,  // measure 37
1000
0000
0000
0000
0010
0100
0010
0000
0000
0000
0001
1000
,  // measure 38
0001
0000
0000
0001
0010
0100
1000
0000
0000
0000
0000
0000
,  // measure 39
0010
0100
0010
0100
0010
0100
0001
0100
0001
0100
0001
0100
,  // measure 40
0001
1000
0010
0100
0001
0010
0001
0100
0010
1000
0100
1000
,  // measure 41
0001
0100
0001
0010
0001
0010
0001
1000
0100
0010
1000
0010
,  // measure 42
0001
0010
0001
0100
0010
2000
0002
0000
0000
3003
0000
0000
;

//---------------dance-single - Blank----------------
#NOTES:
     dance-single:
     :
     Medium:
     7:
     0.368,0.394,0.151,0.116,0.319,199.000,13.000,10.000,0.000,0.000,0.000,0.368,0.394,0.151,0.116,0.319,199.000,13.000,10.000,0.000,0.000,0.000:
0000
0000
0000
0000
,
0000
0000
0000
0000
0000
0000
0000
0000
0000
0000
0000
0001
,
1000
0000
0000
0000
0000
0010
0100
0000
0000
0000
0000
0001
,
0010
0000
0000
0000
0000
0010
0100
0000
0000
0010
0000
0000
,
1000
0000
0000
0010
0000
0000
0100
0000
0001
0000
0000
0000
,
0010
0000
0100
0000
0000
0000
1000
0000
0000
0010
0000
0100
,
0001
0000
0010
0000
0000
0000
0100
0000
0000
0100
0000
0000
,
0010
0000
0000
1000
0000
0000
0001
0000
0100
0001
0000
0010
,
0001
0000
0000
0010
0000
0000
0100
0000
0100
0010
0000
0010
,
0100
0000
0000
0001
0000
0000
0100
0000
0000
0010
0000
0010
,
1000
1000
0010
0010
,
0100
0000
0000
1000
0000
0001
1000
0000
0000
0010
0000
0000
,
0001
0000
0001
0100
0000
0100
0010
0000
0000
0000
0000
0000
,
1000
0010
0100
0001
,
0010
0000
0010
0001
0000
0001
0100
0000
0000
0000
0000
0000
,
0010
0100
0001
0010
,
0100
0000
0100
1000
0000
1000
0010
0000
0000
0010
0000
0000
,
0100
0000
0100
0001
0000
0001
0010
0000
0000
0010
0000
0000
,
0001
1001
0010
0110
,
0010
0000
0100
0010
0100
0010
0100
0000
0000
0001
0000
0000
,
2000
3200
0320
0032
,
0203
0000
0000
0320
0000
0000
2030
0000
0000
3001
0000
1000
,
0001
0000
1000
0001
0000
0010
0100
0000
0000
0100
0000
0100
,
0010
0000
0100
0010
0000
1000
0001
0000
0000
0001
0000
0000
,
2001
0001
0001
3001
,
0210
0010
0010
0310
,
1000
0000
0000
0010
0000
1000
0010
0000
0000
0000
0000
0000
,
0100
0000
0000
0001
0000
0010
0001
0000
0000
0000
0000
0000
,
1000
0000
1000
0010
0000
0010
0100
0000
0000
0000
0000
0000
,
0001
0000
0001
0010
0000
0010
0001
0000
0000
0000
0000
1000
,
0001
0000
0000
1001
0000
0010
0100
0000
0000
0110
0000
0001
,
0100
0000
0100
0001
0000
0001
0010
0000
0000
1001
0000
0000
,
1000
0000
1000
0010
0000
0010
0100
0000
0100
0001
0000
0000
,
0010
0001
0100
0010
,
1000
0000
0000
0010
0000
0010
0100
0000
0100
0001
0000
0001
,
0010
0001
0100
0010
,
1002
1000
1000
0003
,
1001
0001
1100
0100
,
1001
0110
1001
0000
,
0010
0000
0000
0000
0000
1000
0001
0000
0000
0000
0000
0100
,
0001
0000
0000
0010
0000
0000
0001
0000
0000
0000
0000
0010
,
0100
0000
0000
0000
0000
0100
1000
0000
0000
0000
0000
0010
,
0100
0000
0000
0001
1000
0001
1000
0000
0000
0000
0000
0000
;

//---------------dance-single - Blank----------------
#NOTES:
     dance-single:
     :
     Easy:
     4:
     0.250,0.246,0.139,0.000,0.000,139.000,12.000,0.000,0.000,0.000,0.000,0.250,0.246,0.139,0.000,0.000,139.000,12.000,0.000,0.000,0.000,0.000:
0000
0000
0000
0000
,
0000
0000
0000
0010
,
0010
0000
0100
0000
,
0001
1000
0001
0000
,
0010
0010
0010
0000
,
0100
0000
0001
0010
,
0100
1000
0010
0000
,
0100
0010
0001
0010
,
0100
0001
1001
0000
,
0010
0100
0110
0000
,
1000
1010
0001
0101
,
1000
0001
1001
0000
,
0010
0010
0100
0000
,
0001
0000
0010
0100
,
1000
0010
0100
0100
,
0010
0001
0100
0010
,
0001
0100
1010
0000
,
0100
0001
0011
0000
,
0100
0010
1000
0100
,
0010
0100
0001
1000
,
0001
0010
0001
0100
,
0010
1000
0100
1000
,
0010
0100
0010
0000
,
0100
0001
0010
0000
,
0001
0100
0001
0010
,
0100
1000
0010
0100
,
0010
1000
0001
0000
,
0100
0001
0010
0000
,
0001
1000
0001
0000
,
0100
0010
0100
0000
,
0010
1000
0001
0100
,
0001
1000
0001
1000
,
0010
0100
0010
0100
,
0001
1001
1000
1001
,
0010
0110
0100
0110
,
0001
0000
1000
0000
,
0010
0100
0001
0000
,
0010
0000
0100
0000
,
1000
0001
1001
0000
,
0010
0100
0010
0100
,
0001
1000
0001
1000
,
0001
0010
0001
1000
,
0010
0100
0010
0000
;

//---------------dance-single - Blank----------------
#NOTES:
     dance-single:
     :
     Beginner:
     1:
     0.132,0.271,0.058,0.000,0.000,75.000,5.000,0.000,0.000,0.000,0.000,0.132,0.271,0.058,0.000,0.000,75.000,5.000,0.000,0.000,0.000,0.000:
0000
0000
0000
0000
,
0000
0000
0000
0000
,
0010
0000
0000
0000
,
0100
0000
0000
0000
,
0001
0000
0000
0000
,
0010
0000
0000
0000
,
1000
0000
0000
0000
,
0010
0000
0000
0000
,
0001
0000
0000
0000
,
0100
0000
0000
0000
,
0010
0000
0100
0000
,
0010
0000
0100
0000
,
0001
0001
0001
0000
,
1000
0000
1000
0000
,
0010
0010
0010
0000
,
0100
0000
0100
0000
,
0010
0000
0010
0000
,
0100
0000
0100
0000
,
0001
0000
1000
0000
,
0010
0000
0100
0000
,
0001
0000
0000
0000
,
0010
0000
0000
0000
,
0100
0000
0100
0000
,
0010
0000
0010
0000
,
0001
0000
0000
0000
,
1000
0000
0000
0000
,
0001
0000
0001
0000
,
1000
0000
1000
0000
,
0010
0000
0000
0000
,
0100
0000
0000
0000
,
0001
0000
1000
0000
,
0010
0000
0100
0000
,
0010
0010
0010
0000
,
0100
0100
0100
0000
,
1001
1001
1001
1001
,
1001
0000
0010
0000
,
0100
0000
0010
0000
,
0001
0000
0100
0000
,
0010
0000
0010
0000
,
1000
0000
0001
0000
,
0010
0000
0001
0000
,
0100
0000
0010
0000
,
0100
0100
0100
0000
;
