#TITLE:Brokenhearted;
#SUBTITLE:;
#ARTIST:Karmin;
#TITLETRANSLIT:;
#SUBTITLETRANSLIT:;
#ARTISTTRANSLIT:;
#GENRE:;
#CREDIT:;
#BANNER:brokenhearted-banner.png;
#BACKGROUND:brokenhearted-bg.png;
#LYRICSPATH:;
#CDTITLE:cdtitle.png;
#MUSIC:Brokenhearted.mp3;
#OFFSET:-0.486;
#SAMPLESTART:63.005;
#SAMPLELENGTH:17.501;
#SELECTABLE:YES;
#BPMS:0.000=119.990
;
#STOPS:
;
#BGCHANGES:;
#KEYSOUNDS:;
#ATTACKS:;

//---------------dance-single - Blank----------------
#NOTES:
     dance-single:
     :
     Hard:
     8:
     0.475,0.551,0.076,0.161,0.157,363.000,9.000,19.000,0.000,0.000,0.000,0.475,0.551,0.076,0.161,0.157,363.000,9.000,19.000,0.000,0.000,0.000:
0000
0000
0000
0000
,
0000
0000
0000
0000
,
0010
0000
1000
0000
0001
0000
0000
0000
0001
0000
0000
0100
0010
0000
1000
0000
,
0010
0000
0100
0000
0001
0000
0000
0000
0010
0000
0000
0001
0100
0000
0010
0000
,
1000
0000
0100
0000
1000
0000
0000
0000
0010
0000
0000
0010
0100
0000
1000
0000
,
0100
0000
0010
0000
0100
0000
0000
0000
0001
0000
0000
0010
0001
0000
0100
0000
,
0010
0000
1000
0000
0100
0000
0000
0000
0010
0000
0000
0100
0010
0000
1000
0000
,
0010
0000
0100
0000
1000
0000
0000
0000
0001
1000
0000
0010
1000
0000
0001
1000
,
0001
1000
0001
0010
0002
0000
1003
0100
,
1000
0100
0010
0000
0100
0000
2000
0002
,
0000
3003
0100
0010
0001
0000
0010
0100
,
1000
0100
0001
0100
0010
0000
1000
0010
,
0000
0100
0000
0001
0200
0000
0010
0000
,
0310
1000
0001
0010
0001
1000
0010
0000
,
0001
0000
0010
0000
0100
0000
0000
0000
0001
0000
0000
0100
1000
0000
0100
0000
,
0001
0000
0010
0000
0100
0000
0000
0000
0010
0001
0000
1000
0100
0000
0010
0100
,
0010
0001
1000
0100
0001
0000
0100
1000
,
0010
0000
1000
0001
1000
0000
0010
0100
,
0000
0010
0100
1000
0100
0000
1000
0100
,
0102
1000
0100
0013
,
0001
0000
0010
1000
0010
0000
0001
0000
,
0010
0100
0010
1000
0010
0001
0100
0000
,
0001
0010
0001
0000
1000
0000
0010
1000
,
0100
0000
0001
0000
0100
0000
0000
0000
0010
0001
0010
0001
0000
0000
0100
0000
,
0000
0000
0010
0100
0010
0000
0100
0001
0010
0001
0100
0010
1000
0000
0100
0000
,
0010
1000
0010
0100
0001
0000
0100
0010
0000
0100
0010
0100
0001
0000
0100
0000
,
0010
0000
0100
1000
0001
0000
1000
0100
0010
0100
0001
0100
1000
0000
0010
0000
,
0001
0010
0001
0010
0100
0000
0010
1000
0000
0000
0010
0100
0010
0000
0100
0000
,
0000
0010
0000
1000
0100
0000
0010
0000
,
0100
0000
0010
0000
1000
0000
0010
0000
0100
0000
1000
0000
0010
0000
0000
0001
,
0010
0000
0100
0000
0010
0000
1000
0010
,
0100
0001
0000
0001
0100
0010
1000
0001
,
2001
0000
0000
0000
0010
0000
0000
0000
3001
0000
0000
0010
0100
0000
0001
0000
,
0100
0010
0001
0010
0100
1000
0010
1000
,
1020
0000
0000
0000
1000
0000
0000
0000
0031
0000
0000
0010
0100
0000
0001
0000
,
0010
0100
0010
0001
1000
0010
0100
0001
,
1001
0010
0001
0010
0110
0001
0100
0010
,
1000
0010
0100
0001
0010
0100
0001
0100
,
0000
0010
0000
0010
1000
0000
0010
0100
,
0010
0000
0100
0000
0001
0100
0010
0001
,
2000
0000
0000
0000
0002
0000
3003
1000
,
0001
1000
0000
0000
0001
0010
0100
1000
,
0020
0000
0200
0330
,
0001
0010
0100
1000
0000
0010
1000
0100
,
1000
1000
0010
0100
0001
0001
0010
0100
,
0010
0010
0100
0100
1000
1000
0010
0001
,
0000
0010
0000
0100
1000
0000
0100
0010
,
0001
0000
0000
0000
1000
0000
1000
0100
0000
0000
0100
0010
0000
0000
0100
0000
,
0010
1000
0010
0100
0002
0000
0023
0000
,
0031
0100
0001
0010
0100
0000
1010
0000
,
0100
0010
1000
0001
0200
0000
0302
0000
,
0013
0100
1000
0010
0100
0000
1100
0000
,
0000
0010
0000
0100
0001
0010
0001
0000
,
0100
0010
1000
0001
0100
0010
2000
0000
,
0002
0000
3003
0010
0100
0000
0000
1000
,
0010
0000
0000
0000
0000
0000
0100
0010
0100
0000
0010
0000
0110
0000
2002
0000
,
0000
0000
0000
3003
0000
0000
0000
0000
;

//---------------dance-single - Blank----------------
#NOTES:
     dance-single:
     :
     Medium:
     5:
     0.300,0.379,0.085,0.008,0.000,236.000,10.000,1.000,0.000,0.000,0.000,0.300,0.379,0.085,0.008,0.000,236.000,10.000,1.000,0.000,0.000,0.000: // measure 0
0000
0000
0000
0000
,  // measure 1
0000
0000
0000
0000
,  // measure 2
0001
0000
0001
1000
0010
0000
0010
0000
,  // measure 3
0010
0000
0010
0100
0001
0000
0001
0000
,  // measure 4
0001
0000
0010
0100
1000
0000
1000
0000
,  // measure 5
1000
0000
1000
0010
0100
0000
0100
0000
,  // measure 6
0001
0000
0010
0000
,  // measure 7
1000
0000
0000
0000
0100
0010
0100
0000
,  // measure 8
0001
0000
0010
0000
,  // measure 9
0100
0010
0100
0000
0001
0000
0000
0000
,  // measure 10
1000
0000
0010
0000
,  // measure 11
0100
0010
0100
0010
0100
0000
0100
0000
,  // measure 12
0010
0000
1000
0100
1000
0000
0010
0000
,  // measure 13
0100
0001
0010
0001
,  // measure 14
0100
0010
0100
0000
0010
0000
0100
0001
,  // measure 15
0100
0000
0001
0000
0010
0100
0001
0100
,  // measure 16
0010
0000
1000
0000
1000
0000
0100
1000
,  // measure 17
0010
0000
0100
0000
0001
0000
0010
0001
,  // measure 18
0100
0000
0010
0000
1000
0000
0010
1000
,  // measure 19
0100
0000
1000
0000
0010
0000
0100
0001
,  // measure 20
0010
0001
0100
0010
,  // measure 21
1000
0010
0100
0010
1000
0010
0100
0000
,  // measure 22
0001
0010
0001
0100
,  // measure 23
0001
0000
0010
0000
0100
1000
0010
0000
,  // measure 24
0100
0100
0001
0001
0010
0010
0001
0001
,  // measure 25
0100
0100
0010
0010
1000
1000
0001
0001
,  // measure 26
0100
0100
0010
0010
,  // measure 27
0100
0100
0001
1000
0010
0100
0001
0010
,  // measure 28
0000
0000
0001
0000
,  // measure 29
0100
0000
0010
0000
,  // measure 30
0100
1000
0100
0010
,  // measure 31
0100
0010
0001
0010
,  // measure 32
2001
0000
0000
0000
0001
3000
0000
0010
,  // measure 33
0010
0010
0000
0000
0100
0000
1000
0000
,  // measure 34
0100
0000
0000
0000
0010
0000
0000
0100
,  // measure 35
0100
0100
0000
0000
0001
0000
0010
0000
,  // measure 36
0101
0010
1100
0010
,  // measure 37
1000
0001
1000
0000
0010
0000
0100
0000
,  // measure 38
0001
0000
0000
0010
0010
0000
0000
0100
,  // measure 39
0100
0000
1000
0010
,  // measure 40
0101
0000
0001
0000
1000
0000
0000
0010
,  // measure 41
0100
0001
0000
0000
0010
0000
1000
0000
,  // measure 42
0010
0000
0000
0000
1000
0000
0000
0010
,  // measure 43
0100
0010
0001
0010
0100
0000
0010
0000
,  // measure 44
1010
0100
0101
0010
,  // measure 45
0011
0110
1100
0010
,  // measure 46
0100
0000
0000
0001
1000
0000
0000
0010
,  // measure 47
0100
0000
0000
0001
0000
1000
0000
0010
,  // measure 48
0001
0100
0010
0100
,  // measure 49
0010
1000
0100
0010
,  // measure 50
1000
0010
0100
0001
,  // measure 51
0010
0001
0100
0010
,  // measure 52
0000
0001
0000
0010
1000
0001
0100
0000
,  // measure 53
0010
0000
0001
0000
0100
0000
0010
0100
,  // measure 54
0010
0000
0000
0000
1000
0000
0000
0001
,  // measure 55
1000
0000
0000
0010
0100
0000
1001
0000
;

//---------------dance-single - Blank----------------
#NOTES:
     dance-single:
     :
     Easy:
     3:
     0.206,0.213,0.017,0.000,0.000,168.000,2.000,0.000,0.000,0.000,0.000,0.206,0.213,0.017,0.000,0.000,168.000,2.000,0.000,0.000,0.000,0.000:
0000
0000
0000
0000
,
0000
0000
0000
0000
,
0010
0010
0010
0000
,
0100
0100
0100
0000
,
0001
0010
0100
0000
,
1000
0010
0001
0000
,
0010
0000
0100
0000
,
0001
0010
0001
0100
,
0010
1000
0010
0000
,
0100
0001
0100
0000
,
0010
0100
0001
0001
,
0010
0001
0100
0100
,
0010
0000
1000
0000
,
0010
0100
0001
0010
,
0001
0001
0100
0100
,
0001
0010
0100
1000
,
0010
0100
0010
0010
,
0100
0100
0010
1000
,
0100
1000
0010
0100
,
0001
0010
0001
0100
,
0010
0000
1000
0000
,
0010
0100
0001
0010
,
0100
0000
0010
0000
,
1000
0000
0100
0100
,
0000
0001
0010
0001
,
0010
0000
0100
0000
,
1000
0100
1000
0000
,
0010
0000
0100
0000
,
0010
0000
1000
0000
,
0001
1000
0001
1000
,
0010
0000
0100
0000
,
0001
0010
0100
1000
,
0010
0000
0100
0000
,
0001
0010
0100
1000
,
0010
0000
0001
0000
,
0010
1000
0100
1000
,
0010
0000
0100
0000
,
0001
0010
0001
0000
,
0100
0000
0010
0000
,
0001
0000
0100
0001
,
0010
0000
0100
0000
,
0010
0000
0001
0100
,
0010
0000
0100
0000
,
0001
1000
0010
1000
,
0100
1000
0010
0001
,
0100
0001
0010
0001
,
0100
0000
1000
0000
,
0010
0000
0001
1000
,
1001
0010
0100
0001
,
0100
0010
1000
0100
,
1010
0100
0001
0010
,
0100
0001
0010
0100
,
0000
0000
0010
0010
,
0100
0100
0001
0010
,
0100
0000
1000
0000
,
0010
0000
0100
0001
;

//---------------dance-single - Blank----------------
#NOTES:
     dance-single:
     :
     Beginner:
     1:
     0.107,0.117,0.000,0.000,0.000,88.000,0.000,0.000,0.000,0.000,0.000,0.107,0.117,0.000,0.000,0.000,88.000,0.000,0.000,0.000,0.000,0.000:
0000
0000
0000
0000
,
0000
0000
0000
0000
,
0000
0000
0000
0000
,
0000
0000
0000
0000
,
1000
0000
0000
0000
,
0010
0000
0000
0000
,
0100
0000
0000
0000
,
0010
0000
0000
0000
,
0100
0000
0010
0000
,
0100
0000
0010
0000
,
1000
0000
0001
0000
,
1000
0000
0001
0000
,
1000
0000
0010
0000
,
0100
0000
0100
0000
,
0010
0000
0000
0000
,
0001
0000
0000
0000
,
0010
0000
0100
0000
,
1000
0000
0001
0000
,
0001
0000
1000
0000
,
0100
0000
0010
0000
,
0010
0000
0100
0000
,
0001
0000
0000
0000
,
1000
0000
0000
0000
,
0010
0000
0000
0000
,
1000
0000
1000
0000
,
0010
0000
0010
0000
,
0100
0100
0100
0000
,
0010
0000
0001
0000
,
1000
0000
0000
0000
,
0010
0000
0000
0000
,
0100
0000
0001
0000
,
0010
0000
0000
0000
,
0100
0000
0000
0000
,
0010
0000
0000
0000
,
1000
0000
0000
0000
,
0001
0000
0000
0000
,
0010
0000
0001
0000
,
1000
1000
1000
0000
,
0010
0000
0100
0000
,
0010
0000
0001
0000
,
0001
0000
0100
0000
,
0010
0000
0100
0000
,
0100
0000
1000
0000
,
0010
0000
0010
0000
,
0100
0000
0001
0000
,
0010
0010
0010
0000
,
0001
0000
0100
0000
,
0010
0000
0001
0001
,
0001
0000
0100
0000
,
0010
0000
1000
0000
,
1000
0000
0010
0000
,
0001
0000
0010
0000
,
0100
0000
0000
0000
,
0010
0000
0000
0000
,
0001
0000
0000
0000
,
0010
0000
0000
0000
;
