#TITLE:Alicia;
#SUBTITLE:;
#ARTIST:nmk;
#TITLETRANSLIT:;
#SUBTITLETRANSLIT:;
#ARTISTTRANSLIT:;
#GENRE:;
#CREDIT:;
#BANNER:bn.png;
#BACKGROUND:bg.png;
#LYRICSPATH:;
#CDTITLE:cdtitle.png;
#MUSIC:Alicia.mp3;
#OFFSET:-12.240;
#SAMPLESTART:49.980;
#SAMPLELENGTH:12.000;
#SELECTABLE:YES;
#BPMS:0.000=178.000
;
#STOPS:
;
#BGCHANGES:;
#KEYSOUNDS:;
#ATTACKS:;

//---------------dance-single - ----------------
#NOTES:
     dance-single:
     :
     Hard:
     8:
     0.421,0.458,0.011,0.142,0.044,256.000,1.000,13.000,0.000,0.000,0.000,0.421,0.458,0.011,0.142,0.044,256.000,1.000,13.000,0.000,0.000,0.000: // measure 0
1000
0100
0000
0100
1000
0000
0000
0001
,  // measure 1
0100
0010
1000
0001
0010
0100
1000
0100
,  // measure 2
0010
0001
0000
0001
0100
0000
0000
0100
,  // measure 3
0010
1000
0001
0010
0100
1000
0100
0010
,  // measure 4
0001
0100
0000
0100
0001
0000
0000
0001
,  // measure 5
0010
0001
0100
0010
1000
0001
0010
0100
,  // measure 6
1000
0010
0000
0010
1000
0000
0000
1000
,  // measure 7
0100
1000
0001
0100
0010
1000
0001
0010
,  // measure 8
0200
0000
0000
0000
,  // measure 9
2300
0000
0000
0000
,  // measure 10
3020
0000
0000
0000
,  // measure 11
0230
0000
0000
0000
,  // measure 12
0302
0000
0000
0000
,  // measure 13
0023
0000
0000
0000
,  // measure 14
0032
0000
0000
0000
,  // measure 15
0203
0000
0000
0000
,  // measure 16
0310
1000
0010
1000
,  // measure 17
0010
1000
0010
1000
,  // measure 18
0001
0100
0001
0100
,  // measure 19
0001
0010
0001
0010
,  // measure 20
0100
1000
0100
0000
0010
0001
0010
0000
,  // measure 21
0001
0100
0001
0000
1000
0010
1000
0000
,  // measure 22
0010
1000
0100
0000
0010
0001
0100
0000
,  // measure 23
0010
1000
0001
0010
0100
1000
0010
0100
,  // measure 24
0002
0000
0000
0000
,  // measure 25
0000
0000
0000
0000
,  // measure 26
0000
0000
0000
0000
,  // measure 27
0000
0000
0003
0000
,  // measure 28
0010
0001
0100
0010
1000
0001
0010
0100
,  // measure 29
0000
0100
0010
0001
1000
0010
0100
0001
,  // measure 30
0000
1000
0100
0010
0100
1000
0001
0100
,  // measure 31
0000
0010
1000
0001
0010
0100
1000
0100
,  // measure 32
0000
0010
0001
0100
0010
1000
0001
0010
,  // measure 33
0000
0001
0100
0010
1000
0001
0010
0100
,  // measure 34
0000
0010
0001
0100
0010
1000
0001
0010
,  // measure 35
0200
0000
0000
0000
,  // measure 36
0310
0001
0100
0010
1000
0001
0010
0100
,  // measure 37
0000
0100
0010
0001
0100
0010
1000
0001
,  // measure 38
0000
0010
0001
0100
0010
1000
0001
0010
,  // measure 39
0000
0100
1000
0001
0100
0010
1000
0001
,  // measure 40
0010
0100
1000
0100
0010
0001
1000
0010
,  // measure 41
0000
0100
0001
0010
0100
1000
0100
0010
,  // measure 42
0000
0001
1000
0010
0100
0001
0010
0100
,  // measure 43
2000
0000
0000
0000
,  // measure 44
3001
0000
0010
0000
0001
0000
0000
0000
0100
0000
0000
0010
0000
0000
0100
0000
,  // measure 45
0001
0000
0010
0000
0100
0000
0000
0000
1000
0000
0000
0001
0000
0000
0100
0000
,  // measure 46
0010
0000
1000
0000
0001
0000
0000
0000
0010
0000
0000
0100
0000
0000
1000
0000
,  // measure 47
0100
0010
0001
1000
0010
0100
0001
0010
,  // measure 48
0001
0000
0100
0000
0010
0000
0000
0000
1000
0000
0000
0100
0000
0000
1000
0000
,  // measure 49
0001
0000
0100
0000
0010
0000
0000
0000
1000
0000
0000
0001
0000
0000
0010
0000
,  // measure 50
0100
0000
1000
0000
0001
0000
0000
0000
0100
0000
0000
0010
0000
0000
1000
0000
,  // measure 51
0000
0000
0001
0000
0000
0010
0000
0000
0100
0000
0000
1000
0000
0000
0001
0000
,  // measure 52
0000
2002
0000
0000
,  // measure 53
0000
0000
0000
0000
,  // measure 54
0000
0000
0000
0000
,  // measure 55
0000
0000
0000
0000
,  // measure 56
3003
0000
0000
0000
;

//---------------dance-single - ----------------
#NOTES:
     dance-single:
     :
     Medium:
     7:
     0.337,0.367,0.022,0.142,0.000,201.000,2.000,13.000,0.000,0.000,0.000,0.337,0.367,0.022,0.142,0.000,201.000,2.000,13.000,0.000,0.000,0.000: // measure 0
1000
0100
1000
0001
,  // measure 1
0100
0000
0001
0000
0010
0001
0010
0000
,  // measure 2
0100
1000
0001
0100
,  // measure 3
0010
0000
1000
0000
0100
1000
0100
0000
,  // measure 4
1000
0010
0100
0001
,  // measure 5
1000
0000
0100
0000
0010
0001
0010
0000
,  // measure 6
0001
0100
0010
1000
,  // measure 7
0001
0010
0001
0000
,  // measure 8
0200
0000
0000
0000
,  // measure 9
0320
0000
0000
0000
,  // measure 10
2030
0000
0000
0000
,  // measure 11
3002
0000
0023
0000
,  // measure 12
0032
0000
0000
0000
,  // measure 13
0203
0000
0000
0000
,  // measure 14
0320
0000
0000
0000
,  // measure 15
2030
0000
0000
0000
,  // measure 16
3001
0100
0001
0100
,  // measure 17
0010
1000
0010
1000
,  // measure 18
0100
1000
0100
1000
,  // measure 19
0001
1000
0001
1000
,  // measure 20
0010
0100
0001
0010
,  // measure 21
0100
1000
0001
0100
,  // measure 22
0010
1000
0010
0000
0100
0001
0100
0000
,  // measure 23
0001
0010
0100
1000
,  // measure 24
2002
0000
0000
0000
,  // measure 25
0000
0000
0000
0000
,  // measure 26
0000
0000
0000
0000
,  // measure 27
0000
0000
3003
0000
,  // measure 28
1000
0000
0100
0000
0010
0001
0100
0000
,  // measure 29
0010
0000
1000
0000
0001
0010
0100
0000
,  // measure 30
1000
0000
0001
0000
0100
0010
0100
0000
,  // measure 31
0001
0000
0010
0000
0100
1000
0001
0100
,  // measure 32
0010
0000
0100
0000
0001
0010
0100
0000
,  // measure 33
1000
0000
0100
0000
0010
0001
1000
0000
,  // measure 34
0010
0000
0100
0000
0001
0100
0010
0000
,  // measure 35
1000
0000
0001
1000
0000
1000
0001
0000
,  // measure 36
0100
0000
0010
0000
1000
0100
0010
0000
,  // measure 37
0001
0000
1000
0000
0010
0100
0001
0000
,  // measure 38
0010
0000
0100
0000
1000
0001
0100
0000
,  // measure 39
0010
0000
1000
0000
0001
0010
0001
0010
,  // measure 40
0001
0000
0100
0000
0010
1000
0100
0000
,  // measure 41
1000
0000
0010
0000
0100
0001
0010
0000
,  // measure 42
0001
0000
0100
0000
0010
1000
0001
0000
,  // measure 43
0010
0100
1000
0000
,  // measure 44
0001
0000
0100
0000
0001
0100
0001
0000
,  // measure 45
1000
0000
0010
0000
1000
0010
1000
0000
,  // measure 46
0100
0000
1000
0000
0100
1000
0100
0000
,  // measure 47
0010
0000
0001
0000
0010
0001
0010
0000
,  // measure 48
0001
0100
0010
0000
1000
0100
0010
0000
,  // measure 49
0010
0100
1000
0000
1000
0001
0100
0000
,  // measure 50
0010
1000
0001
0010
,  // measure 51
0100
0000
1000
0001
0000
0100
0010
1000
,  // measure 52
0000
2002
0000
0000
,  // measure 53
0000
0000
0000
0000
,  // measure 54
0000
0000
0000
0000
,  // measure 55
0000
0000
0000
0000
,  // measure 56
3003
0000
0000
0000
;

//---------------dance-single - ----------------
#NOTES:
     dance-single:
     :
     Beginner:
     1:
     0.078,0.122,0.011,0.022,0.000,47.000,1.000,2.000,0.000,0.000,0.000,0.078,0.122,0.011,0.022,0.000,47.000,1.000,2.000,0.000,0.000,0.000: // measure 0
1000
0000
0000
0000
,  // measure 1
1000
0000
0000
0000
,  // measure 2
0001
0000
0000
0000
,  // measure 3
0001
0000
0000
0000
,  // measure 4
0100
0000
0000
0000
,  // measure 5
0100
0000
0000
0000
,  // measure 6
0010
0000
0000
0000
,  // measure 7
0010
0000
0000
0000
,  // measure 8
1000
0000
0000
0000
,  // measure 9
0000
0000
0000
0000
,  // measure 10
0100
0000
0000
0000
,  // measure 11
0000
0000
0000
0000
,  // measure 12
0010
0000
0000
0000
,  // measure 13
0000
0000
0000
0000
,  // measure 14
0001
0000
0000
0000
,  // measure 15
0000
0000
0000
0000
,  // measure 16
1000
0000
0000
0000
,  // measure 17
0001
0000
0000
0000
,  // measure 18
1000
0000
0000
0000
,  // measure 19
0001
0000
0000
0000
,  // measure 20
0100
0000
0000
0000
,  // measure 21
0010
0000
0000
0000
,  // measure 22
0100
0000
0100
0000
,  // measure 23
0100
0000
0000
0000
,  // measure 24
0100
0000
0000
0000
,  // measure 25
0000
0000
0000
0000
,  // measure 26
0000
0000
0000
0000
,  // measure 27
0000
0000
0000
0000
,  // measure 28
0100
0000
0000
0000
,  // measure 29
0010
0000
0000
0000
,  // measure 30
0100
0000
0000
0000
,  // measure 31
0000
0000
0000
0000
,  // measure 32
0001
0000
0000
0000
,  // measure 33
1000
0000
0000
0000
,  // measure 34
0001
0000
0000
0000
,  // measure 35
0000
0000
0000
0000
,  // measure 36
1000
0000
0000
0000
,  // measure 37
0100
0000
0000
0000
,  // measure 38
0010
0000
0000
0000
,  // measure 39
0000
0000
0000
0000
,  // measure 40
0001
0000
0000
0000
,  // measure 41
0100
0000
0000
0000
,  // measure 42
0010
0000
0000
0000
,  // measure 43
0000
0000
0000
0000
,  // measure 44
1000
0000
1000
0000
,  // measure 45
1000
0000
0000
0000
,  // measure 46
0001
0000
0001
0000
,  // measure 47
0001
0000
0000
0000
,  // measure 48
0100
0000
0100
0000
,  // measure 49
0100
0000
0000
0000
,  // measure 50
0010
0000
0010
0000
,  // measure 51
0010
0000
0000
0000
,  // measure 52
0000
2002
0000
0000
,  // measure 53
0000
0000
0000
0000
,  // measure 54
0000
0000
0000
0000
,  // measure 55
0000
0000
0000
0000
,  // measure 56
3003
0000
0000
0000
;

//---------------dance-single - ----------------
#NOTES:
     dance-single:
     :
     Easy:
     4:
     0.234,0.244,0.033,0.055,0.000,142.000,3.000,5.000,0.000,0.000,0.000,0.234,0.244,0.033,0.055,0.000,142.000,3.000,5.000,0.000,0.000,0.000: // measure 0
1000
0100
1000
0000
,  // measure 1
0001
0010
0001
0000
,  // measure 2
0001
0100
0001
0000
,  // measure 3
1000
0010
1000
0000
,  // measure 4
0010
1000
0010
0000
,  // measure 5
0100
0001
0100
0000
,  // measure 6
0001
1000
0001
0000
,  // measure 7
2000
0000
3000
0000
,  // measure 8
0010
0000
0000
0000
,  // measure 9
0001
0000
0000
0000
,  // measure 10
0100
0000
0000
0000
,  // measure 11
0001
0000
0000
0000
,  // measure 12
0010
0000
0000
0000
,  // measure 13
1000
0000
0000
0000
,  // measure 14
0100
0000
0000
0000
,  // measure 15
1000
0000
0000
0000
,  // measure 16
0010
0000
0100
0000
,  // measure 17
0010
0000
0100
0000
,  // measure 18
0001
0000
1000
0000
,  // measure 19
0001
0000
1000
0000
,  // measure 20
0010
0000
0100
0000
,  // measure 21
0010
0000
0100
0000
,  // measure 22
0001
0000
1000
0000
,  // measure 23
0001
0001
1000
1000
,  // measure 24
2002
0000
0000
0000
,  // measure 25
0000
0000
0000
0000
,  // measure 26
0000
0000
0000
0000
,  // measure 27
0000
0000
3003
0000
,  // measure 28
0010
0010
1000
1000
,  // measure 29
0100
0100
0001
0001
,  // measure 30
0010
0010
0100
0100
,  // measure 31
1000
1000
0001
0001
,  // measure 32
0100
0010
1000
0001
,  // measure 33
0010
0100
0010
0001
,  // measure 34
1000
0010
0100
0001
,  // measure 35
0010
0000
0010
0000
,  // measure 36
0001
0001
0100
0100
,  // measure 37
0010
0010
1000
1000
,  // measure 38
0001
0001
0010
0010
,  // measure 39
0100
0100
1000
1000
,  // measure 40
0001
0100
0010
1000
,  // measure 41
0010
0100
0001
1000
,  // measure 42
0100
0010
0001
1000
,  // measure 43
0010
0000
1001
0000
,  // measure 44
0100
0100
0001
0001
,  // measure 45
1000
0100
1000
0010
,  // measure 46
0100
0100
0010
0010
,  // measure 47
1000
0001
0010
0100
,  // measure 48
1000
1000
0001
0001
,  // measure 49
0100
0010
0100
0001
,  // measure 50
1000
1000
0100
0100
,  // measure 51
0010
0001
0100
1000
,  // measure 52
0000
2002
0000
0000
,  // measure 53
0000
0000
0000
0000
,  // measure 54
0000
0000
0000
0000
,  // measure 55
0000
0000
0000
0000
,  // measure 56
3003
0000
0000
0000
;
