#TITLE:Alfie;
#SUBTITLE:;
#ARTIST:Lily Allen;
#TITLETRANSLIT:;
#SUBTITLETRANSLIT:;
#ARTISTTRANSLIT:;
#GENRE:;
#CREDIT:;
#BANNER:alfie-banner.png;
#BACKGROUND:alfie-bg.png;
#LYRICSPATH:;
#CDTITLE:;
#MUSIC:Alfie.mp3;
#OFFSET:-0.109;
#SAMPLESTART:40.114;
#SAMPLELENGTH:15.995;
#SELECTABLE:YES;
#BPMS:0.000=120.040
;
#STOPS:
;
#BGCHANGES:;
#KEYSOUNDS:;
#ATTACKS:;

//---------------dance-single - Blank----------------
#NOTES:
     dance-single:
     :
     Hard:
     7:
     0.472,0.529,0.181,0.086,0.069,352.000,21.000,10.000,0.000,0.000,0.000,0.472,0.529,0.181,0.086,0.069,352.000,21.000,10.000,0.000,0.000,0.000: // measure 0
0000
0000
0000
0000
,  // measure 1
0000
0000
0000
0000
,  // measure 2
1001
0001
1100
0100
0011
0001
0101
0100
,  // measure 3
0010
0000
0000
0000
1000
0000
0000
0000
0100
0000
0010
0001
0010
0001
0010
0001
,  // measure 4
0010
0010
0001
0001
1000
1000
0010
0010
,  // measure 5
0100
0100
0001
0010
0000
0100
0000
0010
,  // measure 6
0001
0001
0100
0100
0010
0010
1000
1000
,  // measure 7
0010
0100
0001
0010
0000
0001
0000
0100
,  // measure 8
0010
0010
1000
1000
0100
0100
1000
1000
,  // measure 9
0010
0100
0001
1001
0010
0110
0010
1000
,  // measure 10
0100
1000
0010
0100
0001
0010
0001
0100
,  // measure 11
0001
0000
1000
0001
1000
0001
1000
0001
1000
0000
0001
1000
0001
1000
0001
1000
,  // measure 12
0001
1000
0010
0100
0001
0001
0010
0100
,  // measure 13
1000
1000
0010
0100
0000
1001
0000
0000
,  // measure 14
0010
0100
0001
0010
0001
0001
0100
0010
,  // measure 15
1000
1000
0010
0110
0000
0110
0000
0000
,  // measure 16
0001
0000
0011
0000
0100
1000
0010
0001
,  // measure 17
0010
0000
0110
0000
0100
1000
0100
1000
,  // measure 18
0100
0000
0101
0000
0001
0010
0001
0100
,  // measure 19
0010
1000
0001
0100
0010
0001
1000
0100
,  // measure 20
0001
0000
1000
0000
0010
0100
0001
0010
,  // measure 21
0001
0000
0100
0000
0010
0100
0001
0010
,  // measure 22
1000
0000
0010
0000
0001
0010
0100
0010
,  // measure 23
0100
0000
0000
1000
0000
0000
0100
0000
0010
0000
0001
0000
0010
0000
0100
0000
,  // measure 24
1000
0000
0010
0000
1000
0100
1000
0010
,  // measure 25
0100
0000
0100
0001
0010
0000
0010
0001
,  // measure 26
0100
0000
0100
0010
1000
0000
1000
0100
,  // measure 27
1000
0000
0010
0000
0100
0000
0001
0000
0010
0000
0100
0000
0010
0100
0010
0000
,  // measure 28
0001
0100
0010
0001
0010
1000
0100
0010
,  // measure 29
1000
0010
0001
0010
0000
0100
0000
0000
,  // measure 30
0010
0001
0100
0010
1000
0100
1000
0010
,  // measure 31
0100
0010
1000
0100
0000
1000
0010
0000
,  // measure 32
0100
0001
0010
0001
0100
0010
1000
0100
,  // measure 33
1000
0010
0100
0001
0000
0010
0001
0100
,  // measure 34
0010
1000
0100
1000
0010
0100
0001
0010
,  // measure 35
0001
0100
0001
1000
0010
0100
0010
0000
,  // measure 36
0100
0001
0010
0001
,  // measure 37
0100
0010
1000
0100
1000
0000
0010
0000
,  // measure 38
0100
0010
0100
0010
1000
0001
1000
0001
,  // measure 39
0011
0000
0010
0000
0110
0000
1000
0000
1001
0000
0001
1000
0001
0000
1000
0000
,  // measure 40
0010
0100
0001
0010
0001
0100
0001
0010
,  // measure 41
0001
1000
0010
1000
0100
0000
1000
0000
,  // measure 42
0010
0100
0010
1000
0010
0100
0001
0010
,  // measure 43
0011
0000
0100
0000
0110
0000
1000
0000
1001
0000
0001
1000
0001
0000
1000
0000
,  // measure 44
0020
0000
0230
0302
,  // measure 45
0203
0000
0000
0010
0310
0000
0000
1000
,  // measure 46
0100
0000
0000
1000
0010
0000
0000
0100
,  // measure 47
0001
0000
0000
0010
0000
0000
0100
0000
0010
0000
0000
0000
1000
0000
0000
0000
,  // measure 48
0020
0000
0230
0320
,  // measure 49
0032
0000
0000
0100
0103
0000
0000
0010
,  // measure 50
1000
0000
0000
0000
0000
0000
0100
0000
1000
0000
0000
0000
0000
0000
0010
0100
,  // measure 51
0010
0000
0000
1000
0010
0000
0000
1000
,  // measure 52
0100
0000
0000
0000
0000
0000
0010
0000
0001
0000
0000
0000
0000
0000
0100
0001
,  // measure 53
0100
0000
0000
0010
1000
0000
0000
0000
,  // measure 54
1200
0000
0000
0000
1000
0300
0000
0000
0120
0000
0000
0000
0100
0000
0030
0000
,  // measure 55
0100
1000
0001
0010
1000
0000
1001
0000
;

//---------------dance-single - Blank----------------
#NOTES:
     dance-single:
     :
     Medium:
     5:
     0.319,0.313,0.052,0.052,0.004,247.000,6.000,6.000,0.000,0.000,0.000,0.319,0.313,0.052,0.052,0.004,247.000,6.000,6.000,0.000,0.000,0.000: // measure 0
0000
0000
0000
0000
,  // measure 1
0000
0000
0000
0000
,  // measure 2
0020
0000
0000
1030
0200
0000
0000
0310
,  // measure 3
0002
0000
0000
0003
0000
0001
1000
0001
,  // measure 4
1000
0000
0000
0000
0010
0100
0010
0100
,  // measure 5
0010
0000
1000
0000
0001
0000
0010
0100
,  // measure 6
0010
0000
0100
0000
1000
0000
0010
1000
,  // measure 7
0010
0100
0001
0010
,  // measure 8
1000
1000
0010
0001
,  // measure 9
0100
0010
0100
0000
0001
0000
1000
0000
,  // measure 10
0010
0000
0001
0000
0010
0001
0010
0000
,  // measure 11
0010
0000
1000
0100
1000
0000
0010
0100
,  // measure 12
0010
0100
0001
0010
,  // measure 13
0001
0100
0001
0000
0100
0000
0110
0000
,  // measure 14
0010
1000
0100
0000
0100
1000
0010
0000
,  // measure 15
0100
0001
0010
0001
0100
0010
1000
0000
,  // measure 16
1100
0000
0010
0000
0100
0001
0010
0001
,  // measure 17
0100
0010
0100
0001
,  // measure 18
1000
0010
0100
0001
,  // measure 19
0010
0001
0100
0001
0010
0001
1000
0001
,  // measure 20
1000
0010
0100
0100
,  // measure 21
0001
0000
0000
1000
0001
0000
0000
0100
,  // measure 22
0010
0000
0000
1000
0001
0000
0000
0100
,  // measure 23
0010
0000
0000
1000
0000
0000
0001
0000
0100
0000
0000
0000
0000
0000
0000
0000
,  // measure 24
0001
0000
0010
0100
,  // measure 25
1000
0000
0000
0010
0100
0000
0000
0010
,  // measure 26
1000
0000
0000
0001
0010
0000
0000
0001
,  // measure 27
0100
0000
0000
0100
1000
0100
0010
0000
,  // measure 28
0010
0000
1000
0000
0100
1000
0010
0000
,  // measure 29
1000
0000
0100
0000
0010
0001
0010
0000
,  // measure 30
0100
0000
0010
0000
1000
0010
1000
0000
,  // measure 31
0010
0000
0001
0000
0100
0010
1000
0000
,  // measure 32
0100
0000
1000
0000
0010
0100
0010
0000
,  // measure 33
0100
0000
0001
0000
0010
0001
0010
0000
,  // measure 34
0100
0000
0010
0000
0001
1000
0001
0000
,  // measure 35
1000
0010
0100
0010
1000
0000
0100
0000
,  // measure 36
1000
0010
0100
0001
,  // measure 37
0010
0001
0100
0001
0010
0000
0100
0000
,  // measure 38
1000
0010
1000
0100
,  // measure 39
1000
0000
0010
1000
0010
0000
0100
0000
,  // measure 40
0001
0001
0010
0010
,  // measure 41
0001
0100
0001
0100
0001
0000
0100
0000
,  // measure 42
0010
1000
0100
1000
,  // measure 43
0010
0000
0100
0000
0010
0000
0100
0010
,  // measure 44
0100
0000
0001
0010
,  // measure 45
0001
0000
0100
0010
,  // measure 46
1000
0000
0100
1000
,  // measure 47
0010
0000
0100
0010
0100
0000
0001
0000
,  // measure 48
0010
0000
0001
0000
0100
0001
0100
0001
,  // measure 49
0100
0000
0010
0000
1000
0010
1000
0010
,  // measure 50
1000
0100
0010
0100
,  // measure 51
1001
0000
0000
0010
0100
0000
0000
0000
,  // measure 52
0110
0000
0000
0000
0100
0000
0000
0010
,  // measure 53
0100
0000
0000
0001
1000
0000
0000
0000
,  // measure 54
0020
0000
0230
0000
,  // measure 55
0302
0000
1000
0003
1001
0000
1001
0000
;

//---------------dance-single - Blank----------------
#NOTES:
     dance-single:
     :
     Easy:
     3:
     0.211,0.216,0.026,0.035,0.000,164.000,3.000,4.000,0.000,0.000,0.000,0.211,0.216,0.026,0.035,0.000,164.000,3.000,4.000,0.000,0.000,0.000:
0000
0000
0000
0000
,
0000
0000
0000
0000
,
0002
0003
2000
3000
,
0020
0000
0000
0030
,
0200
0010
0010
0010
,
0310
0100
0010
0100
,
0001
0000
1000
0100
,
1000
0000
0001
0100
,
0010
0010
0100
0100
,
0001
1000
0001
1000
,
0010
0000
0001
0000
,
0001
0100
0010
0100
,
0010
0000
1000
0000
,
0010
0010
0001
0000
,
0100
0100
0001
0010
,
0100
1000
0010
1000
,
0100
0100
0010
0010
,
0001
1000
0001
0000
,
0010
0010
0100
0100
,
0001
0001
1001
0010
,
0110
0000
0010
0000
,
0100
0100
0100
0000
,
0001
0010
0001
0000
,
0100
0100
0010
1000
,
0100
0000
1000
0010
,
0100
0000
0001
0000
,
1000
0000
0010
0000
,
0100
0001
0010
0001
,
0100
0010
0100
0010
,
1000
0000
1000
0000
,
0001
0010
0001
0100
,
0001
0000
0100
0000
,
0010
0001
0010
1000
,
0001
0000
0100
0000
,
0010
1000
0100
1000
,
0010
0100
0001
1001
,
0010
0010
0100
0100
,
0001
1000
0001
0000
,
0010
0000
0100
0000
,
0001
0100
1000
0100
,
0010
0000
0100
0000
,
1000
0010
0001
0100
,
0010
1000
0100
1000
,
0010
0010
0010
0000
,
0100
0100
0001
0001
,
0010
0000
0001
0000
,
0100
0000
0010
0000
,
0100
0010
1000
0000
,
0100
0000
0010
0001
,
0100
0000
0001
0010
,
0001
0000
0100
0000
,
0010
0000
0100
0000
,
0001
0000
1000
0000
,
0010
0000
0100
0000
,
0010
0000
0100
0000
,
0001
0100
0001
0000
;

//---------------dance-single - Blank----------------
#NOTES:
     dance-single:
     :
     Beginner:
     1:
     0.089,0.117,0.000,0.000,0.000,72.000,0.000,0.000,0.000,0.000,0.000,0.089,0.117,0.000,0.000,0.000,72.000,0.000,0.000,0.000,0.000,0.000:
0000
0000
0000
0000
,
0000
0000
0000
0000
,
0000
0000
0000
0000
,
0000
0000
0000
0000
,
1000
0000
0000
0000
,
0010
0000
0000
0000
,
0100
0000
0000
0000
,
0001
0000
0000
0000
,
0010
0000
0000
0000
,
0001
0000
0000
0000
,
1000
0000
0000
0000
,
0100
0000
0000
0000
,
0010
0000
0000
0000
,
0001
0000
0000
0000
,
1000
0000
0000
0000
,
0010
0000
0000
0000
,
0100
0000
0000
0000
,
0001
0000
0000
0000
,
1000
0000
0000
0000
,
0010
0000
0000
0000
,
0100
0000
0100
0000
,
0100
0000
0100
0000
,
0010
0000
0010
0000
,
0010
0000
0010
0000
,
1000
0000
0000
0000
,
0001
0000
0000
0000
,
0010
0000
0000
0000
,
0001
0000
0000
0000
,
0100
0000
0010
0000
,
0100
0000
0010
0000
,
1000
0000
0001
0000
,
1000
0000
0001
0000
,
0010
0000
0001
0000
,
0010
0000
0001
0000
,
0100
0000
0010
0000
,
1000
0000
0001
0000
,
0100
0000
0000
0000
,
0010
0000
0000
0000
,
1000
0000
0000
0000
,
0001
0000
0000
0000
,
1000
0000
1000
0000
,
1000
1000
1000
0000
,
0001
0000
0001
0000
,
0001
0001
0001
0000
,
0010
0000
0000
0000
,
0100
0000
0000
0000
,
0001
0000
0000
0000
,
0001
0000
0000
0000
,
1000
0000
1000
0000
,
0010
0000
0010
0000
,
0100
0000
0100
0000
,
0001
0000
0000
0000
,
1000
0000
0000
0000
,
0010
0000
0000
0000
,
0100
0000
0000
0000
;
