#TITLE:spiral;
#SUBTITLE:;
#ARTIST:DUSTZ;
#TITLETRANSLIT:;
#SUBTITLETRANSLIT:;
#ARTISTTRANSLIT:;
#GENRE:Anime;
#CREDIT:AznPunk07 / GuardianFrozen;
#MENUCOLOR:#b00101;
#METERTYPE:DDR;
#BANNER:[High Speed] - spiral.png;
#BACKGROUND:[High Speed] - spiral-bg.png;
#LYRICSPATH:[High Speed] - spiral.lrc;
#CDTITLE:!cdtitle.png;
#MUSIC:[High Speed] - spiral.mp3;
#OFFSET:-0.212;
#SAMPLESTART:14.200;
#SAMPLELENGTH:11.340;
#SELECTABLE:YES;
#LISTSORT:;
#BPMS:0.000=170.000;
#STOPS:;
#BGCHANGES:0.000=[High Speed] - spiral.avi=1.000=1=1=0,
4.000=[High Speed] - spiral.avi=1.200=0=0=1,
6.000=[High Speed] - spiral.avi=1.000=0=0=1,
99999=-nosongbg-=1.000=0=0=0 // don't automatically add -songbackground-
;
#ATTACKS:;

//---------------dance-single - ----------------
#NOTES:
     dance-single:
     :
     Hard:
     8:
     0.644,0.760,0.659,0.368,0.056:
0000
0000
0000
0000
,
0000
0000
0000
0000
,
0000
0000
0000
0000
,
0000
0000
0000
0000
,
0002
0000
0000
0000
0003
0000
0010
0200
,
0000
0000
0000
0300
0000
0000
0000
0000
,
2000
0000
0000
0000
3000
0000
0000
0010
,
0100
0001
0100
0001
1000
0100
1000
0100
,
0010
0000
0100
1000
0100
0010
0000
0001
,
0000
0011
0000
0100
0000
1000
0000
1000
,
0010
1000
0000
0001
0100
0000
0010
1000
,
0000
1010
0000
0100
0000
0001
0000
0001
,
0010
0001
0000
1000
0100
0010
0001
1000
,
0000
1001
0000
0100
0000
0010
0000
1000
,
0010
0100
0001
0000
0200
0000
0310
0000
,
0200
1300
0200
0301
,
0110
0000
0010
1000
0100
1000
0010
0100
,
0000
0101
0000
0110
0000
0001
0000
1000
,
0010
0100
0000
0001
0010
0100
0010
0001
,
0000
0011
0000
1001
0000
0010
0000
0100
,
1000
0001
0000
1000
0010
0001
0010
0100
,
0000
0110
0000
1001
0000
1010
0000
0010
,
0100
0001
0010
0000
0200
0000
1300
0010
,
0200
0000
0301
0010
0200
0000
0300
0000
,
0010
0001
0010
0001
1000
0000
0001
1000
,
0001
0001
0000
1000
0000
0010
1000
0000
,
1000
0010
0100
0001
1000
0001
0010
0100
,
1000
1000
0000
0010
0000
1000
0100
0000
,
1100
0000
0000
0000
0010
0000
0000
0000
0101
0000
0000
0001
0010
0000
0000
0000
,
1001
0010
0110
0100
,
1001
0000
0000
0000
0010
0000
0000
0000
1000
0000
0000
1000
0100
0000
0000
0000
,
1000
0001
0010
0100
1000
1000
0000
0001
,
0101
1001
1100
1001
,
0101
1010
0101
1010
,
0002
0000
0013
0100
0002
0000
0103
1000
,
0002
0000
0103
0010
0002
0000
0013
0100
,
0110
1010
1001
1010
,
0101
1100
0110
0011
,
2000
0000
3010
0001
2000
0000
3100
0010
,
2000
0000
3001
0010
2000
0000
3010
0000
,
0011
0000
0100
1000
0000
1100
0000
0001
,
0100
0000
0010
1000
0000
0010
0100
0001
,
0010
0000
0010
0100
0000
1100
0000
0001
,
1000
0000
0001
0100
0000
0100
0010
1000
,
0002
0000
0103
0010
0002
0000
0013
0100
,
2000
0000
3100
0010
2000
0000
3100
0010
,
1100
0000
0000
1000
0100
0000
0000
0100
1000
0000
0000
0001
0100
0000
0000
0100
,
0001
0011
1100
1001
,
0012
0000
0013
0100
1002
0000
1003
0010
,
1002
0000
1003
0010
0102
0000
1003
0100
,
0011
0000
0000
0010
0001
0000
0000
0001
0100
0000
0000
0010
1000
0000
0000
1000
,
0100
1100
0011
1001
,
2100
0000
3001
0100
2010
0000
3001
0010
,
2100
0000
3100
0010
2001
0000
3010
0100
,
0110
0000
0010
1000
0000
1010
0000
1000
,
0001
0000
0001
0010
0000
0010
0001
0010
,
0100
0000
1000
0100
0000
0011
0000
1001
,
0001
0000
1000
0010
0100
0001
0100
0000
,
1020
0000
0130
0001
0021
0000
0130
1000
,
1200
0000
0310
0001
0201
0000
0310
0000
,
1000
0100
0010
0100
1000
0001
0010
0100
,
0010
0001
1000
0001
0100
0010
1000
0001
;

//---------------dance-single - ----------------
#NOTES:
     dance-single:
     :
     Challenge:
     10:
     0.815,0.760,0.324,0.089,0.380:
2000
0000
0001
0000
3000
0010
1000
0200
,
0000
0010
0000
1300
0000
0000
0010
0001
,
0020
0000
0100
0000
0031
0000
0000
0200
,
0000
0310
0000
2000
0000
3001
0000
0000
,
0002
0000
1000
0000
0003
0100
0001
0020
,
0000
1000
0000
0031
0000
0000
0100
1000
,
0200
0010
0301
0000
,
0010
0001
0010
0000
0001
0100
0001
0000
1000
0010
1000
0000
0100
1000
0100
0000
,
0010
0000
0010
0000
0000
0000
0100
0000
1000
0000
0100
1000
0001
0000
0100
0000
,
0000
0000
0101
0000
0000
0000
0110
0000
0001
0000
0010
0001
1000
0000
0010
0000
,
0100
0000
0100
0000
0000
0000
0001
0000
0010
0000
0001
0100
0010
0000
0001
0000
,
0000
0110
0000
0000
1000
0001
0000
1000
,
0001
0000
0001
0000
0000
0000
0010
0000
0001
0000
0100
0010
0100
0000
0001
0000
,
0000
0000
1010
0000
0000
0000
1000
0000
0001
0000
0100
0010
0100
0000
0001
0000
,
1000
0000
1000
0000
0000
0000
0000
0000
0100
0000
0001
0100
1000
0000
0100
0000
,
0000
0000
0110
0000
0000
0000
0011
0000
1000
0000
0001
1000
0001
1000
0001
0000
,
1000
0000
1000
0000
0000
0000
0100
0000
0010
0100
1000
0000
0100
0000
1000
0000
,
0000
0100
1000
0000
0000
1000
0100
0000
0010
0000
0001
0100
0010
0000
0100
0000
,
0001
0000
0001
0000
0000
0000
0010
0000
0001
0100
0001
0000
0010
0000
0100
0000
,
0000
0010
0001
0000
0000
0010
0100
0000
1000
0000
0001
1000
0010
0000
0100
0001
,
0010
0000
0010
0000
0000
0000
0100
0000
1000
0001
0100
0000
0010
0000
1000
0000
,
0000
0010
1000
0000
0000
0001
1000
0000
0010
0000
0100
0001
0010
0000
0001
1000
,
0100
0000
0100
0000
0000
0000
0000
0000
0010
0000
0001
0100
0001
0000
0101
0000
,
0000
1010
0000
0000
0011
0000
0100
1000
,
1100
0000
0010
0000
0100
0000
1000
0000
0100
0000
0010
0100
1000
0000
0100
0000
,
0010
0100
1000
0100
0010
0100
1000
0001
,
0100
0000
0010
0000
0100
0000
0001
0000
0100
0000
0010
0100
0001
0000
0100
0000
,
0010
0100
0001
0100
0010
0100
0001
1000
,
0100
0000
0001
0000
0100
0000
0000
0000
1000
0000
0100
1000
0010
0000
0000
0000
,
0010
1000
0010
0000
0001
0010
0001
0000
,
0010
0000
0100
0000
0001
0000
0000
0000
0010
0000
0100
0010
0100
0000
0000
0000
,
1000
0100
0010
0000
0010
0100
1000
0000
0001
0000
1001
0000
0000
0000
0001
0000
,
0101
0100
0010
0010
1000
1000
0100
0100
,
0010
0000
0100
0000
1000
0000
0100
0000
0010
0000
0001
0000
0100
0000
0001
0010
,
1000
0000
0010
0000
0100
0000
1000
0010
0001
0000
0010
0000
0100
0000
0001
0010
,
1000
0000
0010
0000
0100
0000
1000
0010
0001
0000
0000
0000
0010
0000
1000
0000
,
1001
0001
0100
0100
0010
0010
1000
1000
,
0100
0000
0001
0000
0100
0000
0010
0000
0001
0000
0100
0000
1000
0000
0100
0001
,
0010
0000
0100
0000
0010
0000
0001
0100
0010
0000
1000
0000
0100
0000
1000
0010
,
0100
0000
0010
0000
1000
0000
0100
1000
0010
0000
0100
0000
0001
0000
1000
0000
,
1100
0000
0100
1000
0000
1100
0000
0010
,
0011
0000
0001
0010
0000
0011
0100
1000
,
1001
0000
0100
0101
0000
1010
0000
1001
,
0100
0000
0010
0100
0000
0001
1000
0100
,
0010
0001
0010
0001
0100
0001
0100
0010
,
1000
0010
1000
0010
0100
0100
0010
0010
,
1000
0100
0010
0000
0100
0010
0001
0000
1000
0100
0010
0000
0100
0010
0001
0000
,
0100
0010
0000
0000
0010
1000
0000
0000
1000
0001
0000
0000
0001
0100
0000
0000
,
0100
0000
0010
0000
1000
0000
0001
0100
1000
0000
0100
0000
0010
0000
1000
0100
,
0001
0000
0100
0000
0010
0000
0001
0100
1000
0000
0100
0000
0010
0000
1000
0000
,
0001
0010
0100
0000
0010
0100
1000
0000
0001
0010
0100
0000
0010
0100
1000
0000
,
0001
0100
0000
0000
0001
0100
0000
0000
0100
0010
0000
0000
0010
1000
0000
0000
,
1000
0100
0010
0000
0100
0000
1000
0100
0010
0000
0001
0000
1000
0000
0010
0000
,
0100
0010
0001
0000
0010
0000
0100
0010
0001
0000
0010
0000
0100
0000
0001
0000
,
1001
0010
0100
0011
0000
1100
0000
1000
,
0010
0100
0001
0101
0000
1010
0100
0001
,
1000
0100
0010
1010
0000
0011
0000
1100
,
0001
0100
0001
0010
0000
0100
1000
0100
,
0010
0000
0001
0000
0010
0000
0100
1000
0100
0000
0010
0000
0001
0000
0100
0001
,
0100
0000
0010
0000
1000
0000
0010
0100
0010
0000
0100
0000
0001
0000
1000
0000
,
0010
1000
0100
0001
0010
0001
0100
1000
,
0010
0000
0001
0000
1000
0000
0100
0000
0001
0000
0010
0000
0100
0010
0001
0000
;

//---------------dance-single - ----------------
#NOTES:
     dance-single:
     :
     Medium:
     7:
     0.491,0.725,0.190,0.391,0.000: // measure 1
0000
0000
0000
0000
,  // measure 2
0000
0000
0000
0000
,  // measure 3
0000
0000
0000
0000
,  // measure 4
0000
0000
0000
0000
,  // measure 5
0001
0000
0001
0000
0000
1000
0001
1000
,  // measure 6
0000
1000
0000
0000
0000
0000
0000
0000
,  // measure 7
0001
1000
1000
0000
,  // measure 8
0010
0010
0100
0100
,  // measure 9
0001
0000
0000
0010
0100
0000
0000
1000
,  // measure 10
0000
1000
0000
0001
0000
0100
0000
0000
,  // measure 11
0010
0000
0000
1000
0001
0000
0000
0010
,  // measure 12
0000
0010
0000
0100
0000
0100
0000
0010
,  // measure 13
0001
0000
0000
0000
1000
0000
0000
0010
,  // measure 14
0000
0010
0000
0100
0000
0100
0000
0001
,  // measure 15
1000
0000
0002
0003
,  // measure 16
2000
3000
0002
0003
,  // measure 17
0010
0001
0000
0001
0100
0000
0000
0010
,  // measure 18
0000
0010
0000
1000
0000
0100
0000
0010
,  // measure 19
0001
0000
1000
0001
1000
0000
1000
0010
,  // measure 20
0000
0010
0000
0100
0000
0001
0000
0010
,  // measure 21
0001
0010
0000
0100
1000
0100
0000
1000
,  // measure 22
0000
0001
0000
0001
0000
0100
0000
0010
,  // measure 23
0100
0010
0000
0000
2000
0000
3000
0000
,  // measure 24
0002
0003
2000
3000
,  // measure 25
0001
0010
0100
0000
0010
0000
0001
0000
,  // measure 26
1000
0010
0100
0001
,  // measure 27
1000
0100
0010
0000
0001
0000
1000
0000
,  // measure 28
0010
0100
0001
1000
,  // measure 29
0002
0013
2000
3010
,  // measure 30
0002
0103
2000
3100
,  // measure 31
0001
0010
0100
1000
,  // measure 32
0001
0010
0100
1000
0001
1000
0000
0000
,  // measure 33
0001
0001
0100
0100
,  // measure 34
0020
1000
0100
1030
,  // measure 35
2000
3100
0200
0310
,  // measure 36
0020
0031
0002
1003
,  // measure 37
1000
1000
0010
0010
,  // measure 38
0200
0001
0010
0301
,  // measure 39
0002
0000
0013
0100
0020
0000
0130
1000
,  // measure 40
0200
0000
1300
0001
2000
0000
3010
0000
,  // measure 41
0100
0000
0100
0000
0010
0000
1000
0001
,  // measure 42
1000
0000
0100
0000
0010
0001
0010
0000
,  // measure 43
0100
0000
1000
0000
0001
1000
0001
0000
,  // measure 44
0100
0000
0010
1000
0010
0100
0010
0000
,  // measure 45
2000
3100
0200
0310
,  // measure 46
0020
0031
0002
1003
,  // measure 47
0001
0101
1000
1010
,  // measure 48
1002
0100
0010
1003
,  // measure 49
0201
1300
1200
0301
,  // measure 50
0201
0310
0210
1300
,  // measure 51
0100
0101
0010
1010
,  // measure 52
1001
1100
0011
1100
,  // measure 53
0021
0000
0130
1000
1020
0000
0130
0001
,  // measure 54
0021
0000
0130
1000
1020
0000
0130
0001
,  // measure 55
0010
0000
0100
1000
0001
1000
0100
0000
,  // measure 56
0010
0000
0001
1000
0001
0000
0100
0000
,  // measure 57
0010
0000
1000
0010
0100
0010
1000
0000
,  // measure 58
0001
0000
0010
0100
0010
0001
1000
0000
,  // measure 59
0002
0000
0103
0010
0100
0000
0001
0000
,  // measure 60
2000
0000
3100
0010
0100
0000
1000
0000
,  // measure 61
0001
0100
0001
0000
1000
0010
1000
0000
,  // measure 62
0001
0010
0001
0010
0100
1000
0100
1000
;

//---------------dance-single - ----------------
#NOTES:
     dance-single:
     :
     Beginner:
     1:
     0.091,0.136,0.000,0.000,0.000: // measure 1
0000
0000
0000
0000
,  // measure 2
0000
0000
0000
0000
,  // measure 3
0000
0000
0000
0000
,  // measure 4
0000
0000
0000
0000
,  // measure 5
0000
0000
0000
0000
,  // measure 6
0000
0000
0000
0000
,  // measure 7
0000
0000
0000
0000
,  // measure 8
0000
0000
0000
0000
,  // measure 9
1000
0000
0000
0000
,  // measure 10
0001
0000
0000
0000
,  // measure 11
0100
0000
0000
0000
,  // measure 12
0010
0000
0000
0000
,  // measure 13
0100
0000
0000
0000
,  // measure 14
0001
0000
0000
0000
,  // measure 15
1000
0000
0000
0000
,  // measure 16
0000
0000
0000
0000
,  // measure 17
0001
0000
0000
0000
,  // measure 18
0010
0000
0000
0000
,  // measure 19
0001
0000
0000
0000
,  // measure 20
1000
0000
0000
0000
,  // measure 21
0100
0000
0000
0000
,  // measure 22
0010
0000
0000
0000
,  // measure 23
0100
0000
0000
0000
,  // measure 24
0000
0000
0000
0000
,  // measure 25
1000
0000
0000
0000
,  // measure 26
0000
0000
0000
0000
,  // measure 27
0001
0000
0000
0000
,  // measure 28
0000
0000
0000
0000
,  // measure 29
0100
0000
0000
0000
,  // measure 30
0010
0000
0000
0000
,  // measure 31
0100
0000
0000
0000
,  // measure 32
0010
0000
0000
0000
,  // measure 33
1000
0000
1000
0000
,  // measure 34
1000
0000
0000
0000
,  // measure 35
0001
0000
0000
0000
,  // measure 36
0100
0000
0000
0000
,  // measure 37
0001
0000
0001
0000
,  // measure 38
0001
0000
0000
0000
,  // measure 39
1000
0000
0000
0000
,  // measure 40
0100
0000
0000
0000
,  // measure 41
0010
0000
0010
0000
,  // measure 42
0010
0000
0000
0000
,  // measure 43
0010
0000
0010
0000
,  // measure 44
0010
0000
0000
0000
,  // measure 45
1000
0000
0000
0000
,  // measure 46
0001
0000
0000
0000
,  // measure 47
1000
0000
1000
0000
,  // measure 48
1000
0000
0000
0000
,  // measure 49
0010
0000
0000
0000
,  // measure 50
0100
0000
0000
0000
,  // measure 51
0001
0000
0001
0000
,  // measure 52
0001
0000
0000
0000
,  // measure 53
0010
0000
0000
0000
,  // measure 54
0100
0000
0000
0000
,  // measure 55
0010
0000
0000
0000
,  // measure 56
0010
0000
0000
0000
,  // measure 57
0001
0000
0000
0000
,  // measure 58
1000
0000
0000
0000
,  // measure 59
0010
0000
0010
0000
,  // measure 60
0010
0000
0000
0000
,  // measure 61
0100
0000
0000
0000
,  // measure 62
0100
0000
0000
0000
;

//---------------dance-single - ----------------
#NOTES:
     dance-single:
     :
     Easy:
     4:
     0.241,0.379,0.089,0.067,0.000: // measure 1
0000
0000
0000
0000
,  // measure 2
0000
0000
0000
0000
,  // measure 3
0000
0000
0000
0000
,  // measure 4
0000
0000
0000
0000
,  // measure 5
1000
0000
0000
0000
,  // measure 6
0000
0000
0000
0000
,  // measure 7
0001
0000
0000
0000
,  // measure 8
0000
0000
0000
0000
,  // measure 9
0001
0000
0100
0000
,  // measure 10
1000
0000
0000
0000
,  // measure 11
1000
0000
0100
0000
,  // measure 12
0001
0000
0000
0000
,  // measure 13
0001
0000
0010
0000
,  // measure 14
1000
0000
0000
0000
,  // measure 15
1000
0000
0010
0000
,  // measure 16
0001
0000
0000
0000
,  // measure 17
1001
0000
0010
0000
,  // measure 18
0100
0000
0001
0000
,  // measure 19
0010
0000
0100
0000
,  // measure 20
1000
0000
0010
0000
,  // measure 21
0110
0000
0001
0000
,  // measure 22
1000
0000
0100
0000
,  // measure 23
0010
0000
0001
0000
,  // measure 24
1000
0000
0010
0000
,  // measure 25
1000
0100
0010
0000
,  // measure 26
0100
0000
1000
0000
,  // measure 27
0001
0100
0010
0000
,  // measure 28
0100
0000
0001
0000
,  // measure 29
1000
0000
1000
0000
,  // measure 30
0001
0000
0001
0000
,  // measure 31
1000
0100
0010
0001
,  // measure 32
1001
0110
1001
0000
,  // measure 33
0001
0001
0100
0100
,  // measure 34
0010
0010
1000
1000
,  // measure 35
0200
0000
0010
0000
,  // measure 36
1000
0000
0310
0000
,  // measure 37
0010
0010
0001
0001
,  // measure 38
1000
1000
0010
0010
,  // measure 39
0200
0000
1000
0000
,  // measure 40
0010
0000
0301
0000
,  // measure 41
0001
0000
1000
0000
,  // measure 42
0001
0010
0100
0000
,  // measure 43
1000
0000
0001
0000
,  // measure 44
1000
0010
0100
0000
,  // measure 45
0001
0000
1000
0000
,  // measure 46
0100
0000
0110
0000
,  // measure 47
1000
1000
0010
0010
,  // measure 48
0100
0001
0100
0010
,  // measure 49
2000
0000
0100
0000
,  // measure 50
0001
0000
3010
0000
,  // measure 51
0001
0001
0010
0010
,  // measure 52
0100
0010
0001
1000
,  // measure 53
0002
0000
0100
0000
,  // measure 54
1000
0000
0013
0000
,  // measure 55
0100
0000
0010
0000
,  // measure 56
0001
1000
0010
0100
,  // measure 57
0001
0000
0010
0000
,  // measure 58
0100
1000
0100
0010
,  // measure 59
0002
0000
1003
0000
,  // measure 60
2000
0000
3001
0000
,  // measure 61
1000
1000
0001
0001
,  // measure 62
0100
0110
0010
0110
;
