#TITLE:concon;
#SUBTITLE:;
#ARTIST:S-C-U;
#TITLETRANSLIT:;
#SUBTITLETRANSLIT:;
#ARTISTTRANSLIT:;
#CREDIT:Pandy;
#BANNER:bn.png;
#BACKGROUND:bg.png;
#LYRICSPATH:;
#CDTITLE:;
#MUSIC:concon.mp3;
#OFFSET:-0.700;
#SAMPLESTART:61.317;
#SAMPLELENGTH:15.000;
#SELECTABLE:YES;
#BPMS:0.000=190.000;
#STOPS:;
#BGCHANGES:;

//---------------dance-single - pandy----------------
#NOTES:
     dance-single:
     pandy:
     Hard:
     9:
     0.656,0.728,0.113,0.226,0.042:
0000
0000
0000
0000
,
0000
0000
0000
0000
,
0000
0000
0000
0000
,
0000
0000
0000
0000
,
0000
1000
0010
1000
0001
0010
0000
0010
,
0000
0010
1000
0010
0001
0100
0000
0001
,
0000
1000
0100
0010
0100
1000
0000
1000
,
0001
0010
0100
0010
0000
0100
1000
0010
,
1000
0001
1000
0001
0000
0100
0000
0001
,
0000
0100
0100
0000
0000
0000
0000
0000
,
0010
0100
0010
0100
0000
0010
0000
1000
,
0000
0001
0001
0000
0000
0000
0000
0000
,
0001
1000
0100
1000
0001
0010
0000
0100
,
0000
0100
0010
0001
1000
0010
0000
1000
,
0000
1000
0100
0001
0100
1000
0000
1000
,
0010
0001
0010
0100
0000
0100
0010
1000
,
0001
0000
1000
0001
0000
1000
0000
0001
,
0000
1000
0001
1000
0000
0001
0000
1000
,
0001
0000
1000
0001
0000
1000
0001
1000
,
0001
0000
0001
1000
0000
0001
2000
0000
,
0000
0000
0000
3000
,
0000
0000
0000
0100
1000
0100
0001
0100
,
0000
0000
0000
0000
,
0000
0000
0000
0010
0001
0010
1000
0010
,
0100
0000
0010
0001
0000
0101
0000
1100
,
0000
0001
0100
0010
0000
0110
0000
0010
,
1000
0000
1100
0000
0100
1000
0001
0010
,
0000
0100
1000
0100
0000
0100
0020
0000
,
0000
0100
0000
0130
,
0000
0000
0100
0010
0001
0010
1000
0100
,
1000
0100
0010
0001
0000
1000
0000
0001
,
1000
0001
0100
1000
0100
0010
1000
0001
,
0020
0000
0230
0000
1300
0000
1000
0010
,
0200
0000
0320
0000
1030
0000
1000
0001
,
0020
0000
0032
0000
0103
0000
0001
0100
,
0020
2030
3100
1000
,
0001
0100
0001
0100
0000
0100
0010
1000
,
0010
1000
0000
0100
0010
0001
0010
0001
,
1000
0010
0100
0010
0000
0100
0001
1000
,
0001
1000
0000
0100
0010
0001
0010
0001
,
2000
0000
3020
0000
0130
0000
0010
1000
,
0002
0000
0023
0000
0031
0000
0001
1000
,
0200
0000
2300
0000
3010
0000
1000
0010
,
0200
0000
0320
0000
0130
0010
1000
0001
,
1000
0100
1000
0100
0000
0100
0010
0001
,
0010
0001
0000
0001
0100
0010
0100
0010
,
0100
0000
0010
0000
1000
0000
0001
0000
0000
0000
0001
0000
1000
0000
0001
1000
,
0001
1000
0020
1030
0001
0020
0000
0100
,
0130
0010
0001
0100
0010
1000
0001
0010
,
0100
2000
0000
0100
0000
0100
0000
3100
,
1000
0001
1000
0010
0100
0010
1000
0100
,
0010
0002
0000
0010
0000
0010
0000
0013
,
0001
0000
0001
1000
0000
1100
0000
0011
,
0000
0001
0011
0000
0000
0001
0100
1000
,
0100
0010
0000
1010
0000
1000
0100
0000
,
0000
0000
0000
0000
,
0100
0010
0001
0010
0001
1000
0010
1000
,
0100
0020
0000
0001
0000
0100
0000
0031
,
1000
0010
1000
0001
0010
0100
1000
0001
,
0101
0000
0000
1010
0000
0000
1001
0000
0000
1100
0000
0000
1000
0000
0001
0000
,
0100
0000
0100
0010
0000
1000
0000
0001
,
0000
0001
0010
0000
0000
0010
1000
0010
,
0001
0100
1000
0100
0000
0100
0010
1000
,
0001
0000
0000
0000
,
1000
0000
0010
0000
0100
0000
0010
0000
1000
0000
0001
1000
0000
0000
0001
0000
,
0100
1000
0100
0010
0000
0100
0010
1000
,
0001
0000
0010
0000
0001
0000
0100
0000
0001
0000
0010
0100
0000
0000
0010
0000
,
0001
1000
0010
0100
0000
0100
0010
1000
,
0001
1000
0010
1000
0001
0010
0001
1000
,
0010
1000
0001
0010
0001
0010
0100
1000
,
0100
1000
0001
0010
0100
1000
0001
1000
,
1000
0100
0010
0001
1000
0100
0010
0001
,
1000
0000
0001
0000
1000
0000
0010
0000
1000
0000
1000
0100
0000
0100
0010
0000
,
0001
1000
0001
1000
0000
0001
0100
0010
,
1000
0000
0001
0000
0010
0000
0100
0000
1000
0000
1000
0100
0000
0010
0001
0000
,
1000
0001
0100
0001
0000
0001
0100
0001
,
0010
0100
0010
0001
1000
0100
1000
0010
,
1000
0001
0010
0001
1000
0001
1000
0100
,
0010
0001
0010
0001
0010
0001
0010
0001
,
0020
0000
0000
0000
,
0031
0010
1000
0010
0000
0100
0000
1000
,
0000
0010
0100
0000
0000
0000
0000
0000
;

//---------------dance-single - ----------------
#NOTES:
     dance-single:
     :
     Medium:
     7:
     0.430,0.536,0.019,0.104,0.009:
0000
0000
0000
0000
,
0000
0000
0000
0000
,
0000
0000
0000
0000
,
0000
0000
0000
0000
,
1000
0000
0001
0000
0100
0001
0000
1000
,
0000
0100
0010
0000
0100
1000
0000
0001
,
0000
0001
0100
0010
1000
0001
0000
0001
,
0010
0100
1000
0100
0000
1000
0100
0010
,
0001
0000
1000
0010
0000
0100
0000
0001
,
0000
0010
0100
0000
0000
0000
0000
0000
,
0100
0000
0010
0001
0000
1000
0000
0010
,
0000
0100
0100
0000
0000
0000
0000
0000
,
0100
0000
0010
0000
1000
0010
0000
0100
,
0000
0001
1000
0000
0001
0100
0000
0010
,
0000
0010
1000
0001
0100
0001
0000
0001
,
1000
0001
0100
0001
0000
0000
0000
0001
,
0100
0001
0100
1000
,
0100
0010
1000
0010
,
0100
0100
0010
0010
,
1000
0001
0010
0200
,
0000
0000
0000
0000
0000
0000
0000
0300
,
0000
0000
0000
0010
0001
0010
0001
0010
,
0000
0000
0000
0000
,
0000
0000
0000
0001
0100
0001
0100
0001
,
0100
0000
0010
1000
0000
0010
0000
0100
,
0000
0010
0100
0010
0000
0100
0000
0010
,
1000
0000
0001
0000
1000
0001
0010
0100
,
0000
0010
0001
0010
0000
0001
0200
0000
,
0000
0000
0000
0000
,
0300
0000
0000
0010
1000
0010
1000
0010
,
0000
0000
0000
0000
0000
0000
0000
1000
,
0100
0010
0001
1000
0100
0010
0001
0000
,
0010
0000
0000
0001
0100
0000
0000
0000
,
0000
0000
0000
0000
0000
0001
0010
0100
,
1000
0000
0000
0100
0100
0000
0000
0000
,
0000
0000
0000
0000
0000
1000
0100
0010
,
0001
0000
0000
1001
0000
0000
0010
0000
,
0000
1001
0000
0000
0001
0000
0100
0000
,
0010
0000
0000
0100
0000
0000
0010
0000
,
0000
1000
0000
0000
0100
0000
1000
0000
,
0010
0000
0000
0100
0001
0000
0000
0000
,
0000
0000
0000
0000
0000
0001
0010
0100
,
1000
0000
0000
0100
1000
0000
0000
0000
,
0000
0000
0000
0000
0000
1000
0100
0010
,
0001
0000
0000
1000
0000
0000
0001
0000
,
0000
0100
0000
0000
0001
0000
0100
0000
,
0010
1000
0010
0100
,
0010
1000
0010
1000
0010
1000
0000
0000
,
0020
0000
0000
2030
0000
0000
3100
0000
,
1000
0100
0000
0010
0000
0001
0000
0010
,
0002
0000
0000
0203
0000
0000
0310
0000
,
0100
0010
0000
1000
0000
0001
0000
1000
,
0100
0000
1000
0100
0000
0010
0000
0100
,
0000
1000
1000
0000
0000
1000
0100
0010
,
0001
0010
0000
0001
0000
0100
0010
0000
,
0000
0000
0000
0000
,
0020
0000
0000
2030
0000
0000
3100
0000
,
1000
0100
0000
0010
0000
0001
0000
0010
,
0002
0000
0000
0203
0000
0000
0310
0000
,
1000
0000
0000
0010
0000
0000
1000
0000
0000
0010
0000
0000
1000
0000
0010
0000
,
1000
0000
1000
0010
0000
0100
0000
0010
,
0000
1000
0010
0000
0000
0000
1000
0000
,
0001
0010
0100
1000
0000
0001
0010
0100
,
1000
0000
0000
0000
,
1000
0001
0100
0100
,
0001
1000
0010
0100
,
0001
0100
1000
0100
,
0010
0001
0010
1000
,
0100
0100
1000
1000
,
0001
0000
0001
0000
0100
0001
0100
0000
,
0001
0001
1000
1000
,
0010
1000
0100
0010
,
0001
1000
0010
1000
,
0001
0001
0100
0100
,
0001
0010
0100
0010
,
0001
0001
1000
0010
,
1000
0100
0001
0100
,
1000
0010
0001
0010
,
1000
0001
1000
0001
1000
0001
1000
0001
,
0020
0000
0000
0000
,
0130
0000
0000
1000
0000
0100
0000
0010
,
0000
0001
0010
0000
0000
0000
0000
0000
;

//---------------dance-single - ----------------
#NOTES:
     dance-single:
     :
     Easy:
     4:
     0.298,0.345,0.019,0.113,0.000:
0000
0000
0000
0000
,
0000
0000
0000
0000
,
0000
0000
0000
0000
,
0000
0000
0000
0000
,
1000
1000
0001
0000
,
0100
0100
0001
0000
,
0100
0010
1000
0000
,
0010
0010
0100
0000
,
0110
0000
0000
0000
,
0000
0000
0000
0000
,
1001
0000
0000
0000
,
0000
0000
0000
0000
,
0001
1000
0010
0000
,
1000
0010
1000
0000
,
0010
0100
0001
0000
,
1000
0100
0000
0000
,
2000
0000
0000
0000
,
0000
0000
0000
0000
,
0000
0000
0000
0000
,
0000
0000
0000
0020
,
0000
0000
0000
3030
,
0000
0000
0010
0010
,
0000
0000
0000
0000
,
0000
0000
0100
0100
,
0002
0100
0100
0100
,
0100
0100
0100
0100
,
0100
0100
0100
0100
,
0100
0100
0100
0200
,
0000
0000
0000
0000
,
0303
0000
0001
1000
,
0000
0000
0000
0000
,
1000
0010
0100
0001
,
0020
0000
0130
0000
,
0100
0000
1000
0000
,
0200
0000
1300
0000
,
0010
0000
0100
0000
,
0001
0000
0001
0000
,
1000
0000
0010
1000
,
0010
0000
0100
0000
,
0010
0000
1000
0001
,
0020
0000
0130
1000
,
0200
0000
1300
0100
,
0020
0000
0031
0010
,
0200
0000
0310
0100
,
1000
0000
0000
0001
,
0000
0000
0100
0001
,
1000
0001
0100
1000
,
0100
0010
1000
0001
,
1000
0000
0000
0001
0000
0000
0100
0000
,
0001
0000
0000
0100
0000
0010
0000
0000
,
1000
0000
0000
1000
0000
0000
0010
0000
,
0100
0000
0000
0010
0000
0010
0000
0000
,
0100
0000
0000
0010
0000
1000
0000
0001
,
0000
1000
0001
0000
0000
0000
0001
0000
,
0100
0010
0000
0100
0000
0010
1000
0000
,
0000
0000
0000
0000
,
1000
0000
0000
0100
0000
0000
1000
0000
,
0100
0010
0000
0100
0000
0010
0000
0000
,
0001
0000
0000
0010
0000
0000
0001
0000
,
0200
0000
0000
0310
,
0100
0000
0000
0010
0000
1000
0000
0010
,
0000
0100
0010
0000
0000
0000
0100
0000
,
0010
1000
0010
1000
0000
0010
1000
0010
,
1000
0000
0000
0000
,
1000
0000
0001
0000
,
0100
0100
0000
0001
,
0100
0000
0010
0000
,
0100
0100
0000
0010
,
1000
0010
1000
0010
,
1000
0010
1000
1000
,
0001
0100
0001
0100
,
0001
0010
0100
1000
,
0100
1000
0010
0100
,
0001
0001
1000
1000
,
0001
0100
0010
0100
,
0001
0001
0100
0100
,
0010
1000
0010
1000
,
0010
1000
0010
1000
,
0100
0100
0100
0100
,
0200
0000
0000
0000
,
0310
0000
0000
0001
0000
1000
0000
0001
,
0000
0100
0100
0000
0000
0000
0000
0000
;

//---------------dance-single - ----------------
#NOTES:
     dance-single:
     :
     Beginner:
     2:
     0.182,0.339,0.104,0.000,0.000: // measure 1
0000
0000
0000
0000
,  // measure 2
0000
0000
0000
0000
,  // measure 3
0000
0000
0000
0000
,  // measure 4
0000
0000
0000
0000
,  // measure 5
0010
0000
0000
0000
,  // measure 6
1000
0000
0000
0000
,  // measure 7
0001
0000
0000
0000
,  // measure 8
0001
0000
0000
0000
,  // measure 9
1001
0000
0000
0000
,  // measure 10
0000
0000
0000
0000
,  // measure 11
0110
0000
0000
0000
,  // measure 12
0000
0000
0000
0000
,  // measure 13
0010
0000
0000
0000
,  // measure 14
0100
0000
0000
0000
,  // measure 15
0001
0000
0000
0000
,  // measure 16
1000
0000
0000
0000
,  // measure 17
0010
0000
0000
0000
,  // measure 18
0000
0000
0000
0000
,  // measure 19
0000
0000
0000
0000
,  // measure 20
0000
0000
0000
0000
,  // measure 21
0100
0000
0000
0000
,  // measure 22
0000
0000
0001
0001
,  // measure 23
0001
0000
0000
0000
,  // measure 24
0000
0000
1000
1000
,  // measure 25
0010
0000
0000
0000
,  // measure 26
0100
0000
0000
0000
,  // measure 27
0010
0000
0000
0000
,  // measure 28
1000
0000
0000
0000
,  // measure 29
0001
0000
0000
0000
,  // measure 30
0000
0000
1000
1000
,  // measure 31
0100
0000
0000
0000
,  // measure 32
1000
0000
0010
0000
,  // measure 33
0100
0100
0100
0000
,  // measure 34
0000
0000
0000
0000
,  // measure 35
0010
0010
0010
0000
,  // measure 36
0000
0000
0000
0000
,  // measure 37
1000
0000
0000
0001
,  // measure 38
0000
0000
0100
0100
,  // measure 39
0100
0000
0000
0010
,  // measure 40
0000
0000
1000
0001
,  // measure 41
0100
0000
0000
0010
,  // measure 42
0010
0000
0000
0000
,  // measure 43
0100
0000
0000
0001
,  // measure 44
0001
0000
0000
1000
,  // measure 45
1000
0000
0000
0001
,  // measure 46
0000
0000
0100
0000
,  // measure 47
0001
0000
0000
1000
,  // measure 48
1001
0000
0010
0000
,  // measure 49
1001
0000
0000
0000
,  // measure 50
0010
0010
0010
0000
,  // measure 51
1001
0000
0000
0000
,  // measure 52
0100
0100
0100
0000
,  // measure 53
0010
0000
1000
0000
,  // measure 54
0010
0000
0000
0000
,  // measure 55
0100
0100
0100
0100
,  // measure 56
0000
0000
0000
0000
,  // measure 57
1001
0000
0010
0000
,  // measure 58
0100
0100
0100
0000
,  // measure 59
1001
0000
0010
0000
,  // measure 60
0110
0000
0000
0110
,  // measure 61
1001
0000
1000
0000
,  // measure 62
0001
0000
0000
0100
,  // measure 63
0100
0000
0000
0010
,  // measure 64
0000
0000
0000
0000
,  // measure 65
1000
0000
1000
0000
,  // measure 66
1000
1000
1000
0000
,  // measure 67
0001
0000
0001
0000
,  // measure 68
0001
0001
0001
0000
,  // measure 69
0100
0000
0010
0000
,  // measure 70
1000
0000
0001
0001
,  // measure 71
0001
0000
1000
0000
,  // measure 72
0010
0000
0100
0000
,  // measure 73
0010
0000
1000
0000
,  // measure 74
0001
0001
0001
0000
,  // measure 75
1000
0000
0010
0000
,  // measure 76
0100
0100
0100
0000
,  // measure 77
0010
0000
0010
0000
,  // measure 78
0010
0000
0010
0000
,  // measure 79
0100
0100
0100
0100
,  // measure 80
0100
0000
0000
0000
,  // measure 81
1001
0000
0000
0000
;
