#TITLE:concon;
#SUBTITLE:;
#ARTIST:S-C-U;
#TITLETRANSLIT:;
#SUBTITLETRANSLIT:;
#ARTISTTRANSLIT:;
#CREDIT:;
#BANNER:concon.png;
#BACKGROUND:concon-bg.png;
#LYRICSPATH:;
#CDTITLE:;
#MUSIC:concon.mp3;
#OFFSET:-0.081;
#SAMPLESTART:60.690;
#SAMPLELENGTH:17.220;
#SELECTABLE:YES;
#BPMS:0.000=190.000;
#STOPS:;
#BGCHANGES:;

//---------------dance-single - ----------------
#NOTES:
     dance-single:
     :
     Hard:
     9:
     0.795,0.828,0.262,0.262,0.116:
0000
0000
0000
0000
,
0000
0000
0000
0000
,
0000
0000
0000
0000
,
0000
0000
0000
0000
,
0000
0000
1000
0001
1000
0000
0001
0000
0100
0000
0020
0000
0000
0000
0130
0000
,
0000
0010
0100
0001
0010
0100
0000
1001
,
0000
0000
1000
0010
1000
0000
0010
0000
0100
0000
0001
0000
0000
0000
1000
0100
,
1000
0100
0010
0001
0000
0100
0010
1000
,
0001
0100
1000
0100
0000
1001
0000
0120
,
0000
0100
0130
0010
1000
1000
0001
0001
,
1000
0010
0001
0010
0000
1001
0000
0210
,
0000
0010
0310
0100
0001
0001
1000
1000
,
0000
0000
0001
0100
0001
0000
0100
0000
0010
0000
2000
0000
0000
0000
3001
0000
,
0000
1000
0100
0001
0100
1000
0000
1001
,
0000
0000
0001
0100
0001
0000
0100
0000
0010
0000
1000
0000
0000
0000
0001
0010
,
0001
0100
0010
1000
0000
0001
0100
0010
,
0100
0000
0001
2000
0000
3001
0000
1001
,
0000
0001
0010
0100
0000
1100
0000
0001
,
0010
0000
0100
1000
0000
0100
0010
0001
,
1000
0000
0010
0200
0000
0010
0310
0000
,
0100
0010
1000
0010
0000
0001
0000
0020
,
0000
1000
1030
0010
1000
1000
0100
0100
,
1000
0100
0010
0100
0000
0010
0000
0002
,
0000
0100
0103
0001
0010
0010
0100
0100
,
1000
0000
0001
0200
0000
0310
0000
0110
,
0000
0010
1000
0001
0000
1001
0000
0001
,
0100
0000
0110
0000
0010
1000
0100
1000
,
0000
0001
0100
0020
0000
0100
0130
0000
,
0010
1000
0100
0001
0000
0100
0000
0201
,
0000
1000
1300
0100
1000
1000
0010
0010
,
1000
0010
0001
0010
0000
1000
0000
0001
,
1000
0100
0010
0001
1000
0010
0100
0001
,
2000
0000
0000
0001
3001
0000
1000
0010
,
0200
0000
0000
0010
0310
0100
0010
1000
,
0002
0000
0000
1000
1003
0000
0001
0100
,
0020
0000
0000
0100
0130
0010
1000
0100
,
0001
0100
1000
0010
0000
0001
0010
1000
,
0100
0001
0000
0100
1000
0010
1000
0100
,
0010
0001
0100
0001
0000
0010
0100
1000
,
0100
0010
0000
0001
0100
0010
1000
0010
,
0200
0000
0000
0001
0301
0000
0100
0010
,
2000
0000
0000
0010
3010
1000
0010
0100
,
0002
0000
0000
0010
0013
0000
0001
0010
,
0200
0000
0000
1000
1300
0100
0010
0001
,
0100
0010
1000
0001
0000
1000
0100
0010
,
0001
1000
0000
0001
0100
1000
0100
0001
,
1000
0010
0001
0010
1000
0100
0001
0100
,
0100
0100
0100
1000
1000
2000
0000
3001
,
1000
0000
0010
0100
0010
0000
1000
0000
0100
0010
0100
0000
1000
0000
0010
0000
,
0100
0001
0000
0101
0000
1000
0000
1100
,
0001
0000
0100
0010
0100
0000
0001
0000
0010
0100
0010
0000
0001
0000
0100
0000
,
0010
1000
0000
1100
0000
0001
0000
0101
,
0100
0000
0010
1000
0000
0001
0000
2001
,
0000
0100
0100
3100
0000
1000
0010
0001
,
1000
0100
0000
0101
0000
0100
1000
0010
,
1000
0100
0010
0001
1000
0010
0100
0001
,
0010
0000
0100
1000
0100
0000
0010
0000
0001
0010
0001
0000
0100
0000
0010
0000
,
1000
0001
0000
1010
0000
0001
0000
1100
,
0001
0000
1000
0100
1000
0000
0001
0000
0100
0001
0100
0000
0010
0000
1000
0000
,
1001
0000
0000
0101
0000
0000
0110
0000
0000
1010
0000
0000
1000
0000
0001
0000
,
0100
0000
0010
1000
0000
0001
0000
0102
,
0000
1000
1000
1003
0000
0001
0010
0100
,
1000
0100
0001
0100
0000
1000
0010
0001
,
0010
0000
1010
0000
0010
1000
0100
0000
,
0010
0000
0001
0000
0100
0000
0001
0000
0010
0000
0000
0010
0000
0100
0010
0000
,
0001
0100
0010
0100
0000
0002
1000
1003
,
0001
0000
0100
0000
0010
0000
0100
0000
0001
0000
0000
0001
0000
0010
0100
0000
,
1000
0100
0010
0001
0000
2000
0001
3001
,
1000
1000
0001
1000
1000
0100
1000
1000
,
0010
1000
1000
0001
1000
0010
0100
0001
,
1000
0010
0010
1000
0001
0001
1000
0100
,
0010
0001
0100
0001
0010
0100
1000
0100
,
0010
0000
0001
0000
0100
0000
0001
0000
0010
0000
0000
0010
0000
0100
1000
0000
,
0100
0010
0001
1000
0000
0020
0100
0130
,
0010
0000
1000
0000
0001
0000
0100
0000
0001
0000
0000
0001
0000
0010
0100
0000
,
1000
0100
0010
0001
0000
2000
0100
3100
,
0010
0010
0001
0100
0100
0001
0010
0010
,
0100
0010
0010
1000
0010
0001
0100
0010
,
1000
0100
0001
0100
1000
0010
0001
0010
,
1000
0100
0010
0001
1000
0010
0100
0001
,
1000
0100
0001
0100
0000
1000
0000
0102
,
0000
1000
1003
0000
0000
0000
0000
0000
;

//---------------dance-single - ----------------
#NOTES:
     dance-single:
     :
     Beginner:
     2:
     0.129,0.193,0.000,0.000,0.000: // measure 1
0000
0000
0000
0000
,  // measure 2
0000
0000
0000
0000
,  // measure 3
0000
0000
0000
0000
,  // measure 4
0000
0000
0000
0000
,  // measure 5
1000
0000
0000
0000
,  // measure 6
0001
0000
0000
0000
,  // measure 7
0010
0000
0000
0000
,  // measure 8
0100
0000
0100
0000
,  // measure 9
0100
0000
0000
0000
,  // measure 10
1000
0000
0000
0000
,  // measure 11
0001
0000
0000
0000
,  // measure 12
0010
0000
0000
0000
,  // measure 13
0001
0000
0000
0000
,  // measure 14
0100
0000
0000
0000
,  // measure 15
0010
0000
0000
0000
,  // measure 16
1000
0000
1000
0000
,  // measure 17
1000
0000
0000
0000
,  // measure 18
0000
0000
0000
0000
,  // measure 19
0001
0000
0000
0000
,  // measure 20
0000
0000
0000
0000
,  // measure 21
0100
0000
0000
0000
,  // measure 22
0000
0000
0000
0000
,  // measure 23
0010
0000
0000
0000
,  // measure 24
0000
0000
0000
0000
,  // measure 25
1000
0000
0000
0000
,  // measure 26
1000
0000
0000
0000
,  // measure 27
0001
0000
0000
0000
,  // measure 28
0001
0000
0000
0000
,  // measure 29
0100
0000
0000
0000
,  // measure 30
0010
0000
0000
0000
,  // measure 31
1000
0000
0000
0000
,  // measure 32
0001
0000
0001
0000
,  // measure 33
0001
0000
0000
0000
,  // measure 34
0010
0000
0010
0000
,  // measure 35
0010
0000
0000
0000
,  // measure 36
0100
0000
0100
0000
,  // measure 37
0100
0000
0000
0000
,  // measure 38
1000
0000
0000
0000
,  // measure 39
0001
0000
0000
0000
,  // measure 40
0100
0000
0100
0000
,  // measure 41
0100
0000
0000
0000
,  // measure 42
0010
0000
0010
0000
,  // measure 43
0010
0000
0000
0000
,  // measure 44
1000
0000
1000
0000
,  // measure 45
1000
0000
0000
0000
,  // measure 46
0001
0000
0000
0000
,  // measure 47
0100
0000
0000
0000
,  // measure 48
0010
0000
0010
0000
,  // measure 49
0010
0000
0000
0000
,  // measure 50
1000
0000
1000
0000
,  // measure 51
1000
0000
0000
0000
,  // measure 52
0001
0000
0001
0000
,  // measure 53
0001
0000
0000
0000
,  // measure 54
0100
0000
0100
0000
,  // measure 55
0100
0000
0000
0000
,  // measure 56
0010
0000
0010
0000
,  // measure 57
0010
0000
0000
0000
,  // measure 58
1000
0000
1000
0000
,  // measure 59
1000
0000
0000
0000
,  // measure 60
0001
0000
0001
0000
,  // measure 61
0001
0000
0000
0000
,  // measure 62
0010
0000
0010
0000
,  // measure 63
0010
0000
0000
0000
,  // measure 64
0100
0000
0100
0000
,  // measure 65
0100
0000
0000
0000
,  // measure 66
1000
0000
0000
0000
,  // measure 67
0001
0000
0000
0000
,  // measure 68
0100
0000
0000
0000
,  // measure 69
0010
0000
0000
0000
,  // measure 70
1000
0000
0000
0000
,  // measure 71
0100
0000
0000
0000
,  // measure 72
0010
0000
0000
0000
,  // measure 73
0001
0000
0000
0000
,  // measure 74
1000
0000
0000
0000
,  // measure 75
0001
0000
0000
0000
,  // measure 76
0100
0000
0000
0000
,  // measure 77
0010
0000
0010
0000
,  // measure 78
1000
0000
1000
0000
,  // measure 79
0001
0000
0001
0000
,  // measure 80
0100
0000
0100
0000
;

//---------------dance-single - ----------------
#NOTES:
     dance-single:
     :
     Easy:
     4:
     0.349,0.348,0.078,0.000,0.000: // measure 1
0000
0000
0000
0000
,  // measure 2
0000
0000
0000
0000
,  // measure 3
0000
0000
0000
0000
,  // measure 4
0000
0000
0000
0000
,  // measure 5
1000
0100
0010
0000
,  // measure 6
0100
1000
0010
0000
,  // measure 7
0100
0001
0010
0001
,  // measure 8
0100
0010
1000
0001
,  // measure 9
1000
0100
0001
0100
,  // measure 10
1000
0001
0000
0000
,  // measure 11
1000
0010
0001
0010
,  // measure 12
1000
0001
0000
0000
,  // measure 13
1000
0100
0010
0000
,  // measure 14
0001
0100
0010
0000
,  // measure 15
1000
0001
0010
0001
,  // measure 16
0100
0010
1000
0100
,  // measure 17
0010
0000
0001
0000
,  // measure 18
0100
0000
0010
0000
,  // measure 19
1000
0000
0001
0000
,  // measure 20
1000
0000
0100
0000
,  // measure 21
0010
0001
0100
0001
,  // measure 22
0010
0001
0000
0000
,  // measure 23
0100
1000
0010
1000
,  // measure 24
0100
1000
0000
0000
,  // measure 25
0010
0000
0100
0000
,  // measure 26
0001
0000
1000
0000
,  // measure 27
0100
0000
0010
0000
,  // measure 28
0001
0000
1000
0000
,  // measure 29
0001
0100
0010
1000
,  // measure 30
0010
0100
0000
0000
,  // measure 31
0001
0010
0100
1000
,  // measure 32
0100
0010
0001
0010
,  // measure 33
0100
0000
1100
0000
,  // measure 34
1000
0000
1010
0000
,  // measure 35
0010
0000
0110
0000
,  // measure 36
0100
0000
0101
0000
,  // measure 37
0001
1000
0000
1000
,  // measure 38
0001
0000
0001
1000
,  // measure 39
0010
0100
0000
0100
,  // measure 40
0010
0000
0010
0100
,  // measure 41
0001
0000
0011
0000
,  // measure 42
0010
0000
0110
0000
,  // measure 43
0100
0000
1100
0000
,  // measure 44
1000
0000
1010
0000
,  // measure 45
0010
0100
0000
0100
,  // measure 46
0010
0000
1000
0001
,  // measure 47
0100
0010
1000
0001
,  // measure 48
0001
0001
1000
1000
,  // measure 49
0010
1000
0100
0010
,  // measure 50
0001
0001
1000
1000
,  // measure 51
0001
0100
0010
1000
,  // measure 52
0100
0100
0010
0010
,  // measure 53
0100
1000
0010
1000
,  // measure 54
0100
0010
0001
0010
,  // measure 55
0001
0100
0010
1000
,  // measure 56
0001
0001
1000
1000
,  // measure 57
0001
0010
0100
1000
,  // measure 58
0001
0001
0100
0100
,  // measure 59
0010
1000
0100
0010
,  // measure 60
0001
0001
0010
0010
,  // measure 61
0100
1000
0010
1000
,  // measure 62
0100
0010
0001
0010
,  // measure 63
0100
1000
0001
0100
,  // measure 64
0010
1000
0001
0100
,  // measure 65
0001
0000
0010
0000
,  // measure 66
0100
1000
0010
1000
,  // measure 67
0100
0000
0010
0000
,  // measure 68
0001
0100
0010
0100
,  // measure 69
0001
0001
0001
0001
,  // measure 70
1000
1000
1000
1000
,  // measure 71
0010
0010
0010
0010
,  // measure 72
0100
0100
0100
0100
,  // measure 73
0001
0000
0010
0000
,  // measure 74
0100
1000
0010
1000
,  // measure 75
0100
0000
0010
0000
,  // measure 76
0001
0100
0010
0100
,  // measure 77
0001
0010
0100
1000
,  // measure 78
0001
0100
0010
1000
,  // measure 79
0001
0001
0001
0001
,  // measure 80
1000
1000
1000
1000
;

//---------------dance-single - ----------------
#NOTES:
     dance-single:
     :
     Medium:
     6:
     0.510,0.543,0.281,0.146,0.010: // measure 1
0000
0000
0000
0000
,  // measure 2
0000
0000
0000
0000
,  // measure 3
0000
0000
0000
0000
,  // measure 4
0000
0000
0000
0000
,  // measure 5
1000
0100
0001
0100
,  // measure 6
1000
0000
0010
0000
0001
0010
0000
1010
,  // measure 7
0000
0010
1000
0100
,  // measure 8
0010
0001
1000
0010
,  // measure 9
0100
0001
0100
0001
0000
0100
0000
0010
,  // measure 10
0000
1000
0010
0000
0100
0000
0001
0000
,  // measure 11
1000
0001
1000
0001
0000
0100
0000
0010
,  // measure 12
0000
1000
0001
0000
1000
0000
0001
0000
,  // measure 13
0010
0100
1000
0100
,  // measure 14
0010
0000
0001
0000
0100
0010
0000
0110
,  // measure 15
0000
0010
1000
0001
,  // measure 16
0010
0100
1000
0001
,  // measure 17
1000
0010
0001
0010
,  // measure 18
1000
0100
0001
0100
,  // measure 19
1000
0010
0001
0100
,  // measure 20
1000
0010
0001
0100
,  // measure 21
2000
3000
0002
0003
,  // measure 22
0200
0300
0010
0110
,  // measure 23
0020
0030
2000
3000
,  // measure 24
0002
0003
0010
0011
,  // measure 25
0001
0010
0100
1000
,  // measure 26
0010
0100
0001
0101
,  // measure 27
0001
0010
0100
1000
,  // measure 28
0100
0010
0001
1001
,  // measure 29
2000
3000
0002
0003
,  // measure 30
0200
0300
0010
0110
,  // measure 31
0020
0030
2000
3000
,  // measure 32
0001
0100
0010
1000
,  // measure 33
0001
0000
0000
0001
1000
0000
1001
0000
,  // measure 34
1000
0000
0000
1000
0010
0000
1010
0000
,  // measure 35
0010
0000
0000
0010
0100
0000
0110
0000
,  // measure 36
0100
0000
0000
0100
0001
0000
0101
0000
,  // measure 37
0001
0000
1000
0001
0000
0000
1000
0000
,  // measure 38
0001
1000
0000
0000
0001
0000
1001
0000
,  // measure 39
0010
0000
0100
0010
0000
0000
0100
0000
,  // measure 40
0010
0100
0000
0000
0010
0000
0110
0000
,  // measure 41
0010
0000
0000
0010
0001
0000
0101
0000
,  // measure 42
0100
0000
0000
0100
0010
0000
1010
0000
,  // measure 43
0010
0000
0000
0010
1000
0000
1001
0000
,  // measure 44
0001
0000
0000
0001
0100
0000
0101
0000
,  // measure 45
0100
0000
0010
0100
0000
0000
0001
0000
,  // measure 46
1000
0001
0000
0000
1000
0000
1001
0000
,  // measure 47
0001
0100
0010
1000
,  // measure 48
0001
1000
0001
0000
1000
0002
0000
0003
,  // measure 49
1000
0100
0010
0001
,  // measure 50
2000
0001
0000
0001
0000
0001
0000
3001
,  // measure 51
1000
0010
0100
0001
,  // measure 52
0020
0100
0000
0100
0000
0100
0000
0130
,  // measure 53
0010
0100
1000
0001
,  // measure 54
0100
0001
0100
0000
0010
0000
1000
0000
,  // measure 55
0001
1000
0000
0100
0000
1000
0001
0000
,  // measure 56
1000
1010
0001
0011
,  // measure 57
1000
0010
0100
0001
,  // measure 58
2000
0100
0000
0100
0000
0100
0000
3100
,  // measure 59
1000
0010
0100
0001
,  // measure 60
1000
0000
0000
1000
0000
0000
1000
0000
0000
1000
0000
0000
1000
0000
0000
0000
,  // measure 61
0001
0100
0010
0100
,  // measure 62
0001
0010
0100
0010
,  // measure 63
0001
1000
0001
1000
0000
0001
1000
0000
,  // measure 64
0010
0100
0001
1001
,  // measure 65
1000
0100
0001
0100
,  // measure 66
1000
1100
0001
0101
,  // measure 67
1000
0010
0001
0010
,  // measure 68
1000
1010
0001
0011
,  // measure 69
1000
0100
1000
0000
0100
1000
0100
0000
,  // measure 70
1000
0100
1000
0000
0100
1000
0100
0000
,  // measure 71
0010
0001
0010
0000
0001
0010
0001
0000
,  // measure 72
0010
0001
0010
0000
0001
0010
0001
0000
,  // measure 73
0100
1000
0100
0001
,  // measure 74
0100
1100
1000
1010
,  // measure 75
0010
0001
0010
1000
,  // measure 76
0010
0011
0001
0101
,  // measure 77
0100
0010
0100
0000
0010
0100
0010
0000
,  // measure 78
0100
0010
0100
0000
0010
0100
0010
0000
,  // measure 79
1000
0001
1000
0000
0001
1000
0001
0000
,  // measure 80
1000
0001
1000
0001
1000
0001
1000
0001
;
