#TITLE:Venetian Staccato;
#SUBTITLE:;
#ARTIST:Light On The Glass;
#TITLETRANSLIT:;
#SUBTITLETRANSLIT:;
#ARTISTTRANSLIT:;
#CREDIT:;
#BANNER:banner.png;
#BACKGROUND:bgblack.PNG;
#LYRICSPATH:;
#CDTITLE:;
#MUSIC:Venetian Staccato.mp3;
#OFFSET:-6.460;
#SAMPLESTART:28.680;
#SAMPLELENGTH:11.500;
#SELECTABLE:YES;
#BPMS:0.000=170.000;
#STOPS:;
#BGCHANGES:;

//---------------dance-single - ----------------
#NOTES:
     dance-single:
     :
     Beginner:
     2:
     0.145,0.227,0.065,0.057,0.000: // measure 1
1000
0000
0010
0000
,  // measure 2
1000
0000
0000
0000
,  // measure 3
0010
0000
0100
0000
,  // measure 4
0010
0000
0000
0000
,  // measure 5
0100
0000
0001
0000
,  // measure 6
0100
0000
0000
0000
,  // measure 7
0001
0000
1000
0000
,  // measure 8
0001
0000
0000
0000
,  // measure 9
0010
0000
0001
0000
,  // measure 10
0100
0000
0000
0000
,  // measure 11
0100
0000
0001
0000
,  // measure 12
0010
0000
0000
0000
,  // measure 13
0010
0000
0100
0000
,  // measure 14
1000
0000
0000
0000
,  // measure 15
1000
0000
0010
0000
,  // measure 16
0200
0000
0000
0300
,  // measure 17
0100
0000
0000
0000
,  // measure 18
0100
0000
0000
0000
,  // measure 19
0001
0000
0000
0000
,  // measure 20
0001
0000
0000
0000
,  // measure 21
0010
0000
0000
0000
,  // measure 22
0010
0000
0000
0000
,  // measure 23
0100
0000
0000
0000
,  // measure 24
0200
0000
0300
0000
,  // measure 25
1000
0000
0100
0000
,  // measure 26
1000
0000
0100
0000
,  // measure 27
0010
0000
0001
0000
,  // measure 28
0010
0000
0001
0000
,  // measure 29
1000
0000
0001
0000
,  // measure 30
1000
0000
0001
0000
,  // measure 31
1000
0000
0001
0000
,  // measure 32
1000
1000
1000
1000
,  // measure 33
2000
0000
0000
0000
,  // measure 34
0000
0000
0000
0000
,  // measure 35
0000
0000
0000
0000
,  // measure 36
0000
0000
0000
0000
,  // measure 37
0000
0000
0000
0000
,  // measure 38
0000
0000
0000
0000
,  // measure 39
0000
0000
0000
0000
,  // measure 40
0000
0000
3000
0000
,  // measure 41
1001
0000
0000
0000
,  // measure 42
0110
0000
0000
0000
,  // measure 43
0110
0000
0000
0000
,  // measure 44
1001
0000
0000
0000
,  // measure 45
1001
0000
0000
0000
,  // measure 46
0110
0000
0000
0000
,  // measure 47
0110
0000
0000
0000
,  // measure 48
1001
0000
0000
0000
,  // measure 49
2000
0000
0000
3000
,  // measure 50
0002
0000
0003
0000
,  // measure 51
0200
0000
0300
0000
,  // measure 52
0020
0000
0030
0000
,  // measure 53
0100
0000
0010
0000
,  // measure 54
0100
0000
0000
0000
,  // measure 55
0001
0000
1000
0000
,  // measure 56
0001
0000
0000
0000
,  // measure 57
0010
0000
0001
0000
,  // measure 58
0100
0000
0000
0000
,  // measure 59
0010
0000
1000
0000
,  // measure 60
0100
0000
0000
0000
,  // measure 61
0100
0000
0000
0000
,  // measure 62
1000
0000
0000
0000
,  // measure 63
0010
0000
0000
0000
,  // measure 64
0001
0000
0000
0000
,  // measure 65
0100
0000
0010
0000
,  // measure 66
0100
0000
0000
0000
,  // measure 67
0001
0000
1000
0000
,  // measure 68
0001
0000
0000
0000
,  // measure 69
0010
0000
0001
0000
,  // measure 70
0100
0000
0000
0000
,  // measure 71
0010
0000
1000
0000
,  // measure 72
0100
0000
0000
0000
,  // measure 73
0100
0000
0010
0000
,  // measure 74
0100
0000
0010
0000
,  // measure 75
0001
0000
1000
0000
,  // measure 76
0001
0000
1000
0000
,  // measure 77
0010
0000
0100
0000
,  // measure 78
0010
0000
0100
0000
,  // measure 79
0010
0010
0010
0000
,  // measure 80
0100
0100
0100
0100
;

//---------------dance-single - ----------------
#NOTES:
     dance-single:
     :
     Easy:
     4:
     0.288,0.356,0.138,0.089,0.000:
1000
0000
0000
1000
0000
0000
0000
0000
,
0001
0000
0000
0001
0000
0000
0000
0000
,
0100
0000
0000
0100
0000
0000
0000
0000
,
0010
1000
0100
0010
,
0001
0000
0000
0100
0000
0000
0000
0000
,
0100
0000
0000
0010
0000
0000
0000
0000
,
0010
0000
0000
1000
0000
0000
0000
0000
,
2002
0000
3003
0000
,
1000
0000
0000
0001
0000
0000
0000
0000
,
0001
0000
0000
1000
0000
0000
0000
0000
,
0010
0000
0000
0100
0000
0000
0000
0000
,
0100
0010
1000
0001
,
0010
0000
0000
0001
0000
0000
0000
0000
,
1000
0000
0000
0100
0000
0000
0000
0000
,
0010
0000
0000
0001
0000
0000
0000
0000
,
2002
0000
0000
3003
,
1000
0100
0010
0001
,
0010
0100
1000
0001
,
0100
0010
1000
0001
,
0010
0100
0010
0000
,
0010
0001
0100
1000
,
0100
0001
0010
0100
,
1000
0001
0100
0010
,
2000
0000
0000
0000
,
3001
0010
0100
0010
,
0001
0100
0010
1000
,
0100
0010
0100
1000
,
0010
0100
0001
0010
,
0100
0010
0100
0010
,
0001
1000
0001
1000
,
0010
0100
0001
0010
,
0100
1000
0001
1000
,
2002
0000
0000
0000
,
0000
0000
0000
0000
,
0000
0000
0000
0000
,
0000
0000
0000
0000
,
0000
0000
0000
0000
,
0000
0000
0000
0000
,
0000
0000
0000
0000
,
0000
0000
3003
0000
,
1001
0000
0000
1001
0000
0000
0000
0000
,
0110
0000
0000
0110
0000
0000
0000
0000
,
0101
0000
0000
0101
0000
0000
0000
0000
,
1010
0000
0000
1000
0010
0000
0010
0000
,
0110
0000
0000
0110
0000
0000
0000
0000
,
1001
0000
0000
1001
0000
0000
0000
0000
,
1100
0000
0000
1100
0000
0000
0000
0000
,
0011
0000
0000
0001
0010
0000
0001
0000
,
0100
0001
0010
0100
,
1000
0001
0100
0010
,
1000
0100
1000
0000
,
0001
0010
0001
0000
,
0100
0010
1000
0001
,
0010
0100
0010
0001
,
0100
1000
0100
0001
,
0020
0000
0000
0000
,
0031
0100
0010
1000
,
0100
1000
0010
0100
,
0001
0010
1000
0010
,
0002
0000
0000
0000
,
0103
0000
0000
0000
,
0010
0000
0010
0000
,
1000
0000
1000
0000
,
0001
0000
0001
0000
,
0010
0001
0100
1000
,
0010
1000
0100
0001
,
0010
0100
1000
0001
,
0200
0000
0000
0000
,
0310
1000
0100
0001
,
0010
0001
0100
1000
,
0010
0100
0001
0010
,
0002
0000
0000
0000
,
0103
0010
1000
0001
,
0010
0100
1000
0100
,
0010
0001
0100
1000
,
0010
1000
0100
0001
,
0010
0100
0010
0100
,
1000
0001
1000
0001
,
1000
0010
0100
0001
,
0010
0100
1000
0001
;

//---------------dance-single - ----------------
#NOTES:
     dance-single:
     :
     Medium:
     6:
     0.394,0.487,0.016,0.041,0.000:
0010
0000
1000
0100
0000
0100
1000
0000
,
0010
0000
0001
0100
0000
0100
0001
0000
,
0010
0000
0100
1000
0000
1000
0001
0000
,
0100
0000
0010
0100
0000
0000
0010
0000
,
1000
0000
0100
1000
0000
1000
0100
0000
,
0010
0000
0001
0100
0000
0100
0001
0000
,
0010
0000
0100
1000
0000
0001
0100
0000
,
0010
0100
0000
0100
,
0010
0000
1000
0100
0000
0010
0001
0000
,
0010
0000
0100
1000
0000
0001
0100
0000
,
0010
0000
1000
0100
0000
0001
0100
0000
,
0010
0000
1000
0100
0000
0000
1000
0000
,
0010
0000
0100
0001
0000
0001
0100
0000
,
0010
0000
1000
0001
0000
0001
1000
0000
,
0010
0000
0100
0001
0000
0010
0100
0000
,
2000
0000
0000
3000
,
0010
0000
1000
0100
1000
0000
0010
0000
,
0100
0000
0001
0010
0001
0000
0100
0000
,
0010
0000
1000
0001
0010
0000
0100
0000
,
1000
0000
0001
0100
0000
0100
0001
0000
,
0010
0000
0100
0000
1000
0010
0100
0000
,
0001
0000
0010
0000
0100
1000
0100
0000
,
0010
0000
0001
0000
0100
0010
1000
0000
,
2002
0000
0000
3003
,
1000
0000
0010
0100
0010
0000
1000
0000
,
0001
0000
0010
0100
0010
0000
0001
0000
,
0100
0000
0010
1000
0001
0000
0010
0000
,
0100
0000
1000
0010
0000
0010
1000
0000
,
0010
0000
1000
0100
0010
0000
0100
0000
,
1000
0000
0001
0100
0010
0000
0100
0000
,
0001
0010
0001
0000
1000
0100
1000
0000
,
0010
0100
0010
0100
0001
1000
0001
1000
,
0002
0000
0000
0000
,
0000
0000
0000
0000
,
0000
0000
0000
0000
,
0000
0000
0000
0000
,
0000
0000
0000
0000
,
0000
0000
0000
0000
,
0000
0000
0000
0000
,
0000
0000
0000
0003
,
0001
0010
0000
0001
0010
0000
0100
0000
,
1000
0010
0000
1000
0010
0000
0100
0000
,
0001
0100
0000
0001
0100
0000
0010
0000
,
1000
0100
0000
1000
0100
0000
1100
0000
,
1000
0010
0000
0100
0001
0000
0010
0000
,
0100
1000
0000
0010
0100
0000
0001
0000
,
0010
0001
0000
0100
0010
0000
1000
0000
,
0001
0000
0010
0100
0000
1000
0001
0000
,
0100
0001
0100
0001
,
1000
0010
1000
0010
,
1000
0100
0010
0001
,
1000
0010
0100
0001
,
0010
0000
0001
0100
0000
0000
0010
0000
,
1000
0000
0100
1000
0000
0000
0010
0000
,
0100
0000
0001
0010
0000
0010
0001
0000
,
0100
0010
0000
0010
,
1000
0000
0100
1000
0000
1000
0100
0000
,
0010
0000
0001
0100
0000
0100
0001
0000
,
0010
0000
0100
1000
0000
0001
0100
0000
,
0010
0000
1000
0000
0000
1000
0001
0000
,
0200
0000
0000
0300
,
0010
1000
0000
0010
0000
0000
0100
0000
,
0001
0000
0000
0010
0000
0000
0100
0000
,
1000
0001
0000
0100
0000
0100
0010
0000
,
1000
0000
0100
1000
0000
1000
0100
0000
,
0010
0000
0001
0010
0000
0010
0001
0000
,
0100
0000
0010
0100
0000
0100
0010
0000
,
1000
0000
0100
0000
0000
0100
1000
0000
,
0001
0000
0100
0001
0000
0001
0100
0000
,
0010
0000
1000
0001
0000
0001
1000
0000
,
0010
0000
0100
0001
0000
0001
1000
0000
,
0100
0010
0000
0010
,
0100
0000
1000
0100
0000
1000
0100
0000
,
0010
0000
0001
0100
0000
0001
0100
0000
,
0010
0000
1000
0001
0000
1000
0001
0000
,
0010
0000
0100
0000
0000
0100
0010
0000
,
0001
0100
0010
1000
,
0001
0000
0010
0000
0100
0000
1000
0001
,
1000
0010
0100
0001
,
0010
0000
0100
0000
1000
0010
0100
0001
;

//---------------dance-single - ----------------
#NOTES:
     dance-single:
     :
     Hard:
     8:
     0.548,0.552,0.081,0.016,0.049:
0010
1000
0100
0001
0000
0001
0100
0010
,
1000
0001
0010
0100
0000
0100
0010
0001
,
0100
0010
1000
0001
0000
0001
1000
0010
,
0100
0000
0001
0010
0000
0010
0001
0000
,
0100
0010
1000
0100
0000
0100
1000
0010
,
0100
0001
0010
0001
0000
0001
1000
0100
,
1000
0001
0100
0010
0000
0010
0100
0001
,
0010
0000
0100
0000
0000
0100
0010
0000
,
0001
0100
0010
1000
0000
1000
0010
0100
,
0001
1000
0100
0010
0000
0010
0100
1000
,
0001
0100
0010
1000
0000
1000
0010
0100
,
0001
0000
0010
0001
0000
0001
0010
0000
,
0100
1000
0010
0100
0000
0100
0010
1000
,
0001
0010
0100
1000
0000
1000
0100
0010
,
0001
1000
0010
0100
0000
0100
0010
1000
,
0001
0000
0010
0000
0000
0010
0001
0000
,
0010
0001
0000
0101
0000
0100
0010
1000
,
0100
1000
0000
1100
0000
1000
0010
0100
,
0001
0010
0000
0011
0000
0001
0100
0010
,
1000
0001
0010
0100
0000
0100
0010
0001
,
0100
0010
0000
1010
0000
1000
0100
1000
,
0001
0100
0000
0101
0000
0100
0010
1000
,
0001
0010
0000
0011
0000
0010
0100
1000
,
0001
0000
0100
0001
0000
0001
0100
0010
,
1000
0100
1000
0010
0000
0010
0100
0001
,
0010
0100
1000
0100
0010
0001
1000
0010
,
0100
0001
0010
0001
0000
0100
0010
1000
,
0100
0010
0001
0100
0010
1000
0100
0001
,
0100
1000
0010
0100
0001
0010
0100
1000
,
0100
0010
0001
1000
0010
0100
0001
0000
,
0001
0100
0001
0100
0010
1000
0010
1000
,
0001
0010
0100
1000
0010
0100
0001
1000
,
0020
0000
0000
0000
,
0000
0000
0000
0000
,
0000
0000
0000
0000
,
0000
0000
0000
0000
,
0000
0000
0000
0000
,
0000
0000
0000
0000
,
0000
0000
0000
0000
,
0000
0000
0000
0030
,
1000
0000
0000
0100
0000
0000
0001
0000
0000
0100
0000
0000
1000
0000
0010
0000
,
0100
0000
0000
0001
0000
0000
0100
0000
0000
0010
0000
0000
1000
0000
0001
0000
,
0010
0000
0000
0000
0100
0000
0000
1000
0000
0000
0100
0000
0010
0000
0001
0000
,
1000
0000
0000
0010
0000
0000
0100
0000
0001
0000
0000
0000
0011
0000
0000
0000
,
0010
0000
0000
0100
0000
0000
1000
0000
0000
0100
0000
0000
0010
0000
0001
0000
,
1000
0000
0000
0010
0000
0000
0100
0000
0000
0001
0000
0000
0100
0000
0010
0000
,
1000
0000
0000
0001
0000
0000
0010
0000
0000
0100
0000
0000
1000
0000
0100
0000
,
0010
0000
0001
0100
0000
0100
0010
0000
,
0010
0000
1000
0100
1000
0010
0100
0000
,
0001
0000
0010
0100
0010
0001
0100
0000
,
0010
0000
1000
0100
0010
0000
0100
1000
,
0001
0000
0100
0010
0000
0010
0100
0000
,
0001
0010
0000
1100
0000
1000
0010
1000
,
0100
0010
0000
0011
0000
0001
0100
0010
,
1000
0001
0000
0110
0000
0000
0010
0000
,
1000
0000
0001
0100
0000
0100
0001
0000
,
0010
0001
0100
0010
0000
0010
0100
0001
,
0010
0100
1000
0010
0000
0010
1000
0100
,
0001
0100
1000
0010
0000
0010
0100
0001
,
0010
0000
0100
0010
0000
0010
0001
0100
,
0020
0000
0000
0000
,
1030
0100
0000
0100
0000
0000
1000
0010
,
0100
0001
0000
0001
0000
0100
0010
0000
,
1000
0000
0100
1000
0000
0001
0010
0000
,
0001
1000
0100
1000
0010
0100
0001
0100
,
0010
1000
0100
1000
0010
0100
0001
0100
,
0010
1000
0001
1000
0010
0100
0001
0100
,
0010
1000
0001
1000
0010
0100
0001
0000
,
0010
0100
1000
0100
0010
0001
0010
0100
,
0010
0001
1000
0010
0100
0001
0100
0010
,
1000
0001
0010
0100
1000
0100
0010
0001
,
1000
0000
0010
0000
0000
0010
1000
0000
,
0100
1000
0010
0100
0001
0100
0010
1000
,
0001
0010
0100
0010
0001
0100
0010
1000
,
0001
0010
0100
0010
0001
1000
0010
0100
,
0001
0010
0100
1000
0000
1000
0001
0000
,
0100
0000
0010
0000
1000
0100
1000
0000
,
0001
0000
0100
0000
0010
1000
0001
0000
,
0010
0100
1000
0001
0100
0010
1000
0000
,
1000
0010
0100
0001
0010
0100
1000
0001
;
