#TITLE:VOX UP;
#SUBTITLE:;
#ARTIST:sampling masters MEGA vs «CÀs;
#TITLETRANSLIT:;
#SUBTITLETRANSLIT:;
#ARTISTTRANSLIT:;
#GENRE:;
#CREDIT:;
#MENUCOLOR:cc0000;
#METERTYPE:DDR;
#BANNER:[High Speed] - VOX UP.png;
#BACKGROUND:[High Speed] - VOX UP-bg.png;
#LYRICSPATH:;
#CDTITLE:;
#MUSIC:[High Speed] - VOX UP.mp3;
#OFFSET:-5.980;
#SAMPLESTART:84.360;
#SAMPLELENGTH:12.000;
#SELECTABLE:YES;
#LISTSORT:;
#BPMS:0.000=202.000,184.000=101.000,224.000=202.000;
#STOPS:;
#BGCHANGES:;
#ATTACKS:;

//---------------dance-single - ----------------
#NOTES:
     dance-single:
     :
     Hard:
     10:
     0.818,1.000,0.875,0.232,0.294: // measure 1
1000
0010
0100
0010
1000
0001
0100
0000
,  // measure 2
0100
0001
0000
0000
0001
1000
0000
0000
1000
0001
0000
0000
0001
0000
0000
0000
,  // measure 3
1000
0001
0010
0001
1000
0010
0100
0000
,  // measure 4
0001
0010
0000
0000
0010
0100
0000
0000
0100
1000
0000
0000
1000
0000
0000
0000
,  // measure 5
0001
0010
1000
0010
0001
0100
1000
0000
,  // measure 6
1000
0100
0000
0000
0100
0010
0000
0000
0010
0000
0000
0000
1000
0000
0000
0000
,  // measure 7
0001
0010
0100
1000
0001
0010
0100
1000
,  // measure 8
0001
0010
0000
0000
0010
0100
0000
0000
0100
0000
0000
0000
0110
0000
0000
0000
,  // measure 9
1000
0100
0101
0000
0001
0010
0100
1000
,  // measure 10
0100
0001
0100
1100
0010
1000
1010
0000
,  // measure 11
0100
0001
0101
0000
1000
0010
0100
0010
,  // measure 12
1000
0000
0001
0100
0001
0000
1000
0000
0010
0000
0100
0000
0010
0000
0110
0000
,  // measure 13
1000
0100
1100
0000
0001
1000
0010
0100
,  // measure 14
0010
0000
1001
0000
1001
0000
0000
0000
0110
0000
0100
0001
0100
0000
0001
0000
,  // measure 15
0010
0100
1000
0100
0001
0100
1000
0010
,  // measure 16
0001
0010
1000
0100
0010
0100
2000
0000
,  // measure 17
0000
3000
0000
0010
0000
0000
1000
1000
,  // measure 18
0000
0001
0100
0010
0100
0001
1000
0010
,  // measure 19
0200
0000
0000
0301
0000
0000
0001
0001
,  // measure 20
0000
0100
0000
0010
0100
0010
0010
0010
,  // measure 21
1000
0001
1000
0001
1000
0001
1000
0000
0000
0000
1001
0000
0000
0000
0000
0000
,  // measure 22
0010
1000
0010
1000
0010
1000
0010
0000
0000
0000
1010
0000
0000
0000
0000
0000
,  // measure 23
0100
0010
0100
0010
0100
0010
0100
0000
0000
0000
0110
0000
0000
0000
1001
0000
,  // measure 24
0000
1001
0000
0110
0000
0220
0000
0330
,  // measure 25
0100
0001
0100
0001
0100
0001
0100
0000
0000
0000
0101
0000
0000
0000
0100
0000
,  // measure 26
0010
1000
0010
1000
0010
1000
0010
0000
0000
0000
0110
0000
0000
0000
0100
0000
,  // measure 27
0001
0100
0001
0100
0001
0100
0001
0000
0000
0000
0101
0000
0000
0000
0100
0000
,  // measure 28
0101
0000
0000
0000
1010
0000
0000
0000
0100
0010
0100
0010
0100
0010
0100
0000
,  // measure 29
2002
0000
3003
0000
0100
0101
0001
1000
,  // measure 30
0010
0100
0010
1000
0001
1001
1010
0110
,  // measure 31
1100
0101
1010
0110
,  // measure 32
1000
0001
1000
0001
1000
0001
1000
0001
0100
0000
0010
0000
1010
0000
0010
0000
,  // measure 33
0110
0000
1000
0001
0100
0001
1000
0000
,  // measure 34
0001
1000
0010
0100
0010
1000
0001
0000
,  // measure 35
0100
0010
1000
0001
1000
0010
0100
0000
,  // measure 36
0001
0100
0001
1000
0010
1000
0100
0001
0200
0000
0020
0000
0330
0000
0000
0000
,  // measure 37
0110
0000
0000
0000
1100
0000
0110
0110
,  // measure 38
0000
1100
0000
0110
0000
0001
1000
0100
,  // measure 39
1000
0001
0000
1001
0000
0110
0000
1001
,  // measure 40
0000
0110
0000
1100
0000
0011
0000
1100
,  // measure 41
0000
0011
0000
1100
0000
0000
0110
0110
,  // measure 42
0000
0110
0000
1001
0000
0110
0110
1001
,  // measure 43
1001
1001
1001
0110
,  // measure 44
0110
1100
1100
0011
,  // measure 45
0011
1100
0110
0011
,  // measure 46
0110
1100
0110
0011
,  // measure 47
2002
0003
0000
0000
,  // measure 48
3200
0000
0320
0032
,  // measure 49
2003
0000
0000
0000
,  // measure 50
3002
0000
2003
3020
,  // measure 51
0230
0000
0302
0023
,  // measure 52
0230
2300
3200
0320
,  // measure 53
0031
1000
0100
1000
0100
0010
0001
1000
0100
0001
0100
1000
0010
0100
0010
0000
,  // measure 54
0100
0001
0100
0010
0100
0001
0100
0010
1000
0100
0010
0001
1000
0100
1000
0001
,  // measure 55
0100
0001
1000
0010
0100
0010
1000
0001
1000
0001
1000
0001
2002
0000
3003
0000
,  // measure 56
0110
0000
1010
0000
0000
1100
0000
0110
0000
0011
0110
0000
0110
0000
1001
0000
,  // measure 57
1000
0100
0001
0100
1000
0010
0100
0000
,  // measure 58
0101
0000
0101
0000
0100
0010
0110
0000
,  // measure 59
1000
0010
0100
0010
1000
0001
0100
0000
,  // measure 60
1001
0000
0110
0000
0001
1000
1001
0000
,  // measure 61
0100
0010
1000
0010
0100
0001
0100
0010
,  // measure 62
0100
0000
0001
1000
0001
0000
0100
0010
0100
0000
0220
0000
0330
0000
0000
0000
,  // measure 63
0001
0100
1000
0100
0001
1000
0010
0100
,  // measure 64
0000
0001
1000
0010
0100
0010
1000
0001
,  // measure 65
0000
0100
0010
1000
0001
1000
0010
0100
,  // measure 66
0001
0100
1000
0100
0001
0010
1000
0000
1100
0000
0101
0000
1001
0000
0000
0000
,  // measure 67
0100
0010
1000
0001
1000
0010
0100
0000
,  // measure 68
0010
1000
0001
0100
0001
1000
0010
0000
,  // measure 69
0100
0000
0001
0100
0000
0101
0000
0000
,  // measure 70
0110
0101
0110
1010
,  // measure 71
0100
0001
1000
0001
0100
0010
1000
0001
,  // measure 72
0100
0000
0001
0000
1000
0000
0010
1000
0010
0000
0100
0001
0100
0000
0101
0000
,  // measure 73
1000
1000
1100
0000
0001
0001
0100
0100
,  // measure 74
0010
0010
1010
1000
1010
0000
0100
0000
,  // measure 75
0001
0100
1000
0100
0001
0010
1000
0010
,  // measure 76
0001
0000
0010
0000
0100
0000
1000
0000
0100
0001
0100
0001
0100
0000
0000
0000
,  // measure 77
1000
0100
0101
0000
0001
0010
0100
0001
,  // measure 78
0010
0000
0100
0000
0001
0000
1000
0010
1000
0000
0010
0000
0110
0000
0000
0000
,  // measure 79
0000
0001
0100
0001
1000
0001
0100
0010
,  // measure 80
0110
0000
0101
0000
1001
0101
0110
0000
,  // measure 81
1000
0100
0001
0100
1000
0010
0001
0010
,  // measure 82
1000
0000
0001
0000
0100
0001
1000
0000
0100
0000
0001
0000
1000
0000
0010
0000
,  // measure 83
0100
0010
1000
0000
0000
0110
0000
1001
,  // measure 84
0000
0110
0000
1010
0000
0100
0110
0000
,  // measure 85
1000
0100
0010
0001
1000
0100
0010
0001
,  // measure 86
1000
0100
0001
0100
1000
0001
0010
0100
,  // measure 87
1000
0001
0010
0100
1000
0001
0010
1000
,  // measure 88
0010
0001
0010
0100
1000
0001
0010
0100
,  // measure 89
2002
0000
0000
0000
,  // measure 90
0000
0000
0000
0000
,  // measure 91
0000
3003
0000
0000
;

//---------------dance-single - ----------------
#NOTES:
     dance-single:
     :
     Medium:
     7:
     0.542,0.681,0.318,0.023,0.000:
1000
0010
0100
0010
1000
0000
0000
0000
,
1001
1001
1001
1001
,
1000
0010
0100
0010
1000
0010
0100
0000
,
0001
0001
0001
0001
,
1000
0010
0100
0010
1000
0000
0000
0000
,
1001
1001
1100
1100
,
1001
0101
1010
0101
,
1010
0000
0110
0000
0000
0101
0000
0000
,
1000
0000
0000
0010
0000
0010
0000
1000
,
0000
1000
0000
0001
0000
0000
0000
0000
,
0000
0000
0000
1000
1000
0000
0100
0000
,
1000
0000
0000
1100
0100
0000
0000
1000
,
0010
0100
0000
0001
1000
0010
0100
0010
,
0100
0001
1000
0010
0100
0010
1000
0010
,
0000
0100
0001
1000
0000
0000
1000
0000
,
0100
0001
0100
0000
0000
0000
1000
0010
,
0000
0000
0110
0000
0000
1000
0000
0000
,
0000
0000
0000
2000
,
0000
0000
3002
0000
0000
0203
0000
0000
,
0000
0300
0000
0000
,
1000
0001
0000
0000
1000
0000
0000
0001
,
1000
0001
1000
0000
0010
0000
0000
0100
,
0110
0010
0100
0000
0000
0001
0000
1000
,
0010
0100
0000
0000
0010
0000
1000
0001
,
0100
0001
1000
0000
0000
0010
0100
0010
,
0100
0010
0100
0010
0000
1000
0001
1000
,
0001
1000
0001
1000
0000
0000
0010
0100
,
0010
0100
0110
0010
0000
0100
0010
1000
,
0010
1000
0010
0100
0000
0000
0000
0000
,
1000
0100
0001
0100
1000
0001
0010
1000
,
0010
0001
0010
1000
0000
0000
0000
1000
,
0000
0101
0000
0100
1000
0100
0001
1000
,
0010
0000
0100
0010
0100
0000
0000
1000
,
0001
0100
0001
1000
0001
0100
0010
0100
,
0001
0100
0010
1000
0010
0100
0010
1000
,
0001
0100
0010
0100
0001
0100
0010
1001
,
0000
0000
0110
0000
0000
1000
0100
0000
,
1000
0001
0000
0100
0010
0000
0000
1000
,
0001
0100
0000
0010
,
1000
0100
1000
0001
,
0000
1000
0010
0000
0000
1000
0000
0100
,
0000
1000
0000
0000
0001
0000
1000
0000
,
0010
0000
0100
0000
0000
0010
0000
1000
,
0000
0100
0000
1000
0000
0001
0000
0100
,
0000
0010
0000
0100
0000
0001
0000
1000
,
0000
0010
0000
0100
0000
0010
0000
1000
,
0100
0000
1000
0100
1000
0100
0001
0000
,
1000
0000
0010
1000
0010
1000
0010
0100
,
0010
0000
0100
0001
0100
0001
0100
1000
,
0010
0000
0100
0010
1000
0010
0100
0010
,
1000
0000
0100
0001
1000
0001
0100
0010
,
0100
0001
0000
1000
0101
0010
0000
1010
,
0100
0010
0000
1010
0100
0001
0100
0010
,
1000
0001
0100
1000
0001
0100
0010
0001
,
0100
0000
1001
0010
0100
0001
1010
0110
,
0000
1010
0110
0110
0100
1000
0001
0000
,
0100
0000
0000
0000
0000
0000
0000
1000
,
0000
1000
0000
1000
0000
0000
0000
0001
,
1000
0001
1000
0001
0000
0000
0000
0100
,
0100
0000
0000
0100
0000
0000
0010
0000
,
1000
1010
0000
0010
0000
0100
0010
0100
,
0010
0100
0010
0100
0010
0000
0000
1001
,
0000
1000
0001
1000
1001
0000
0010
0100
,
0010
0100
0010
1000
0010
0000
0000
0100
,
0001
1000
0001
0100
0001
1000
0000
0010
,
0100
0001
0100
0010
1000
0001
0000
0100
,
0000
0010
1000
0010
0100
0000
0000
1010
,
0000
0110
0000
0010
1000
0000
0100
0000
,
0000
0010
1000
0000
0010
0000
0000
0100
,
0010
1000
0010
0100
,
0010
1000
0110
0000
0010
1000
0010
0000
,
0100
0001
0000
1010
1010
1010
0000
0001
,
0100
0001
0000
1000
0010
0100
0010
1000
,
0010
0000
0000
0100
0001
1000
0000
0001
,
0100
0010
0100
0001
1000
0010
0100
0010
,
1000
0001
0100
0010
0100
0001
0000
1000
,
0000
0100
0100
0100
,
0100
0000
0010
0000
0010
0010
0000
1000
,
0000
0100
1000
0100
1000
0100
1000
0000
,
0000
0001
0000
0100
0000
0010
0000
0100
,
0000
0001
1000
0001
1000
0001
1000
0001
,
0100
0101
0001
1000
,
0010
0100
0010
0100
0010
1000
0001
0100
,
0000
0010
0100
0001
1000
0000
0000
1000
,
0000
1000
0000
1000
0000
1000
0000
1000
,
0000
1000
0000
1000
0000
1000
0000
1000
,
0000
1000
0000
1000
0000
0001
0000
0001
,
0000
0001
0000
0001
0000
0001
0000
0001
;

//---------------dance-single - ----------------
#NOTES:
     dance-single:
     :
     Beginner:
     3:
     0.194,0.440,0.023,0.147,0.000:
1000
0000
1000
0000
,
0001
0000
0000
0001
,
0000
0000
0000
0000
,
1000
0000
1000
0000
,
0100
0000
0000
0000
,
0100
0000
0000
0100
,
0000
0000
1000
0000
,
0001
0000
0000
0000
,
1000
0000
0001
0000
,
1000
0000
0100
0000
,
1000
0000
0010
0000
,
0000
1000
0000
0000
,
0000
0001
0000
0000
,
1000
0000
0000
0000
,
0001
0000
0000
0000
,
1000
0000
0000
0000
,
0001
0000
0000
0000
,
1000
0000
0000
0000
,
0010
0000
0000
0000
,
0000
1000
0000
0000
,
0100
0000
0100
0000
,
1000
0000
1000
0000
,
0001
0000
0001
0000
,
0010
0000
0010
0000
,
0100
0000
0100
0000
,
1000
0000
1000
0000
,
0001
0000
0001
0000
,
0010
0000
0000
0000
,
0000
0010
0000
0000
,
1000
0000
1000
0000
,
0001
0000
0000
0000
,
0001
0000
0000
0001
,
0000
0001
0000
0000
,
1000
0000
1000
0000
,
1000
0000
0000
0000
,
0001
0000
0001
0000
,
0000
0000
1000
0000
,
1000
0000
0000
0000
,
0010
0000
0010
0000
,
0100
0000
0100
0000
,
0001
0000
0001
0000
,
1000
0000
1000
0000
,
0100
0000
0100
0000
,
1000
0000
1000
0000
,
0001
0000
0001
0000
,
1000
0000
1000
0010
,
0000
0000
0000
2000
,
0000
3002
0000
2003
,
0000
0002
3000
2003
,
0000
3200
2300
3002
,
0000
2003
3002
2003
,
3002
2003
3002
2003
,
0000
3002
0000
2003
,
0000
3002
0000
2003
,
0000
3001
0001
1000
,
1000
1001
1001
1001
,
0000
0000
0000
1000
,
1000
1000
0000
0000
,
0001
0000
0000
1000
,
1000
1000
0000
0000
,
0010
0000
0000
0010
,
0000
0000
0100
0000
,
0001
0000
0000
1000
,
0000
0000
0000
1000
,
0000
0000
0000
1000
,
1000
1000
0000
0001
,
0000
0000
0000
0001
,
0000
0000
0000
1000
,
0000
0000
0000
0100
,
0100
0100
0100
0010
,
0000
0000
0000
1000
,
0001
1000
0000
0010
,
0010
0000
0000
0100
,
0100
0000
0000
0001
,
0001
1000
0000
0010
,
0000
0000
0100
0000
,
0001
0000
0000
1000
,
0000
0000
0000
0010
,
0000
0000
0000
0100
,
0000
0000
0001
0000
,
0000
0000
1000
0000
,
0000
0010
0000
0100
,
0000
0000
0001
0000
,
1000
0000
0010
0000
,
0100
0000
0001
0000
,
1000
0000
0001
0000
,
1000
0000
0010
0000
,
0100
0000
0010
0000
;

//---------------dance-single - ----------------
#NOTES:
     dance-single:
     :
     Easy:
     5:
     0.381,0.508,0.194,0.279,0.000:
1000
0010
0100
0010
,
1000
1000
1000
1000
,
0001
0100
0010
0110
,
0001
0001
0001
0001
,
1000
0000
0001
0000
,
1000
0100
1000
0100
,
0010
0001
0010
0001
,
1000
0000
0001
0000
0000
0100
0000
0000
,
0000
1000
0100
1000
,
1100
0100
0001
0100
,
0001
0010
0001
0010
,
1010
0100
1100
0001
,
1000
0001
0010
0001
,
0010
0000
0000
1000
,
0100
1000
0100
0001
,
0100
0001
0100
2000
,
0000
3200
0000
0302
,
0000
0023
0000
2030
,
0000
3200
0302
0000
,
0020
0003
0000
1030
,
1000
1000
0000
0000
,
0001
0000
0001
0000
,
1000
0000
1000
0000
,
1000
0000
0001
0001
,
0000
0000
1000
0000
,
1000
0000
0000
0002
,
0000
1000
0003
1000
,
0000
1000
1000
0100
,
0000
1000
0000
0000
,
1000
0100
0001
0100
,
1000
1000
0000
0000
,
1000
0100
0001
0100
,
1000
1000
0000
0000
,
1000
0010
0001
0010
,
1000
1000
0000
0000
,
1000
1000
1000
0001
,
0000
1000
0000
0001
,
1000
0001
1000
0010
,
0100
0010
0000
1000
,
0001
1000
0001
0000
,
1000
0000
0100
0000
,
1000
1000
0000
0000
,
1000
0000
1000
1000
,
1000
0001
0001
0000
,
1000
1000
0001
0001
,
1000
1000
0010
0010
,
0100
2000
3002
2003
,
0000
3002
0023
0230
,
2300
3002
0000
2003
,
0000
3200
2300
3020
,
0230
0302
2003
3020
,
0230
0302
2003
3020
,
0000
0230
0000
0302
,
0000
2003
0000
3200
,
0000
2300
0000
3001
,
0001
1000
1000
1000
,
1000
0100
0100
1100
,
1100
1100
0000
0001
,
0001
1000
1000
1001
,
1001
1001
0000
0100
,
0000
0100
0000
0100
,
0000
0010
0000
0100
,
0100
0010
0010
1010
,
1010
1010
0000
0100
,
0100
0001
0001
1000
,
1000
1001
0001
0001
,
1000
0010
0010
1000
,
1000
0100
0100
1000
,
0100
1000
0100
1100
,
1100
1100
1100
0001
,
1000
0001
1000
0001
,
1000
0010
1000
0010
,
0010
0110
0100
0100
,
1100
1000
1001
0001
,
1000
0010
1000
0010
,
0100
0010
0100
0202
,
0303
1100
0000
1010
,
0010
0100
0100
1000
,
0100
1000
0100
1000
,
0100
0001
0100
0001
,
0100
1000
0010
0001
,
0010
1000
0000
0101
,
0100
1000
0000
0100
,
0001
0100
1000
0010
,
0001
0010
1000
0100
,
0001
0100
1000
0010
,
0001
0010
1000
0100
,
0001
0100
1000
0000
;
