#VERSION:0.81;
#TITLE:Untouched;
#SUBTITLE:;
#ARTIST:The Veronicas;
#TITLETRANSLIT:;
#SUBTITLETRANSLIT:;
#ARTISTTRANSLIT:;
#GENRE:;
#ORIGIN:;
#CREDIT:;
#BANNER:untouched-banner.png;
#BACKGROUND:untouched-bg.png;
#PREVIEWVID:;
#JACKET:untouched-jacket.png;
#CDIMAGE:;
#DISCIMAGE:;
#LYRICSPATH:;
#CDTITLE:;
#MUSIC:Untouched.mp3;
#OFFSET:0.170;
#SAMPLESTART:66.350;
#SAMPLELENGTH:20.380;
#SELECTABLE:YES;
#BPMS:0.000=176.920;
#STOPS:;
#DELAYS:;
#WARPS:;
#TIMESIGNATURES:0.000=4=4;
#TICKCOUNTS:0.000=4;
#COMBOS:0.000=1;
#SPEEDS:0.000=1.000=0.000=0;
#SCROLLS:0.000=1.000;
#FAKES:;
#LABELS:0.000=Song Start;
#BGCHANGES:;
#KEYSOUNDS:;
#ATTACKS:
;

//---------------dance-single - ----------------
#NOTEDATA:;
#CHARTNAME:;
#STEPSTYPE:dance-single;
#DESCRIPTION:;
#CHARTSTYLE:;
#DIFFICULTY:Hard;
#METER:8;
#RADARVALUES:0.673,0.617,0.804,0.325,0.000,441.000,99.000,40.000,0.000,0.000,0.000,0.000,0.000,0.673,0.617,0.804,0.325,0.000,441.000,99.000,40.000,0.000,0.000,0.000,0.000,0.000;
#CREDIT:;
#NOTES:
0000
0000
0000
0000
,
0000
0000
0000
0000
,
0000
0000
0000
0000
0001
1000
0001
1000
,
0001
0000
0001
1000
0001
0000
0001
1000
,
0001
0000
0000
0000
0010
0100
0010
0100
,
0010
0000
0010
0100
0010
0000
0010
0100
,
0010
0000
0000
0000
0100
1000
0100
1000
,
0100
0000
0100
1000
0100
0000
0100
1000
,
0100
0000
0000
0000
0010
0100
0001
0100
,
0001
0101
1000
1010
,
0100
1000
0001
0000
0100
0000
0010
1000
,
0001
0101
0010
1100
,
0010
0100
1001
0000
0001
0000
0100
0001
,
0010
0101
0010
1100
,
0010
0100
0011
0000
0001
0000
0100
0010
,
1000
0101
0010
1100
,
0010
0100
0101
0000
0001
0010
1000
0001
,
2000
3002
0203
0320
,
2030
0000
3020
0000
0130
1000
0010
0100
,
2000
3002
0023
0032
,
0203
0000
0320
0000
0130
1000
0010
0100
,
0002
0203
0302
2003
,
3002
0000
0023
0000
0031
0100
0010
1000
,
0100
0000
0010
1000
0001
0000
0001
0100
,
0001
0000
0001
0010
1000
0000
1001
0000
,
0001
0010
1000
0000
0110
0000
0110
0000
,
0001
1000
1001
1001
,
0100
0000
0010
0001
0100
1010
0000
0000
,
0001
0100
0010
0011
0000
0000
0001
0100
,
1010
0000
0101
0000
0011
0000
0110
1001
,
0000
0011
0000
0001
0100
0010
1000
0001
,
0100
0001
0011
0000
1100
0000
0110
0000
,
0001
0010
1000
0000
1001
0000
0110
0000
,
0001
1000
0010
0100
0001
0010
0001
0100
,
1001
0000
1010
0000
0001
0100
0010
0000
,
0011
0000
1100
0000
0110
0000
0011
0101
,
0000
0010
1000
0000
0101
0000
0011
0000
,
0000
0010
1000
0001
0100
0010
1000
0100
,
1000
0000
0010
0100
0000
0001
0010
0001
,
0100
0010
1000
0010
0100
0001
0010
0001
,
0100
0010
1000
0001
0100
0010
1000
0001
,
0100
0010
1010
0000
0001
0100
0011
0000
,
0001
0100
1010
0000
0001
0100
0001
0010
,
1000
0100
0001
1000
0010
0100
0001
0010
,
0001
0100
0010
1000
0100
1000
0110
0000
,
0010
0100
0001
0010
0001
0000
0001
1000
,
0010
0100
0001
1000
0010
0100
0001
1000
,
0010
0000
0000
0001
1000
0000
0000
0001
,
1000
0000
0000
0001
1001
0000
0110
0000
,
0101
0100
1000
0001
0101
0001
0010
0101
,
0000
1001
0110
1010
,
0101
0001
0010
0001
0110
0010
1000
1001
,
0000
1010
0110
0011
,
0011
0100
1000
0010
0110
0001
0010
0101
,
0000
0001
1000
0010
,
0110
1000
0010
0001
1010
0001
0100
0110
,
0000
1000
0001
0000
0101
0000
1010
0000
,
2001
0000
0100
3000
0201
0000
0301
1001
,
0000
0010
0110
0011
,
2100
0000
3100
0000
0012
0000
0103
0110
,
0000
0010
1100
0110
,
0021
0000
0031
0000
0210
0000
0310
1010
,
0000
0101
0011
0110
,
1001
0000
0001
0000
1000
0010
0100
0001
,
0010
0001
0100
0020
0000
2000
0000
3030
,
0100
0000
0001
0000
1000
0000
0000
1000
,
0000
0010
1000
0100
,
0010
1000
0100
1000
0010
0000
0000
0001
,
0000
0001
0001
0010
,
1000
0100
0010
0000
0010
0000
0000
0001
,
0000
0010
0010
0100
,
0001
0100
1000
0000
1000
0000
0000
1000
,
0000
0001
0010
0000
0100
0000
1000
0000
,
1000
0000
1001
0000
0100
0000
0001
1000
,
0000
0000
1010
0100
1000
0000
1100
0001
,
1000
0000
0001
0000
0100
0000
0001
0010
,
0000
0000
0101
0000
0010
0000
1001
0100
,
1000
0000
0100
0000
1000
0000
0010
0001
,
0000
0000
0110
0000
0000
0000
1010
0100
,
1000
0000
0001
0000
0100
0000
0010
1000
,
0000
0000
0101
0000
0100
0010
0110
0110
,
0220
0000
0000
0330
2002
0000
0000
3003
,
0022
0000
0033
0000
0010
1000
0010
1000
,
0010
0000
0000
0000
2200
0000
0000
3300
,
0022
0000
0033
0000
0001
0010
1000
0100
,
1000
0000
0022
0033
,
1010
0000
0000
0000
0100
0001
0100
1000
,
0100
0000
0000
0100
0010
0000
0000
1000
,
0001
0000
0000
0001
1000
0000
0220
0000
,
0000
0000
0000
0330
0000
0000
0000
0000
;

//---------------dance-single - ----------------
#NOTEDATA:;
#CHARTNAME:;
#STEPSTYPE:dance-single;
#DESCRIPTION:;
#CHARTSTYLE:;
#DIFFICULTY:Medium;
#METER:6;
#RADARVALUES:0.382,0.436,0.179,0.057,0.000,300.000,22.000,7.000,0.000,0.000,0.000,0.000,0.000,0.382,0.436,0.179,0.057,0.000,300.000,22.000,7.000,0.000,0.000,0.000,0.000,0.000;
#CREDIT:;
#OFFSET:-0.370;
#BPMS:0.000=176.920
;
#STOPS:;
#DELAYS:;
#WARPS:;
#TIMESIGNATURES:0.000=4=4
;
#TICKCOUNTS:0.000=4
;
#COMBOS:0.000=1
;
#SPEEDS:0.000=1.000=0.000=0
;
#SCROLLS:0.000=1.000
;
#FAKES:;
#LABELS:0.000=Song Start
;
#NOTES:
0000
0000
0000
0000
,
0000
0000
0000
0000
,
0000
0000
0000
0000
0001
0000
1000
0001
,
1000
0000
0000
0000
,
0000
0000
0000
0000
0010
0000
1000
0010
,
1000
0000
0000
0000
,
0000
0000
0000
0000
0001
0000
0100
0001
,
0100
0000
0000
0000
,
0000
0000
0000
0000
0001
0000
0100
1000
,
0100
0000
0001
0000
,
1000
0010
0100
0000
0001
0000
0000
0000
,
1000
0000
0010
0000
,
0100
0001
0010
0000
0001
0000
0000
0000
,
0010
0000
0001
0000
,
1000
0010
0100
0000
0001
0000
0000
0000
,
0100
0000
1000
0000
,
0010
0100
0001
0000
0010
0000
0000
0000
,
0001
0100
0001
0010
,
0001
0000
0100
0000
0010
1000
0001
0100
,
0010
0010
1000
1000
,
0001
0000
0001
0000
0100
0001
0010
0001
,
0100
0010
1000
0100
,
0010
0000
0100
0000
0001
1000
0010
0100
,
0010
0000
0001
0000
,
1000
0000
0001
1001
,
0010
0100
0010
0000
0010
0000
0100
0000
,
0001
0100
0001
0100
,
0000
0001
1001
0000
,
0110
0000
0000
1010
0000
0000
0000
0000
,
0001
0100
0001
1000
,
0010
0000
1000
0000
0001
0100
0001
0000
,
0010
0001
0100
0010
,
1000
0001
1000
0000
0001
0000
0110
0000
,
0001
0001
0100
0100
,
0010
1100
0010
1000
,
1010
1010
1001
0100
,
1000
0010
0110
0110
,
0000
0001
1000
0001
,
0100
0000
0000
0010
0000
0000
0001
0000
,
1000
0010
0100
0001
,
0001
0001
1001
0001
,
0100
1001
0010
0110
,
0001
1001
0100
1000
,
0010
0100
0001
0010
,
0001
0100
0010
1000
,
0010
0100
0010
0000
1000
0000
0001
0000
,
0100
0000
1000
0000
0010
0100
0010
0000
,
1000
0000
0100
0000
,
0011
0000
0001
1000
,
0010
0000
0000
0000
0100
0000
0000
0001
,
0000
1000
0001
0100
,
0010
0000
0000
0000
0001
0000
0000
0100
,
0000
0001
0010
0001
,
0100
0000
0000
0000
0010
0000
0000
0100
,
0000
0001
0010
0100
,
0000
0000
0001
0000
0100
0000
0000
0001
,
0000
0010
0100
0001
,
2000
0000
0000
3000
0002
0000
0000
0000
,
0203
0000
0310
0000
1000
0000
0001
0100
,
0002
0000
0023
0000
,
0130
0000
1000
0000
0010
0000
0100
0001
,
0010
0000
0100
0000
,
1000
0010
0100
0001
,
1000
0000
0010
0001
,
0100
0010
0001
0010
,
0001
0000
0001
0000
,
1000
0010
0100
0001
,
1000
0000
0001
0000
0100
0000
0000
0010
,
0000
0001
0100
0010
,
0010
0000
0000
0000
1000
0000
0000
0100
,
0000
1000
0010
0100
,
0010
0000
0000
0000
0001
0000
0000
0100
,
0000
0010
0100
0010
,
1000
0000
0001
0000
0100
0000
0010
0001
,
0000
0010
0100
0001
,
1000
0000
0010
0000
1000
0000
0001
0100
,
0000
0010
0001
0010
,
0100
0000
1000
0000
0010
0000
0100
0010
,
0000
0001
0100
0010
,
1000
0000
0100
0000
1000
0000
1000
0100
,
0000
0010
0100
0001
,
1000
0000
0110
0000
,
1001
0000
0000
0000
0001
1000
0001
1000
,
0001
0000
0110
0000
,
0110
0000
0000
0000
0010
0100
0010
0100
,
0010
0000
1010
0000
,
1010
0000
0000
0000
0001
1000
0001
1000
,
0001
0000
0010
0000
,
0100
0000
0002
2000
,
0000
0000
3003
0000
;

//---------------dance-single - ----------------
#NOTEDATA:;
#CHARTNAME:;
#STEPSTYPE:dance-single;
#DESCRIPTION:;
#CHARTSTYLE:;
#DIFFICULTY:Easy;
#METER:4;
#RADARVALUES:0.270,0.363,0.089,0.089,0.000,211.000,11.000,11.000,0.000,0.000,0.000,0.000,0.000,0.270,0.363,0.089,0.089,0.000,211.000,11.000,11.000,0.000,0.000,0.000,0.000,0.000;
#CREDIT:;
#NOTES:
0000
0000
0000
0000
,
0000
0000
0000
0000
,
0000
0000
0010
0010
,
0010
0000
0000
0000
,
0000
0000
0100
0100
,
0100
0000
0000
0000
,
0000
0000
0001
1000
,
0001
0000
0000
0000
,
0000
0000
0001
1000
,
0010
0100
0000
0001
,
0000
1000
0000
0010
,
0100
0001
0000
0010
,
0000
0100
0000
0001
,
1000
0110
0000
1001
,
0000
0110
0000
1001
,
0010
0100
0000
0001
,
0000
0010
0001
0100
,
0000
0001
0000
1000
,
0000
0100
0010
0100
,
0001
0010
0000
0100
,
0000
1000
0010
0100
,
0001
0010
0000
0001
,
0000
0100
0010
1000
,
0000
0001
0000
0100
,
0000
0010
1000
0001
,
0000
0010
0010
0010
,
0001
1000
1000
1000
,
0001
1000
0010
0000
,
0100
0000
0001
0000
,
0010
0010
0010
0010
,
0100
0100
0100
0100
,
0001
0010
0001
1000
,
0001
1000
0110
0110
,
0001
0001
1000
1000
,
0010
0010
0100
0100
,
0001
1000
0001
1000
,
0010
0100
0010
0100
,
0000
0001
0000
0001
,
0000
1000
0000
1000
,
0000
0010
0000
0010
,
0000
0100
0000
0100
,
0000
0001
0000
1000
,
0000
0010
0000
0001
,
0100
0001
0010
0001
,
0100
0010
1000
0100
,
1000
0010
1000
0100
,
0010
0100
1000
0001
,
0100
0010
2000
3001
,
1001
0000
0000
0000
,
0010
0000
0010
0000
,
0100
0000
0100
0000
,
0001
0100
0001
0000
,
0010
1000
0010
0000
,
0001
1000
0100
0000
,
0010
0100
0001
0000
,
0010
0001
0100
0000
,
0010
1000
0100
0000
,
1010
0000
0101
0000
,
0011
0000
1001
0000
,
0010
0000
0010
0000
,
0010
0000
0010
0000
,
0100
0000
0100
0000
,
0100
0000
0100
0000
,
0001
0000
1000
0000
,
0010
0000
0100
0000
,
0001
0000
1000
0000
,
0001
0000
1000
0000
,
0010
0000
0100
0000
,
0010
0000
0100
0000
,
0001
0000
0010
0000
,
0001
0000
0010
0000
,
0010
0000
0100
0000
,
0010
0000
0100
0000
,
0001
0000
1000
0000
,
0010
0000
0100
0000
,
0100
0000
0010
0000
,
1000
0000
0001
0000
,
0001
0000
0100
0000
,
0010
0000
1000
0000
,
1000
0000
0100
0000
,
0010
0000
0001
0000
,
0020
0000
0000
0000
,
0000
0000
2030
0000
,
0002
0000
0000
0000
,
0000
3000
0200
0003
,
0020
0000
0000
0000
,
0000
0300
2000
0030
,
0002
3000
0200
0003
,
0020
0300
2000
0030
,
0000
0000
3000
0000
;

//---------------dance-single - Blank----------------
#NOTEDATA:;
#CHARTNAME:;
#STEPSTYPE:dance-single;
#DESCRIPTION:Blank;
#CHARTSTYLE:;
#DIFFICULTY:Beginner;
#METER:2;
#RADARVALUES:0.157,0.144,0.057,0.000,0.000,128.000,7.000,0.000,0.000,0.000,0.000,0.000,0.000,0.157,0.144,0.057,0.000,0.000,128.000,7.000,0.000,0.000,0.000,0.000,0.000,0.000;
#CREDIT:;
#NOTES:
// measure 0
0000
0000
0000
0000
,  // measure 1
0000
0000
0000
0000
,  // measure 2
0000
0000
0001
0000
,  // measure 3
0001
0000
0000
0000
,  // measure 4
0000
0000
1000
0000
,  // measure 5
1000
0000
0000
0000
,  // measure 6
0000
0000
0010
0000
,  // measure 7
0010
0000
0000
0000
,  // measure 8
0000
0000
0001
0000
,  // measure 9
0001
0000
0000
0000
,  // measure 10
1000
0000
0000
0000
,  // measure 11
0010
0000
0000
0000
,  // measure 12
0010
0000
0000
0000
,  // measure 13
0100
0000
0000
0000
,  // measure 14
0100
0000
0000
0000
,  // measure 15
0001
0000
0000
0000
,  // measure 16
0001
0000
0000
0000
,  // measure 17
0010
0000
0010
0000
,  // measure 18
0010
0000
0010
0000
,  // measure 19
0100
0000
0100
0000
,  // measure 20
0100
0000
0100
0000
,  // measure 21
0001
0000
0001
0000
,  // measure 22
0001
0000
0001
0000
,  // measure 23
1000
0000
1000
0000
,  // measure 24
1000
0000
1000
0000
,  // measure 25
0110
0000
0000
0000
,  // measure 26
1001
0000
0000
0000
,  // measure 27
0001
0000
0001
0000
,  // measure 28
1000
0000
1000
0000
,  // measure 29
0010
0000
0010
0000
,  // measure 30
0010
0000
0000
0000
,  // measure 31
0100
0000
0100
0000
,  // measure 32
0100
0000
0000
0000
,  // measure 33
1001
0000
0000
0000
,  // measure 34
0110
0000
0000
0000
,  // measure 35
0001
0000
1000
0000
,  // measure 36
0001
0000
1000
0000
,  // measure 37
1000
0000
0000
0000
,  // measure 38
0100
0000
0000
0000
,  // measure 39
0010
0000
0000
0000
,  // measure 40
0001
0000
0000
0000
,  // measure 41
0110
0000
0000
0000
,  // measure 42
0010
0000
0010
0000
,  // measure 43
0010
0000
0000
0000
,  // measure 44
0100
0000
0100
0000
,  // measure 45
0110
0000
0000
0000
,  // measure 46
0001
0000
0001
0000
,  // measure 47
0001
0000
0001
0000
,  // measure 48
1001
0000
0000
0000
,  // measure 49
0010
0000
0000
0000
,  // measure 50
0100
0000
0000
0000
,  // measure 51
0001
0000
0000
0000
,  // measure 52
0100
0000
0000
0000
,  // measure 53
0001
0000
0000
0000
,  // measure 54
1000
0000
0000
0000
,  // measure 55
0010
0000
0000
0000
,  // measure 56
0100
0000
0100
0000
,  // measure 57
0100
0000
0000
0000
,  // measure 58
0001
0000
0000
0000
,  // measure 59
1000
0000
0000
0000
,  // measure 60
0100
0000
0000
0000
,  // measure 61
0010
0000
0010
0000
,  // measure 62
0010
0000
0000
0000
,  // measure 63
1000
0000
1000
0000
,  // measure 64
1000
0000
0000
0000
,  // measure 65
0001
0000
0000
0000
,  // measure 66
1000
0000
1000
0000
,  // measure 67
1000
0000
0000
0000
,  // measure 68
0010
0000
0010
0000
,  // measure 69
0010
0000
0000
0000
,  // measure 70
0001
0000
0001
0000
,  // measure 71
0001
0000
0000
0000
,  // measure 72
1000
0000
1000
0000
,  // measure 73
1000
0000
0001
0000
,  // measure 74
0001
0000
0001
0000
,  // measure 75
0010
0000
0010
0000
,  // measure 76
1000
0000
1000
0000
,  // measure 77
0010
0000
0010
0000
,  // measure 78
0001
0000
0001
0000
,  // measure 79
1000
0000
1000
0000
,  // measure 80
0001
0000
0001
0000
,  // measure 81
0010
0000
0010
0000
,  // measure 82
0100
0000
0100
0000
,  // measure 83
0100
0000
1000
0000
,  // measure 84
1000
0000
1000
0000
,  // measure 85
1000
0000
0010
0000
,  // measure 86
0010
0000
0100
0000
,  // measure 87
0100
0000
0010
0000
,  // measure 88
0010
0000
0100
0000
;
