#VERSION:0.81;
#TITLE:Tea Party;
#SUBTITLE:;
#ARTIST:Kerli;
#TITLETRANSLIT:;
#SUBTITLETRANSLIT:;
#ARTISTTRANSLIT:;
#GENRE:;
#ORIGIN:;
#CREDIT:;
#BANNER:tea-banner.png;
#BACKGROUND:tea-bg.png;
#PREVIEWVID:;
#JACKET:tea-jacket.png;
#CDIMAGE:;
#DISCIMAGE:;
#LYRICSPATH:;
#CDTITLE:tea-cdtitle.png;
#MUSIC:Tea Party.mp3;
#OFFSET:-0.450;
#SAMPLESTART:25.074;
#SAMPLELENGTH:11.920;
#SELECTABLE:YES;
#BPMS:0.000=82.001,
32.000=164.001,
340.000=150.000,
344.000=130.304,
348.000=122.064,
352.000=111.724,
370.000=145.974,
372.000=155.519,
373.000=161.440,
374.000=142.618,
375.000=144.559,
376.000=126.064,
377.000=140.625,
378.000=136.223,
379.000=119.932,
380.000=116.104;
#STOPS:75.000=1.460;
#DELAYS:;
#WARPS:;
#TIMESIGNATURES:0.000=4=4;
#TICKCOUNTS:0.000=4;
#COMBOS:0.000=1;
#SPEEDS:0.000=1.000=0.000=0;
#SCROLLS:0.000=1.000;
#FAKES:;
#LABELS:0.000=Song Start;
#BGCHANGES:7.926=tea.avi=1.000=1=0=1===CrossFade==,
352.000=tea-bg.png=1.000=0=0=1=====,
99999=-nosongbg-=1.000=0=0=0 // don't automatically add -songbackground-
;
#KEYSOUNDS:;
#ATTACKS:
;

//---------------dance-single - ----------------
#NOTEDATA:;
#CHARTNAME:;
#STEPSTYPE:dance-single;
#DESCRIPTION:;
#CHARTSTYLE:;
#DIFFICULTY:Hard;
#METER:8;
#RADARVALUES:0.519,0.608,0.264,0.284,0.088,455.000,39.000,42.000,0.000,0.000,0.000,0.000,0.000,0.519,0.608,0.264,0.284,0.088,455.000,39.000,42.000,0.000,0.000,0.000,0.000,0.000;
#CREDIT:;
#OFFSET:-0.450;
#BPMS:0.000=82.001
,32.000=164.001
,340.000=150.000
,344.000=130.304
,348.000=122.064
,352.000=111.724
,370.000=164.014
,372.000=170.919
,373.000=164.260
,374.000=142.618
,375.000=144.559
,376.000=126.064
,377.000=140.625
,378.000=136.223
,379.000=119.932
,380.000=116.104
;
#STOPS:75.000=1.460
;
#DELAYS:;
#WARPS:;
#TIMESIGNATURES:0.000=4=4
;
#TICKCOUNTS:0.000=4
;
#COMBOS:0.000=1
;
#SPEEDS:0.000=1.000=0.000=0
;
#SCROLLS:0.000=1.000
;
#FAKES:;
#LABELS:0.000=Song Start
;
#NOTES:
0000
0000
0000
0000
,
0001
0000
0000
0010
1000
0000
0001
0000
0100
0000
0001
0000
0010
0000
1000
0100
,
0010
1000
0001
0100
0010
0000
0001
1000
0100
0000
0010
0000
0100
0000
0000
0000
,
0001
0000
0000
1000
0010
0000
0100
0000
0001
0000
1000
0000
2002
0000
3003
0000
,
0001
0000
0000
0100
0000
0000
0000
0000
0000
0000
0000
0000
1010
0000
0000
0000
0000
0000
0000
0000
0000
0000
0000
0000
0001
0000
0000
0100
0000
0000
0000
0000
0000
0000
0000
0000
0011
0000
0000
0000
0000
0000
0001
0000
0000
0000
0000
0010
,
0100
0000
0000
0010
0000
0000
0000
0000
0000
0000
0000
0000
1010
0000
0000
0000
0000
0000
0000
0000
0000
0000
0000
0000
0001
0000
0000
0100
0000
0000
0000
0000
0000
0001
0000
0000
0010
0000
0000
0000
0000
0000
0001
0000
0000
0000
0000
0100
,
1000
0000
0000
0010
0000
0000
0000
0000
0000
0000
0000
0000
0001
0000
0000
0000
0000
0000
0000
0000
0000
0000
0000
0000
0100
0000
0000
0010
0000
0000
0000
0000
0000
0000
0000
0000
1000
0000
0000
0000
0000
0000
0001
0000
0000
0000
0000
0001
,
0100
0010
0000
0000
0001
0000
0000
1000
0000
0001
0000
0100
0010
0000
0001
0000
,
1000
0000
0000
0100
0000
0001
0010
0000
,
0001
1000
0010
0100
0001
0000
1000
0000
,
0100
0000
0010
0100
0000
0010
0100
0000
,
0001
1000
0010
0100
0001
0000
0010
0001
,
0100
1000
0001
0100
,
0010
1000
0000
0001
0000
0000
0100
0000
,
0001
0000
0010
0000
0100
1000
0000
0001
,
1000
0000
0010
0001
0000
0000
1000
0000
,
0001
0100
0010
1000
0001
0100
1000
0000
,
0010
0100
0001
0010
0001
0100
0010
0000
,
1000
0000
0001
0100
0010
1000
0000
0000
,
0001
0010
1000
0100
0011
0000
1100
0000
,
0100
0001
0100
0001
0010
0001
0100
0000
,
0010
0001
1000
0010
0100
1000
0001
0100
,
0001
0000
0010
0000
0001
0000
0100
0000
0010
0000
0000
0000
0100
0010
0100
0010
,
0100
0002
2003
3200
,
0320
0000
0230
0000
0302
0000
1003
0010
,
0100
0002
0203
0320
,
2030
0000
3200
0000
0320
0000
1030
0001
,
0100
0000
0010
0000
0000
0000
2002
0000
0000
0000
0000
0000
0003
3000
0000
0000
,
0010
0000
0100
0000
0000
0000
2200
0000
0000
0000
0000
0000
0000
3300
0000
0000
,
0001
0100
0010
1000
,
1001
1010
0202
0303
,
0001
0000
0100
1000
0000
0100
0001
0000
,
0100
1000
0010
0100
0001
0000
1001
0000
,
0110
0000
0010
1000
0000
0001
0100
0000
,
0001
0010
0001
0100
0010
0000
1000
0000
,
0001
0000
0100
0010
0000
1000
0001
0000
,
0100
0010
1000
0000
2001
0000
0100
0000
,
0010
3000
0001
0100
0000
0001
1000
0001
,
0000
0100
0000
0001
1000
0000
0100
1000
,
0010
0000
0001
0100
0000
0001
0010
0000
,
0001
0100
0010
1000
0001
0000
0100
0000
,
0010
0000
1000
0010
0000
0100
0001
0000
,
0001
0010
0001
1000
0010
0000
0100
0001
,
0010
0100
0001
1001
,
0010
1000
0000
0100
0000
0010
1000
0000
,
0001
0000
0100
0000
0010
0100
0000
0001
,
1000
0000
0010
0100
0000
0001
0010
0000
,
0001
0010
1000
0001
,
0100
0000
0000
0000
0001
0000
0000
0000
0010
0000
0000
0000
1000
0000
0001
1000
,
0001
0000
0001
0000
0010
0000
1000
0001
,
0010
0000
0000
0000
0001
0000
0000
0000
0100
0000
0000
0000
0010
0000
0100
0010
,
0100
0000
0001
1000
0000
0000
0010
0000
,
0100
0000
0000
0000
0000
0000
0001
0000
0000
0000
0000
0000
1000
0000
0100
0001
,
0100
0000
0000
0011
0000
0000
2020
0000
,
3030
2002
0000
3003
,
0000
0000
0002
0000
0200
0003
0020
0300
,
2000
0030
0002
3000
0200
0003
0310
1000
,
0001
0000
0000
0000
0220
0000
0330
0001
,
1000
0000
0010
0000
0100
0000
1000
0010
,
0100
0000
1001
0000
,
1000
0000
0000
0110
0000
0000
0001
0000
,
0100
0000
0000
0001
0000
0000
1000
0000
,
0020
0000
0000
2000
0000
0030
0002
3003
,
0001
0100
0001
0100
0010
1000
0010
1000
,
0001
1000
0001
1000
0100
1000
0100
1000
,
0100
0010
0100
0010
0001
0010
0001
0010
,
0001
0100
0001
0100
0001
0100
0001
0100
,
0001
0000
0000
0000
0000
0000
0000
0000
1000
0000
0000
0000
0000
0000
0001
0020
,
0200
0000
0000
0000
0000
0000
0000
0330
,
0110
1100
1010
0101
,
0001
0100
0010
1000
0001
0000
0100
0000
,
0101
1100
0011
1010
,
0001
0010
0001
0100
0010
0000
1000
0000
,
1100
1010
0101
0011
,
0010
1000
0001
0000
0100
0000
0010
0000
,
1001
0000
1100
0000
0110
0000
0011
0010
,
0000
0001
0000
0001
0010
0000
0010
0000
,
0001
1000
0010
0100
,
0001
0100
0001
0010
0001
0000
0100
0000
,
0010
0000
1000
0100
0000
0010
1000
0000
,
0001
0100
0001
0010
0001
0000
0100
0010
,
2000
0000
3001
0000
2100
0000
0010
3000
,
0100
0001
0000
0010
0000
0001
0100
0000
,
0010
0000
1000
0000
0001
0100
0000
0010
,
1000
0000
0001
0100
0000
0000
0001
0000
,
0010
1000
0001
0100
0010
0000
0001
0000
,
0010
1000
0001
0000
,
0010
0000
0000
0001
0100
0000
0010
0000
,
0001
1000
2002
0000
,
0000
0000
0000
3003
;

//---------------dance-single - ----------------
#NOTEDATA:;
#CHARTNAME:;
#STEPSTYPE:dance-single;
#DESCRIPTION:;
#CHARTSTYLE:;
#DIFFICULTY:Medium;
#METER:6;
#RADARVALUES:0.381,0.390,0.217,0.047,0.000,355.000,32.000,7.000,0.000,0.000,0.000,0.000,0.000,0.381,0.390,0.217,0.047,0.000,355.000,32.000,7.000,0.000,0.000,0.000,0.000,0.000;
#CREDIT:;
#OFFSET:-0.450;
#BPMS:0.000=82.000
,32.000=164.000
,340.000=150.000
,344.000=130.304
,348.000=122.064
,352.000=111.724
,370.000=161.194
,372.000=153.679
,373.000=158.240
,374.000=142.618
,375.000=144.559
,376.000=126.064
,377.000=140.625
,378.000=136.223
,379.000=119.932
,380.000=116.104
;
#STOPS:75.000=1.460
;
#DELAYS:;
#WARPS:;
#TIMESIGNATURES:0.000=4=4
;
#TICKCOUNTS:0.000=4
;
#COMBOS:0.000=1
;
#SPEEDS:0.000=1.000=0.000=0
;
#SCROLLS:0.000=1.000
;
#FAKES:;
#LABELS:0.000=Song Start
;
#NOTES:
0000
0000
0000
0000
,
0001
0010
1000
0100
,
0010
0001
0100
0000
0001
0010
0001
0000
,
0010
0000
1000
0000
0001
0100
0010
0000
,
0001
0000
1000
0000
0100
1000
0010
0100
,
0001
0000
0010
0000
0001
0100
0010
0001
,
1000
0000
0010
0000
0100
0001
1000
0010
,
0100
0000
0001
0000
1000
0001
1000
0001
,
1000
1000
0010
0100
,
0001
1000
0010
0100
0001
0000
0010
0000
,
0001
1000
0100
0010
,
0100
0001
0010
0001
0100
0000
0010
0000
,
1000
0001
0100
0110
,
0001
1000
0100
1001
,
0010
0100
0001
1000
,
0010
1000
0100
0010
,
1000
0001
0100
0011
,
0001
0100
0010
1001
,
0010
0100
1001
0000
,
0100
1000
0010
0100
,
0100
0001
0010
0001
,
0100
0001
0010
1000
,
0010
0100
0001
0010
,
0001
0010
0001
1000
,
0100
0000
0010
0000
1001
0000
0010
0100
,
0001
1000
0010
0100
,
1000
0000
0010
0000
0100
0000
0001
0010
,
0001
1000
0000
1001
0000
0000
0000
0000
,
0010
0100
0000
1001
0000
0000
0000
0000
,
0010
0010
0010
0010
,
0100
0100
0100
0100
,
1001
1001
0001
1000
,
0110
0110
0010
0100
,
1010
0101
0011
0010
,
0001
1000
0110
0010
,
0001
1000
0100
0010
,
0100
0000
0001
0000
0010
0000
1000
0001
,
1000
0000
0010
0000
0100
0000
0001
0010
,
0000
0001
0000
1000
0100
0000
0010
0000
,
0001
1000
0010
0100
0000
0010
0001
0000
,
0010
1000
0001
0100
,
0010
1000
0001
0100
,
0001
0010
0100
1000
0010
0000
0100
0000
,
0001
0010
1001
0010
,
0100
0001
0000
1000
0000
0000
0010
0000
,
0100
0001
1000
0000
,
0001
0000
0000
1000
0000
0000
0010
0000
,
0001
1000
0100
0010
,
0100
0000
0001
0000
0010
0000
0001
1000
,
0010
0100
0001
0010
,
0100
0000
0010
0000
1000
0000
0001
0100
,
0010
0000
0000
0001
0000
0000
1000
0000
,
0010
0000
0000
0100
0000
0000
0001
0000
,
1000
0000
0000
0010
0000
0000
0100
0000
,
0001
0000
1000
0000
,
0001
0100
0010
0000
,
0001
1000
1001
0000
,
0010
0100
0011
0000
,
0010
1000
1100
0000
,
0001
0010
1001
0000
,
0010
0100
1000
0010
,
0200
0000
0002
0300
,
2000
0000
0000
3003
,
0010
0100
0001
0010
,
0100
1000
0010
0100
,
0001
0010
0001
0010
,
0100
1000
0010
0100
,
0002
0000
2000
3003
,
2002
0000
0000
0000
0000
0000
0000
3003
,
0010
0100
0001
1000
,
0010
0100
0001
1000
,
0010
0100
0001
0010
,
0010
0100
0001
0100
0001
0000
0010
0000
,
1001
0010
0100
0010
,
1000
0010
0100
0000
0001
0000
0010
0000
,
0001
0100
0010
1000
,
0001
1000
0010
1001
,
0010
0100
0001
0010
,
1001
0000
0110
0000
0001
1000
0010
0000
,
0001
1000
0010
0100
,
1000
0000
0001
0000
0010
0001
1000
0000
,
0010
0100
1001
0110
,
0001
0010
0001
1000
,
0110
1001
1010
0101
,
0010
0001
0100
0010
,
1000
0001
0100
0010
,
1000
0001
0100
0000
,
0010
0000
0000
1000
0001
0000
0100
0000
,
0010
0001
1000
0000
;

//---------------dance-single - ----------------
#NOTEDATA:;
#CHARTNAME:;
#STEPSTYPE:dance-single;
#DESCRIPTION:;
#CHARTSTYLE:;
#DIFFICULTY:Easy;
#METER:4;
#RADARVALUES:0.291,0.300,0.122,0.027,0.000,279.000,18.000,4.000,0.000,0.000,0.000,0.000,0.000,0.291,0.300,0.122,0.027,0.000,279.000,18.000,4.000,0.000,0.000,0.000,0.000,0.000;
#CREDIT:;
#OFFSET:-0.504;
#BPMS:0.000=82.001
,32.000=164.001
,340.000=150.000
,344.000=130.304
,348.000=122.064
,352.000=111.724
,370.000=145.974
,372.000=155.519
,373.000=161.440
,374.000=142.618
,375.000=144.559
,376.000=126.064
,377.000=140.625
,378.000=136.223
,379.000=119.932
,380.000=116.104
;
#STOPS:75.000=1.460
;
#DELAYS:;
#WARPS:;
#TIMESIGNATURES:0.000=4=4
;
#TICKCOUNTS:0.000=4
;
#COMBOS:0.000=1
;
#SPEEDS:0.000=1.000=0.000=0
;
#SCROLLS:0.000=1.000
;
#FAKES:;
#LABELS:0.000=Song Start
;
#NOTES:
0000
0000
0000
0000
,
0002
0000
2003
0000
,
3010
0100
0001
0010
,
0100
0001
1000
0010
,
1001
0000
0010
0010
,
0110
0000
1000
1000
,
1001
0000
0001
0001
,
1001
0000
0001
1000
,
1001
0000
0010
0000
,
0010
0000
0010
0000
,
0110
0000
1000
0000
,
1000
0000
1000
0000
,
0001
0000
0100
0000
,
0001
0000
0010
0000
,
0001
0000
1000
0000
,
0010
0100
0001
0000
,
1000
0010
1000
0010
,
0001
0100
0001
0100
,
0001
0010
0001
0000
,
1000
0001
0100
0010
,
0000
0001
0100
0010
,
0001
1000
0010
0100
,
0001
0010
0001
0100
,
0000
0001
1000
0010
,
0001
0100
0010
0001
,
1000
0010
0100
0001
,
0010
0001
0100
0010
,
1000
0000
0001
0000
,
0010
0000
0100
0000
,
0001
1000
0010
0100
,
0001
1000
1001
0000
,
0010
0010
0010
0010
,
0100
0100
0100
0100
,
0001
0001
0001
0001
,
1000
1000
1000
1000
,
1001
0000
1001
0000
,
0110
0000
0110
0000
,
0001
0010
0001
0100
,
0001
1000
0110
1001
,
0100
1000
0010
0100
,
0001
0010
0001
0100
,
0010
0001
0100
0010
,
1000
0001
0100
0010
,
2000
3001
1000
0000
,
0001
0100
0002
0003
,
1000
0001
1000
0000
,
0010
0100
1001
0000
,
0001
0100
0001
0010
,
0001
0100
0010
1000
,
0001
0000
0001
0000
,
1000
1000
1000
1000
,
0010
0000
0100
0000
,
0001
1000
0010
0000
,
0100
1000
0010
0000
,
0001
0000
1000
0001
,
1000
0010
0100
0000
,
0001
0010
0100
0000
,
0001
1000
0100
0000
,
0010
1000
0100
0000
,
0001
1000
0010
0000
,
0001
1000
0100
0000
,
0010
0001
1000
0000
,
0001
0000
1000
0000
,
0010
0000
0100
0000
,
0001
0000
1000
0000
,
0010
0000
0100
0000
,
0001
0000
1000
0000
,
0100
0000
0010
0000
,
1001
0000
0000
0000
,
0010
0010
0010
0010
,
0100
0100
0100
0100
,
1000
1000
1000
1000
,
0100
0100
0100
0100
,
0010
0010
0010
0010
,
0001
0001
0001
0001
,
0100
0100
0100
0100
,
0010
1000
0001
1001
,
0010
0001
0100
0001
,
0010
0001
1000
0100
,
0010
0100
1000
0100
,
0001
0010
0100
0001
,
1000
0010
0100
1001
,
0100
1000
0010
1001
,
0010
0100
1000
0010
,
0100
0001
1000
0001
,
1000
0000
0001
0000
,
0100
0000
0010
0000
,
1000
0000
0001
0000
,
0100
0010
0001
0000
;

//---------------dance-single - Blank----------------
#NOTEDATA:;
#CHARTNAME:;
#STEPSTYPE:dance-single;
#DESCRIPTION:Blank;
#CHARTSTYLE:;
#DIFFICULTY:Beginner;
#METER:2;
#RADARVALUES:0.130,0.149,0.041,0.000,0.000,128.000,6.000,0.000,0.000,0.000,0.000,0.000,0.000,0.130,0.149,0.041,0.000,0.000,128.000,6.000,0.000,0.000,0.000,0.000,0.000,0.000;
#CREDIT:;
#NOTES:
// measure 0
0000
0000
0000
0000
,  // measure 1
0001
0000
0001
0000
,  // measure 2
1000
0000
1000
0000
,  // measure 3
0001
0000
0001
0000
,  // measure 4
1001
0000
0010
0000
,  // measure 5
0100
0000
0010
0000
,  // measure 6
0100
0000
0001
0000
,  // measure 7
1000
0000
1001
0000
,  // measure 8
1001
0000
0000
0000
,  // measure 9
0010
0000
0010
0000
,  // measure 10
0010
0000
0000
0000
,  // measure 11
0100
0000
0100
0000
,  // measure 12
0100
0000
0000
0000
,  // measure 13
0001
0000
0000
0000
,  // measure 14
1000
0000
0001
0000
,  // measure 15
1000
0000
0000
0000
,  // measure 16
0010
0000
0000
0000
,  // measure 17
0001
0000
0000
0000
,  // measure 18
1000
0000
0000
0000
,  // measure 19
0000
0000
0000
0000
,  // measure 20
1000
0000
0000
0000
,  // measure 21
0001
0000
0000
0000
,  // measure 22
0010
0000
0000
0000
,  // measure 23
0001
0000
0001
0000
,  // measure 24
0001
0000
0001
0000
,  // measure 25
1000
0000
1000
0000
,  // measure 26
1000
0000
1000
0000
,  // measure 27
0110
0000
0000
0000
,  // measure 28
1001
0000
0000
0000
,  // measure 29
0010
0000
0010
0000
,  // measure 30
0010
0000
0010
0000
,  // measure 31
0010
0000
0000
0000
,  // measure 32
1000
0000
0000
0000
,  // measure 33
0001
0000
0000
0000
,  // measure 34
1000
0000
1000
0000
,  // measure 35
1000
0000
0000
0000
,  // measure 36
0001
0000
0001
0000
,  // measure 37
0001
0000
0000
0000
,  // measure 38
0010
0000
0010
0000
,  // measure 39
0000
0000
1000
0000
,  // measure 40
1000
0000
1000
0000
,  // measure 41
0000
0000
0001
0000
,  // measure 42
0001
0000
0001
0000
,  // measure 43
0000
0000
1000
0000
,  // measure 44
1000
0000
1000
0000
,  // measure 45
0000
0000
0100
0000
,  // measure 46
0100
0000
0100
0000
,  // measure 47
0000
0000
0001
0000
,  // measure 48
0010
0000
1000
0000
,  // measure 49
0100
0000
0000
0000
,  // measure 50
0001
0000
0010
0000
,  // measure 51
0001
0000
0000
0000
,  // measure 52
1000
0000
1000
0000
,  // measure 53
1000
0000
0000
0000
,  // measure 54
0001
0000
0001
0000
,  // measure 55
0001
0000
0000
0000
,  // measure 56
0001
0000
0000
0000
,  // measure 57
1000
0000
0000
0000
,  // measure 58
0010
0000
0000
0000
,  // measure 59
0010
0000
0000
0000
,  // measure 60
1000
0000
0000
0000
,  // measure 61
0001
0000
0000
0000
,  // measure 62
1001
0000
0000
0000
,  // measure 63
0010
0000
0000
0000
,  // measure 64
0100
0000
0000
0000
,  // measure 65
0001
0000
0000
0000
,  // measure 66
1000
0000
0000
0000
,  // measure 67
0001
0000
0001
0000
,  // measure 68
0001
0000
0000
0000
,  // measure 69
1000
0000
1000
0000
,  // measure 70
1000
0000
1000
0000
,  // measure 71
0001
0000
0001
0000
,  // measure 72
0001
0000
0001
0000
,  // measure 73
0010
0000
0010
0000
,  // measure 74
0010
0000
0010
0000
,  // measure 75
0100
0000
0100
0000
,  // measure 76
0100
0000
0100
0000
,  // measure 77
0001
0000
1000
0000
,  // measure 78
0001
0000
1000
0000
,  // measure 79
0010
0000
0100
0000
,  // measure 80
0010
0000
0100
0000
,  // measure 81
1000
0000
0000
0000
,  // measure 82
0100
0000
0000
0000
,  // measure 83
0001
0000
1000
0000
,  // measure 84
0010
0000
0000
0000
,  // measure 85
1000
0000
0000
0000
,  // measure 86
0001
0000
0000
0000
,  // measure 87
1000
0000
0000
0000
,  // measure 88
0001
0000
0000
0000
;
