#TITLE:Rocket;
#SUBTITLE:;
#ARTIST:POLYSICS;
#TITLETRANSLIT:;
#SUBTITLETRANSLIT:;
#ARTISTTRANSLIT:;
#GENRE:Moyashimon;
#CREDIT:Frozen_Heat/Azn_Punk_07/GuardianFrozen;
#MENUCOLOR:#f7f1a5;
#METERTYPE:DDR;
#BANNER:[High Speed] - Rocket.png;
#BACKGROUND:[High Speed] - Rocket-bg.png;
#LYRICSPATH:Rocket.lrc;
#CDTITLE:!cdtitle.png;
#MUSIC:[High Speed] - Rocket.mp3;
#OFFSET:-0.082;
#SAMPLESTART:18.823;
#SAMPLELENGTH:18.823;
#SELECTABLE:YES;
#LISTSORT:;
#DISPLAYBPM:102.000:408.000;
#BPMS:0.000=102.000,48.000=408.000,156.000=102.000,172.000=204.000,204.000=816.000,205.000=408.000,205.500=204.000,209.000=408.000,381.000=204.000;
#STOPS:;
#BGCHANGES:;
#ATTACKS:;

//---------------dance-single - ----------------
#NOTES:
     dance-single:
     :
     Hard:
     10:
     0.726,1.000,0.563,0.138,0.367:
0000
0000
0000
0000
,
0000
0000
0000
0000
,
0000
0000
0000
0000
,
0000
0000
0000
0000
,
0001
0010
0000
0010
0001
0000
0001
1000
0020
0000
0030
0000
0200
0000
0301
0000
,
0010
1000
0000
1000
0100
0000
0100
0010
0200
0000
0300
0000
0020
0000
0030
0000
,
0001
0100
0000
0100
0001
0000
0001
1000
0200
0000
0300
0000
0020
0001
0031
0000
,
1000
0100
0000
0100
1000
0000
1000
0001
0200
0000
0300
0000
0020
0000
0030
0000
,
0000
1000
0100
1000
0010
1000
0100
0010
0001
0000
0010
0000
0001
0001
0100
0100
,
0000
0001
0000
0010
0001
0100
0001
0010
0002
0000
0003
0000
2000
0000
3000
0000
,
0000
0001
0100
0001
0010
0001
0100
0010
1000
0000
0100
0000
1000
1000
0010
0010
,
0000
1000
0001
1000
0001
0100
0010
1000
0000
0000
1001
0000
0010
0000
0110
0000
,
1000
0100
0001
0100
,
0000
0010
0001
0100
,
0000
0010
1000
0000
,
0001
0010
1000
0010
,
0000
0100
1000
0010
,
0000
0100
0001
0000
,
1000
0010
0001
0010
,
0000
0100
0001
0010
,
0000
0100
1000
0000
,
0001
0100
1000
0100
,
0000
0010
1000
0100
,
0000
0010
0001
0000
,
1000
0010
0110
0000
,
0101
0000
0110
0000
,
0101
0010
1000
0000
,
0001
0010
0110
0000
,
0011
0000
0110
0000
,
0011
1000
0001
0000
,
1000
0010
0110
0000
,
0101
0000
0110
0000
,
1000
0001
0011
0000
,
0001
1000
1100
0000
,
1001
0000
1010
0100
,
0000
0001
0001
1000
,
1000
0010
0100
0010
,
1000
0100
0010
0001
,
1000
0001
1000
0001
1000
0000
0000
0000
,
0001
0000
0100
0000
0000
0000
0001
0000
0100
0000
0000
0000
0010
0000
1000
0000
0001
0010
0001
0010
0001
0000
0000
0000
0010
0001
0010
0001
0010
0000
0000
0000
,
0100
0000
1000
0000
0000
0000
1000
0000
0010
0000
0000
0000
0100
0000
0001
0000
1000
0100
1000
0100
1000
0000
0000
0000
0100
1000
0100
1000
0100
0000
0000
0000
,
1000
0000
0010
0000
0000
0000
1000
0000
0010
0000
0000
0000
0100
0000
0001
0000
1000
0010
1000
0010
1000
0000
0000
0000
0010
1000
0010
1000
0010
0000
0000
0000
,
0100
0000
0001
0000
0000
0000
0001
0000
0010
0000
0000
0000
0100
0000
1000
0000
0001
0100
0001
0100
0001
0000
0000
0000
0100
0001
0100
0001
0100
0000
0000
0000
,
0010
1000
0000
1000
0100
0000
0010
0001
,
1000
0000
0101
0000
0010
1000
0010
0100
,
0000
0001
1000
0001
0100
0001
1000
0100
,
0010
0000
0110
0000
1000
0001
1001
0000
,
0001
0100
0000
0100
0010
0000
1000
0010
,
0100
0001
0100
0010
1000
0001
0010
0100
,
0000
0010
0100
1000
0001
0100
1000
0100
,
0000
0001
1000
0110
,
2002
3003
1000
0001
,
0110
0001
0010
0100
,
1000
0000
0100
0010
,
0001
0000
1000
0001
,
0000
0100
0010
0001
,
0010
0000
1000
0100
,
0001
0000
1000
0010
,
0001
0010
0100
1000
,
0001
0000
0100
0010
,
1000
0000
0001
0010
,
0000
0001
0100
1000
,
0001
0000
1000
0100
,
0001
0000
1000
0100
,
0000
1000
0010
1010
,
0000
1001
0000
0101
,
0000
1010
1000
1100
,
0010
0011
0000
0101
,
0000
1010
0000
1001
,
0000
0011
0010
0110
,
1000
1001
0000
0101
,
0000
1001
0000
1100
,
0000
1010
0010
0110
,
1000
1001
0000
0011
,
0000
0101
0000
0011
,
0000
0110
0100
1001
,
0000
0001
0001
0100
,
0100
0000
0010
1000
,
0100
0000
0010
0110
,
0000
1000
1000
0001
,
0001
0000
0100
0010
,
0110
0000
0010
1010
,
0000
0100
0100
0001
,
0001
0000
1000
0100
,
0110
0000
0010
0011
,
0000
0100
0100
1000
,
1001
0000
0001
0100
,
1001
0000
0001
0010
,
0100
1000
0100
0010
,
0001
1000
0010
0001
,
0010
1000
0010
0100
,
0001
1000
1000
0001
,
0001
0010
0010
0100
,
0100
1000
1000
0001
,
0001
0100
0100
0010
,
0010
0200
0000
0000
,
0000
0000
0300
0000
;

//---------------dance-single - ----------------
#NOTES:
     dance-single:
     :
     Medium:
     8:
     0.448,0.616,0.181,0.064,0.000: // measure 1
0000
0000
0000
0000
,  // measure 2
0000
0000
0000
0000
,  // measure 3
0000
0000
0000
0000
,  // measure 4
0000
0000
0000
0000
,  // measure 5
0001
0100
0010
0100
0001
0000
0000
0000
,  // measure 6
1000
0100
0010
0100
1000
0000
0000
0000
,  // measure 7
0001
1000
0010
1000
0001
0000
0000
0000
,  // measure 8
1000
0001
0010
0001
1000
0000
0000
0000
,  // measure 9
0001
0000
1000
0000
0001
0001
0100
0100
,  // measure 10
0010
0000
1000
0001
1000
0000
0010
0000
,  // measure 11
0100
0000
0001
0000
1000
1000
0010
0010
,  // measure 12
0100
0000
0001
1000
0001
0000
0000
0000
,  // measure 13
1000
0000
1000
0000
,  // measure 14
0100
0000
0100
0000
,  // measure 15
1000
0100
0010
0000
,  // measure 16
0001
0000
0001
0000
,  // measure 17
1000
0000
1000
0000
,  // measure 18
1000
0010
0100
0000
,  // measure 19
0001
0000
0001
0000
,  // measure 20
0010
0000
0010
0000
,  // measure 21
0100
1000
0010
0000
,  // measure 22
0100
0000
0100
0000
,  // measure 23
0010
0000
0010
0000
,  // measure 24
0010
1000
0001
0000
,  // measure 25
1000
0100
1000
0000
,  // measure 26
1100
0000
0100
0000
,  // measure 27
0110
0000
0001
0000
,  // measure 28
0001
1000
0001
0000
,  // measure 29
0101
0000
0100
0000
,  // measure 30
0110
0000
1000
0000
,  // measure 31
1000
0100
1000
0000
,  // measure 32
1010
0000
0010
0000
,  // measure 33
0110
0000
0001
0000
,  // measure 34
0001
1000
0001
0000
,  // measure 35
0011
0000
0100
0000
,  // measure 36
0110
0000
1000
0000
,  // measure 37
1000
0010
0100
0000
,  // measure 38
0001
0010
0100
0000
,  // measure 39
1000
0010
0100
0000
,  // measure 40
0001
0100
1000
0100
0001
0000
0000
0000
,  // measure 41
1000
0100
0001
0100
1000
0000
0000
0000
,  // measure 42
0001
0010
1000
0010
0001
0000
0000
0000
,  // measure 43
1000
0010
0001
0010
1000
0000
0000
0000
,  // measure 44
0001
0001
0100
0100
,  // measure 45
0020
0000
1030
0000
,  // measure 46
0100
0100
0010
0010
,  // measure 47
0002
0000
1003
0000
,  // measure 48
1000
1000
0010
0010
,  // measure 49
0200
0000
0301
0000
,  // measure 50
0010
0010
1000
1000
,  // measure 51
0001
0000
0000
0000
,  // measure 52
2002
3003
0000
0000
,  // measure 53
0000
0001
0000
0001
,  // measure 54
0000
0010
0000
0010
,  // measure 55
0000
0001
0010
0100
,  // measure 56
0000
1000
0000
1000
,  // measure 57
0000
0001
0000
0001
,  // measure 58
0000
0001
0100
0010
,  // measure 59
0000
1000
0000
1000
,  // measure 60
0000
0100
0000
0100
,  // measure 61
0000
0010
0001
0100
,  // measure 62
0000
0010
0000
0010
,  // measure 63
0000
0100
0000
0100
,  // measure 64
0000
0100
0001
1000
,  // measure 65
0000
0001
0010
0001
,  // measure 66
0000
0011
0000
0010
,  // measure 67
0000
0110
0000
1000
,  // measure 68
0000
1000
0001
1000
,  // measure 69
0000
1010
0000
0010
,  // measure 70
0000
0110
0000
0001
,  // measure 71
0000
0001
0010
0001
,  // measure 72
0000
0101
0000
0100
,  // measure 73
0000
0110
0000
1000
,  // measure 74
0000
1000
0001
1000
,  // measure 75
0000
1100
0000
0010
,  // measure 76
0000
0110
0000
0001
,  // measure 77
0000
1000
0100
1000
,  // measure 78
0100
0000
1000
0100
,  // measure 79
1000
0000
0100
1000
,  // measure 80
0000
0100
1000
0100
,  // measure 81
1000
0000
0100
1000
,  // measure 82
0100
0000
1000
0100
,  // measure 83
0000
0010
0001
0010
,  // measure 84
0001
0000
0010
0001
,  // measure 85
0010
0000
0001
0010
,  // measure 86
0000
0001
0010
0001
,  // measure 87
0010
0000
0010
0001
,  // measure 88
0010
0000
0001
1000
,  // measure 89
0001
1000
0001
1000
,  // measure 90
0001
0100
0010
0100
,  // measure 91
0010
0100
0010
0100
,  // measure 92
0010
1000
0001
1000
,  // measure 93
0001
0100
0010
0100
,  // measure 94
0010
1000
0001
1000
,  // measure 95
0001
0010
0100
0010
,  // measure 96
0100
0020
0000
0000
,  // measure 97
0000
0000
0030
0000
;

//---------------dance-single - ----------------
#NOTES:
     dance-single:
     :
     Easy:
     6:
     0.337,0.557,0.011,0.383,0.000: // measure 1
0000
0000
0000
0000
,  // measure 2
0000
0000
0000
0000
,  // measure 3
0000
0000
0000
0000
,  // measure 4
0000
0000
0000
0000
,  // measure 5
0001
0000
1000
0000
,  // measure 6
0010
0000
0100
0000
,  // measure 7
0001
0000
1000
0000
,  // measure 8
0100
0000
0010
0000
,  // measure 9
0002
0000
0000
0000
1003
0010
0001
0000
,  // measure 10
2000
0000
0000
0000
3001
0010
1000
0000
,  // measure 11
0020
0000
0000
0000
0031
1000
0010
0000
,  // measure 12
0200
0000
0300
0000
,  // measure 13
0002
0000
0000
2003
,  // measure 14
0000
0000
3000
0002
,  // measure 15
0000
1003
0001
0000
,  // measure 16
2000
0000
0000
3002
,  // measure 17
0000
0000
0003
2000
,  // measure 18
0000
3001
1000
0000
,  // measure 19
0020
0000
0000
0230
,  // measure 20
0000
0000
0300
0020
,  // measure 21
0000
0130
0010
0000
,  // measure 22
0200
0000
0000
0320
,  // measure 23
0000
0000
0030
0200
,  // measure 24
0000
0310
0100
0000
,  // measure 25
0001
0000
0010
0000
,  // measure 26
0100
0000
1000
0000
,  // measure 27
0001
0000
1000
0000
,  // measure 28
0001
0000
0010
0000
,  // measure 29
0100
0000
1000
0000
,  // measure 30
0001
0000
1000
0000
,  // measure 31
1000
0000
0010
0000
,  // measure 32
0100
0000
0001
0000
,  // measure 33
1000
0000
0001
0000
,  // measure 34
1000
0000
0010
0000
,  // measure 35
0100
0000
0001
0000
,  // measure 36
1000
0000
0001
0000
,  // measure 37
1000
0000
0001
0000
,  // measure 38
0100
0000
0100
0000
,  // measure 39
0010
0000
0010
0000
,  // measure 40
2000
0000
3100
0000
,  // measure 41
0020
0000
0031
0000
,  // measure 42
0002
0000
0103
0000
,  // measure 43
0020
0000
1030
0000
,  // measure 44
2000
0000
0100
0001
,  // measure 45
3100
0000
0000
0000
,  // measure 46
0002
0000
0010
1000
,  // measure 47
0013
0000
0000
0000
,  // measure 48
0200
0000
0010
1000
,  // measure 49
0310
0000
0000
0000
,  // measure 50
0020
0000
0001
0100
,  // measure 51
0031
0000
0000
0000
,  // measure 52
0000
0000
0000
0000
,  // measure 53
0000
2000
0000
0000
,  // measure 54
3002
0000
0000
0003
,  // measure 55
2000
0000
3001
1000
,  // measure 56
0000
0002
0000
0000
,  // measure 57
2003
0000
0000
3000
,  // measure 58
0002
0000
1003
0001
,  // measure 59
0000
0200
0000
0000
,  // measure 60
0320
0000
0000
0030
,  // measure 61
0200
0000
0310
0100
,  // measure 62
0000
0020
0000
0000
,  // measure 63
0230
0000
0000
0300
,  // measure 64
0020
0000
0130
0010
,  // measure 65
0000
1000
0000
0100
,  // measure 66
0000
0010
0000
0001
,  // measure 67
0000
1000
0000
0001
,  // measure 68
0000
1000
0000
0100
,  // measure 69
0000
0010
0000
0001
,  // measure 70
0000
1000
0000
0001
,  // measure 71
0000
0001
0000
0100
,  // measure 72
0000
0010
0000
1000
,  // measure 73
0000
0001
0000
1000
,  // measure 74
0000
0001
0000
0100
,  // measure 75
0000
0010
0000
1000
,  // measure 76
0000
0001
0000
1000
,  // measure 77
0000
0001
0000
0001
,  // measure 78
0000
1000
0000
1000
,  // measure 79
0000
0001
1000
0001
,  // measure 80
0000
1000
0000
1000
,  // measure 81
0000
0001
0000
0001
,  // measure 82
0000
1000
0001
1000
,  // measure 83
0000
0010
0000
0010
,  // measure 84
0000
0100
0000
0100
,  // measure 85
0000
0010
0100
0010
,  // measure 86
0000
0100
0000
0100
,  // measure 87
0000
0010
0000
0010
,  // measure 88
0100
0000
0000
0100
,  // measure 89
0000
0001
0000
1000
,  // measure 90
0000
0100
0000
0010
,  // measure 91
0000
0001
0000
1000
,  // measure 92
0000
0010
0100
0010
,  // measure 93
0000
0100
0010
0100
,  // measure 94
0000
0001
1000
0001
,  // measure 95
0000
1000
0001
1000
,  // measure 96
0000
1001
0000
0000
;
