#TITLE:On The Break;
#SUBTITLE:;
#ARTIST:Darwin;
#TITLETRANSLIT:;
#SUBTITLETRANSLIT:;
#ARTISTTRANSLIT:;
#GENRE:;
#CREDIT:;
#BANNER:On The Break.png;
#BACKGROUND:On The Break-bg.png;
#LYRICSPATH:;
#CDTITLE:./CDTITLES/DanceDanceRevolution X.png;
#MUSIC:On The Break.mp3;
#OFFSET:-0.059;
#SAMPLESTART:69.206;
#SAMPLELENGTH:13.420;
#SELECTABLE:YES;
#BPMS:0.000=170.000
,156.000=85.000
,172.000=170.000
;
#STOPS:92.000=1.412
;
#BGCHANGES:;
#KEYSOUNDS:;
#ATTACKS:;

//---------------dance-single - ----------------
#NOTES:
     dance-single:
     :
     Medium:
     8:
     0.526,0.647,0.516,0.040,0.000,309.000,51.000,4.000,0.000,0.000,0.000,0.526,0.647,0.516,0.040,0.000,309.000,51.000,4.000,0.000,0.000,0.000: // measure 0
0000
0000
0000
0000
,  // measure 1
0000
0000
0000
0000
,  // measure 2
0000
0000
0000
0000
,  // measure 3
0000
0000
0000
0000
,  // measure 4
0100
0010
0100
0000
0010
1000
0010
0000
,  // measure 5
0100
0001
0100
0000
0010
1000
0010
0000
,  // measure 6
0100
0001
0100
0000
0010
1000
0010
0000
,  // measure 7
0100
0010
0000
0000
0000
0000
0000
0000
,  // measure 8
1000
0100
1000
0000
0001
0100
0001
0000
,  // measure 9
1000
0010
1000
0000
0001
0100
0010
1000
,  // measure 10
0001
0100
0010
0000
1000
0010
0100
0000
,  // measure 11
0001
1000
0010
0000
0100
0010
0100
0010
,  // measure 12
1000
0001
1000
0000
0010
0100
0010
0000
,  // measure 13
1000
0001
1000
0000
0010
0100
0010
1000
,  // measure 14
0010
0100
0000
0000
0001
1000
0001
0000
,  // measure 15
0010
0100
0010
0000
1000
0100
0001
0100
,  // measure 16
1000
0100
0001
0000
1000
0010
1000
0000
,  // measure 17
0010
0100
0010
0000
1000
0100
0001
1000
,  // measure 18
0000
0000
0000
0000
1000
0001
0100
0000
,  // measure 19
0100
0010
1000
0000
0001
1000
0010
0100
,  // measure 20
0010
1000
0000
0000
0001
1000
0010
0000
,  // measure 21
0100
0010
0000
1000
0010
0100
0001
1000
,  // measure 22
0010
0100
0000
0000
1000
0010
1000
0000
,  // measure 23
0100
0000
0001
1000
0010
0100
0010
1000
,  // measure 24
0000
0000
0000
0000
1000
0001
0100
0010
,  // measure 25
1000
0010
0000
0000
1000
0001
1000
0000
,  // measure 26
0010
0100
0010
0000
1000
0100
0001
0100
,  // measure 27
1000
0001
0000
0000
1000
0010
0100
0000
,  // measure 28
0001
1000
0010
0000
0100
0010
1000
0001
,  // measure 29
0100
0010
0000
0000
1000
0100
1000
0000
,  // measure 30
0001
0100
0001
0000
0000
0000
0000
0000
,  // measure 31
1010
0101
1010
0110
,  // measure 32
1001
1100
0101
1010
,  // measure 33
0110
1001
0110
1100
,  // measure 34
0101
1010
0101
1010
,  // measure 35
0110
0110
1001
1001
,  // measure 36
1100
1100
0101
0101
,  // measure 37
1010
1010
0110
0110
,  // measure 38
0101
0101
1001
1010
,  // measure 39
2020
3030
0100
1100
1000
0101
0010
0100
,  // measure 40
1000
0010
0101
1000
0010
0100
1010
0010
,  // measure 41
0100
0001
1000
0010
0100
0010
1000
0001
,  // measure 42
0100
0010
1000
0100
0010
0001
0010
0100
,  // measure 43
1000
0001
0000
0000
,  // measure 44
1100
0000
0101
0000
1000
0010
1000
0000
,  // measure 45
0010
0100
0010
0000
1000
0001
1000
0000
,  // measure 46
0110
0000
1100
0000
0001
0100
0001
0000
,  // measure 47
1000
0010
1000
0000
0100
1000
0100
0000
,  // measure 48
1001
0000
0110
0000
0010
1000
0010
0000
,  // measure 49
1000
0100
1000
0000
0001
0100
0001
0000
,  // measure 50
1010
0000
0110
0000
0001
1000
0001
0000
,  // measure 51
0110
0000
1100
0000
0001
0100
0001
0000
,  // measure 52
1010
0000
0110
0000
0001
1000
0001
0000
,  // measure 53
1000
0010
0100
0000
0001
1000
0010
0000
,  // measure 54
0100
0000
0001
0000
1000
0010
0100
0000
,  // measure 55
0001
1000
0010
0000
0100
0010
0100
0000
,  // measure 56
1001
0000
0010
0000
1000
0100
1000
0000
,  // measure 57
0001
0100
0001
0000
1000
0010
0100
0000
,  // measure 58
0001
1000
0010
0000
0100
0001
1000
0000
,  // measure 59
0010
0100
0010
1000
0001
0100
0010
0000
,  // measure 60
2002
0000
0000
0000
,  // measure 61
0000
0000
0000
0000
,  // measure 62
0000
0000
0000
0000
,  // measure 63
0000
0000
0000
0000
,  // measure 64
3003
0000
0000
0000
;

//---------------dance-single - ----------------
#NOTES:
     dance-single:
     :
     Beginner:
     3:
     0.244,0.243,0.010,0.000,0.000,168.000,1.000,0.000,0.000,0.000,0.000,0.244,0.243,0.010,0.000,0.000,168.000,1.000,0.000,0.000,0.000,0.000: // measure 0
0000
0000
0000
0000
,  // measure 1
0000
0000
0000
0000
,  // measure 2
0000
0000
0000
0000
,  // measure 3
0100
0010
0100
0000
,  // measure 4
1000
0001
1000
0000
,  // measure 5
0100
0010
0001
0000
,  // measure 6
1000
0001
1000
0000
,  // measure 7
0100
0010
0000
0000
,  // measure 8
1000
0100
0010
0000
,  // measure 9
0001
0000
1000
0100
,  // measure 10
0010
0000
0001
0000
,  // measure 11
1000
0000
0100
0010
,  // measure 12
0100
0000
0001
0000
,  // measure 13
1000
0000
0100
0010
,  // measure 14
0001
0000
1000
0000
,  // measure 15
0001
0000
0001
0100
,  // measure 16
1000
0000
1000
0000
,  // measure 17
1000
0000
1000
0100
,  // measure 18
0001
0000
0001
0000
,  // measure 19
0001
0000
0001
0100
,  // measure 20
1000
0000
1000
0000
,  // measure 21
1000
0000
1000
0010
,  // measure 22
0001
0000
0001
0000
,  // measure 23
1001
0100
0010
0000
,  // measure 24
1000
0001
1000
0000
,  // measure 25
0100
0010
0100
0000
,  // measure 26
0001
0000
1000
0001
,  // measure 27
1000
0000
0100
0000
,  // measure 28
0010
0000
0100
0001
,  // measure 29
0100
0000
0010
0000
,  // measure 30
1000
0000
0100
0000
,  // measure 31
0010
0010
0100
0100
,  // measure 32
0001
0001
0010
0010
,  // measure 33
0100
0100
1000
1000
,  // measure 34
0100
0100
0010
0010
,  // measure 35
0001
0001
0010
0010
,  // measure 36
0100
0100
1000
1000
,  // measure 37
0100
0100
0010
0010
,  // measure 38
0100
0100
0010
0010
,  // measure 39
0100
0010
1000
0100
,  // measure 40
0010
0100
0001
0100
,  // measure 41
0010
0100
0010
0100
,  // measure 42
1000
0100
0010
0100
,  // measure 43
0010
0000
0000
0000
,  // measure 44
1000
0001
1000
0100
,  // measure 45
1000
0000
0000
0000
,  // measure 46
0001
1000
0001
0010
,  // measure 47
0000
0000
0100
0010
,  // measure 48
0100
0001
0100
0000
,  // measure 49
1000
0010
1000
0100
,  // measure 50
0000
0000
0001
1000
,  // measure 51
0001
0010
0001
1000
,  // measure 52
0001
0000
0100
0010
,  // measure 53
0000
0000
1000
0100
,  // measure 54
0000
0000
0001
1000
,  // measure 55
0010
0000
0100
0001
,  // measure 56
1000
0000
0100
0010
,  // measure 57
0100
0000
0001
1000
,  // measure 58
0010
0000
1000
0001
,  // measure 59
0100
0000
0010
0000
,  // measure 60
0100
0000
0000
0000
;

//---------------dance-single - ----------------
#NOTES:
     dance-single:
     :
     Easy:
     6:
     0.357,0.516,0.091,0.000,0.000,238.000,9.000,0.000,0.000,0.000,0.000,0.357,0.516,0.091,0.000,0.000,238.000,9.000,0.000,0.000,0.000,0.000: // measure 0
0000
0000
0000
0000
,  // measure 1
0000
0000
0000
0000
,  // measure 2
0000
0000
0000
0000
,  // measure 3
1000
0001
1000
0000
,  // measure 4
0100
0010
0100
0000
,  // measure 5
0001
1000
0001
0000
,  // measure 6
0100
0010
0100
0000
,  // measure 7
1000
0000
0000
0000
,  // measure 8
0001
1000
0001
0000
0100
0000
0000
0000
,  // measure 9
0010
0000
0000
0000
1000
0100
1000
0000
,  // measure 10
0001
0000
0010
0000
,  // measure 11
0100
0000
0000
0000
1000
0100
1000
0000
,  // measure 12
0001
0000
0010
0000
,  // measure 13
0100
0000
0000
0000
1000
0001
1000
0000
,  // measure 14
0010
0000
0100
0000
,  // measure 15
0001
0000
0000
0000
1000
0100
1000
0000
,  // measure 16
0010
0100
0001
0100
,  // measure 17
0010
0100
0010
0100
,  // measure 18
1000
0100
0001
0100
,  // measure 19
1000
0000
0000
0000
0100
0001
0100
0000
,  // measure 20
0010
0100
1000
0100
,  // measure 21
0010
0000
0100
0000
0001
0100
0001
0000
,  // measure 22
0010
0100
0010
0100
,  // measure 23
0110
1000
0001
1000
,  // measure 24
0001
1000
0001
0000
0010
0000
0100
0000
,  // measure 25
0010
1000
0100
0010
,  // measure 26
0100
0000
1000
0000
0100
0010
0100
0000
,  // measure 27
1000
0001
1000
0010
,  // measure 28
1000
0000
0100
0000
0001
0100
0001
0000
,  // measure 29
0010
0100
0010
0100
,  // measure 30
1000
0001
0000
0000
,  // measure 31
1000
1000
0100
0100
,  // measure 32
0010
0010
0001
0001
,  // measure 33
0010
0010
0100
0100
,  // measure 34
1000
1000
0100
0100
,  // measure 35
0010
0010
0001
0001
,  // measure 36
0010
0010
0100
0100
,  // measure 37
1000
1000
1100
0101
,  // measure 38
1100
1010
1010
1100
,  // measure 39
1001
0100
0010
0100
0001
0100
0010
0100
,  // measure 40
0000
0000
1000
0100
0010
0000
0001
0100
,  // measure 41
0010
0000
1000
0100
0010
0000
0001
0100
,  // measure 42
0010
0000
1000
0000
0001
1000
0001
1000
,  // measure 43
0001
0000
0000
0000
,  // measure 44
1000
0000
0100
0000
0010
0100
0010
0000
,  // measure 45
1000
0000
0100
0000
1000
0100
1000
0000
,  // measure 46
0001
0000
0010
0000
0010
1000
0010
0000
,  // measure 47
0000
0010
0100
0000
0000
0010
0001
0000
,  // measure 48
0010
0000
0100
0000
0010
0100
0010
0000
,  // measure 49
1000
0000
0100
0000
0001
0100
0000
0001
,  // measure 50
0010
0000
0100
0000
0010
0100
0010
0000
,  // measure 51
0100
1000
0100
0010
,  // measure 52
0100
0000
0001
0000
1000
0001
1000
0000
,  // measure 53
0010
1000
0010
0000
0100
1000
0100
0000
,  // measure 54
0010
0000
0100
0000
0010
0100
0010
0000
,  // measure 55
1000
0000
0100
0000
0001
0100
0001
0000
,  // measure 56
1000
0000
0010
0000
1000
0010
1000
0000
,  // measure 57
0100
1000
0100
0000
0001
0000
0000
1000
,  // measure 58
0010
0000
1000
0000
0100
1000
0100
0000
,  // measure 59
0010
1000
0001
1000
,  // measure 60
1010
0000
0000
0000
;

//---------------dance-double - ----------------
#NOTES:
     dance-double:
     :
     Easy:
     7:
     0.337,0.343,0.051,0.101,0.000,218.000,5.000,10.000,0.000,0.000,0.000,0.337,0.343,0.051,0.101,0.000,218.000,5.000,10.000,0.000,0.000,0.000:
00000000
00000000
00000000
00000000
,
00000000
00000000
00000000
00000000
,
00000000
00000000
00000000
00000000
,
00000000
00000000
00000000
00000000
,
00100000
00100000
00010000
00010000
,
00001000
00001000
00000100
00000100
,
00010000
00010000
00000010
00000010
,
00002002
00000000
00000000
00003003
,
00000100
00000000
00010000
00000000
,
00100000
00000000
01000000
00010000
,
10000000
00000000
00100000
00000000
,
00001000
00000000
00010000
00001000
,
00000100
00000000
00000001
00000000
,
00001000
00000000
00000010
00000001
,
00000100
00000000
00001000
00000000
,
00010000
00000000
01000000
10000000
,
00100000
00000000
10000000
00000000
00000000
00010000
01000000
00000000
,
00100000
00000000
00010000
00000000
00000000
00001000
00000010
00000000
,
00000001
00000000
00001000
00000000
00000000
00000010
00000100
00000000
,
00001000
00000000
00000100
00000000
00000000
00000001
00000010
00000000
,
00001000
00000000
00010000
00000000
00000000
00100000
10000000
00000000
,
00010000
00000000
00100000
00000000
00000000
01000000
00100000
00000000
,
10000000
00100000
00010000
00001000
,
00000010
00000001
00000100
00001000
,
00010000
00000000
00100000
00000000
01000000
00010000
10000000
00000000
,
00100000
00010000
00100000
10000000
,
01000000
00000000
00010000
00000000
00001000
00000010
00000001
00000000
,
00000100
00001000
00000100
00000010
,
00001000
00000000
00000001
00000000
00000010
00010000
00001000
00000000
,
00010000
01000000
10000000
01000000
,
00100000
00010000
00001000
00000010
,
00000001
00000001
00000100
00000100
,
00001000
00000000
00001000
00000000
00010000
00001000
00010000
00000000
,
00100000
00100000
10000000
10000000
,
01000000
00000000
01000000
00000000
00010000
00001000
00010000
00000000
,
00000010
00000000
00000010
00000000
00000001
00000100
00000001
00000000
,
00001000
00000000
00001000
00000000
00100000
00010000
00100000
00000000
,
10000000
10000000
01000000
01000000
,
20020000
00000000
00000000
30030000
,
00100000
00010000
00001000
00000100
,
00001000
00010000
01000000
00001000
,
00000100
00000001
00001000
00010000
,
01000000
10000000
00100000
00010000
,
00022000
00000000
00000000
00033000
,
00000100
00000000
00000100
00000000
00000001
00000010
00000001
00000000
,
00000001
00000010
00001000
00010000
,
00100000
00000000
00100000
00000000
10000000
01000000
10000000
00000000
,
00010000
01000000
00001000
00000100
,
00000010
00000000
00000010
00000000
00000100
00001000
00000010
00000000
,
00000100
00001000
00010000
01000000
,
00100000
00000000
00100000
00000000
00010000
10000000
00010000
00000000
,
00100000
00010000
00022000
00033000
,
01000000
00000000
01000000
00000000
10000000
00100000
10000000
00000000
,
10000000
00100000
00010000
00001000
,
00000010
00000000
00000010
00000000
00000001
00000100
00000001
00000000
,
00001000
00000100
00010000
01000000
,
00100000
00000000
00100000
00000000
01000000
00010000
00100000
00000000
,
01000000
00010000
00001000
00000100
,
00000010
00000000
00000010
00000000
00001000
00000001
00001000
00000000
,
00000010
00001000
00010000
01000000
,
20020000
00000000
00000000
00000000
,
00000000
00000000
00000000
30030000
;

//---------------dance-double - ----------------
#NOTES:
     dance-double:
     :
     Medium:
     9:
     0.435,0.406,0.061,0.101,0.126,285.000,6.000,10.000,0.000,0.000,0.000,0.435,0.406,0.061,0.101,0.126,285.000,6.000,10.000,0.000,0.000,0.000:
00000000
00000000
00000000
00000000
,
00000000
00000000
00000000
00000000
,
00000000
00000000
00000000
00000000
,
00000000
00000000
00000000
00000000
,
00000100
00000000
00000100
00000000
00000001
00000010
00001000
00000000
,
00010000
00000000
00010000
00000000
00100000
10000000
01000000
00000000
,
00010000
00001000
00000100
00000000
00001000
00010000
01000000
00000000
,
20020000
00000000
00000000
30030000
,
00100000
00000000
00010000
00000000
,
00001000
00000000
00000000
00000000
00000010
00000100
00001000
00000000
,
00000001
00000000
00000100
00000000
,
00000010
00000000
00001000
00010000
,
00100000
00000000
00010000
00000000
,
00001000
00000000
00000000
00000000
00010000
01000000
10000000
00000000
,
00100000
00000000
01000000
00000000
,
00010000
00000000
10000000
10010000
,
01000000
00000000
00000000
01000000
00000000
00000000
01000000
00000000
00010000
00000000
00000000
00010000
00000000
00000000
00010000
00000000
,
00001000
00000000
00000000
00001000
00000000
00000000
00001000
00000000
00000010
00000000
00000001
00000000
00001000
00000000
00000000
00000000
,
00000010
00000000
00000000
00000010
00000000
00000000
00000010
00000000
00000100
00000000
00000000
00000100
00000000
00000000
00000100
00000000
,
00001000
00000000
00000000
00001000
00000000
00000000
00001000
00000000
00010000
00000000
00001000
00000000
00000100
00000000
00000000
00000000
,
00000001
00000000
00000000
00000001
00000000
00000000
00000001
00000000
00000010
00000000
00000000
00000010
00000000
00000000
00000010
00000000
,
00001000
00000000
00000000
00001000
00000000
00000000
00001000
00000000
00010000
00000000
01000000
00000000
00100000
00000000
00000000
00000000
,
00010000
00000000
00000000
00010000
00000000
00000000
00010000
00000000
10000000
00000000
00000000
10000000
00000000
00000000
10000000
00000000
,
01000000
00100000
00010000
00000000
01000000
00001000
00010000
00000000
,
00000010
00001000
00000100
00000000
00000010
00000000
00000001
00000000
,
00000100
00000001
00001000
00000000
00000100
00001000
00000010
00000000
,
00010000
00001000
00100000
00000000
00010000
00000000
10000000
00000000
,
00100000
01000000
00010000
00000000
00100000
01000000
10000000
00000000
,
00010000
00001000
00000010
00000000
00000001
00000000
00000100
00000000
,
00001000
00000001
00000010
00000000
00000001
00001000
00000010
00000000
,
00010000
00100000
10000000
01000000
,
10000000
00100000
10000000
00000000
00100000
00010000
00100000
00000000
,
00010000
00001000
00010000
00000000
00001000
00000000
00000010
00000000
,
00000001
00000100
00000001
00000000
00000100
00001000
00000100
00000000
,
00001000
00010000
00001000
00000000
01000000
00000000
10000000
00000000
,
00100000
01000000
00100000
00000000
00010000
00000000
00001000
00000000
,
00000010
00000100
00000010
00000000
00001000
00000000
00010000
00000000
,
01000000
10000000
01000000
00000000
01000000
00010000
01000000
00000000
,
20020000
00000000
00000000
30030000
,
01000000
00000000
00010000
00000000
00001000
00000010
00000001
00000100
,
00001000
00000000
00010000
00000000
00100000
00010000
00001000
00000000
,
00000010
00000000
00000001
00000000
00001000
00010000
01000000
10000000
,
00100000
00000000
00010000
00000000
00000010
00010000
00100000
00001000
,
00022000
00000000
00000000
00033000
,
00000010
00000000
00000000
00000000
00000010
00000000
00000000
00000001
00000010
00000000
00000001
00000000
00000100
00000000
00000000
00000000
,
00000001
00000000
00001000
00000000
00000100
00000000
00000000
00000010
00001000
00000000
00010000
00000000
00100000
00000000
00000000
00000000
,
10000000
00000000
00000000
00000000
10000000
00000000
00000000
01000000
00100000
00000000
00010000
00000000
10000000
00000000
00000000
00000000
,
00100000
00000000
01000000
00000000
00001000
00000000
00000000
00100000
00010000
00000000
10000000
00000000
01000000
00000000
00000000
00000000
,
00010000
00000000
00000000
00000000
00010000
00000000
00000000
00001000
00000010
00000000
00000001
00000000
00000010
00000000
00000000
00000000
,
00000100
00000000
00000010
00000000
00000001
00000000
00000000
00001000
00000010
00000000
00000100
00000000
00001000
00000000
00000000
00000000
,
00010000
00000000
00000000
00000000
00010000
00000000
00000000
01000000
00100000
00000000
00010000
00000000
10000000
00000000
00000000
00000000
,
00100000
01000000
02200000
03300000
,
01000000
00000000
00000000
00000000
01000000
00000000
00000000
10000000
01000000
00000000
10000000
00000000
00100000
00000000
00000000
00000000
,
10000000
00000000
00010000
00000000
00100000
00000000
00000000
01000000
00010000
00000000
00001000
00000000
00000100
00000000
00000000
00000000
,
00000001
00000000
00000000
00000000
00000001
00000000
00000000
00000010
00000100
00000000
00001000
00000000
00000001
00000000
00000000
00000000
,
00000100
00000000
00000010
00000000
00010000
00000000
00000000
00000100
00001000
00000000
00000001
00000000
00000010
00000000
00000000
00000000
,
00001000
00000000
00000000
00000000
00001000
00000000
00000000
00010000
01000000
00000000
10000000
00000000
01000000
00000000
00000000
00000000
,
00100000
00000000
01000000
00000000
10000000
00000000
00000000
00010000
01000000
00000000
00100000
00000000
00010000
00000000
00000000
00000000
,
00001000
00000000
00000000
00000000
00001000
00000000
00000000
00000010
00000100
00000000
00001000
00000000
00000001
00000000
00000000
00000000
,
00000100
00001000
00010000
00100000
,
20020000
00000000
00000000
00000000
,
00000000
00000000
00000000
30030000
;

//---------------dance-double - ----------------
#NOTES:
     dance-double:
     :
     Hard:
     12:
     0.556,0.593,0.152,0.101,0.273,360.000,15.000,10.000,0.000,0.000,0.000,0.556,0.593,0.152,0.101,0.273,360.000,15.000,10.000,0.000,0.000,0.000:
00000000
00000000
00000000
00000000
,
00000000
00000000
00000000
00000000
,
00000000
00000000
00000000
00000000
,
00000000
00000000
00000000
00000000
,
10000000
00100000
10000000
00000000
00010000
00100000
00010000
00000000
01000000
00000000
00000000
00000000
00001000
00000000
00000000
00000000
,
00010000
00000010
00010000
00000000
00000100
00001000
00000100
00000000
00000010
00000000
00000000
00000000
00000001
00000000
00000000
00000000
,
00000100
00010000
00000100
00000000
00001000
00000000
00000000
00000000
00000010
00010000
00000010
00000000
00000100
00000000
00000000
00000000
,
00002002
00000000
00000000
00003003
,
00000100
00000000
00001000
00000000
,
00100000
00000000
00000000
00000000
01000000
00100000
00010000
00000000
,
10000000
00000000
00100000
00000000
,
01000000
00000000
00100000
00011000
,
00000001
00000000
00001000
00000000
,
00010000
00000000
00000000
00000000
00001000
00000010
00000001
00000000
,
00000100
00000000
00000010
00000000
,
00001000
00000000
00000001
00001001
,
00000010
00000000
00000000
00000010
00000000
00000000
00000010
00000000
00001000
00000000
00000000
00001000
00000000
00000000
00001000
00000000
,
00010000
00000000
00000000
00010000
00000000
00000000
00010000
00000000
01000000
00000000
10000000
00000000
00010000
00000000
00000000
00000000
,
01000000
00000000
00000000
01000000
00000000
00000000
01000000
00000000
00100000
00000000
00000000
00100000
00000000
00000000
00100000
00000000
,
00010000
00000000
00000000
00010000
00000000
00000000
00010000
00000000
00001000
00000000
00010000
00000000
00100000
00000000
00000000
00000000
,
10000000
00000000
00000000
10000000
00000000
00000000
10000000
00000000
01000000
00000000
00000000
01000000
00000000
00000000
01000000
00000000
,
00010000
00000000
00000000
00010000
00000000
00000000
00010000
00000000
00001000
00000000
00000010
00000000
00000100
00000000
00000000
00000000
,
00001000
00000000
00000000
00001000
00000000
00000000
00001000
00000000
00000001
00000000
00000000
00000001
00000000
00000000
00000001
00000000
,
00000010
00000000
00000100
00001000
00000000
00000100
00001000
00000000
00000010
00000000
00010000
00001000
00000000
00010000
00001000
00000000
,
01000000
00000000
00010000
00100000
00000000
00010000
00100000
00000000
01000000
00000000
00000000
00000000
10000000
00000000
00000000
00000000
,
00100000
00000000
10000000
00010000
00000000
10000000
00010000
00000000
00100000
00000000
00010000
01000000
00000000
00010000
01000000
00000000
,
00001000
00000000
00010000
00000100
00000000
00010000
00000100
00000000
00001000
00000000
00000000
00000000
00000001
00000000
00000000
00000000
,
00000100
00000000
00000010
00001000
00000000
00000010
00001000
00000000
00000100
00000000
00000010
00000000
00000001
00000000
00000000
00000000
,
00001000
00000000
00010000
01000000
00000000
00010000
01000000
00000000
10000000
00000000
00000000
00000000
00100000
00000000
00000000
00000000
,
00010000
00000000
10000000
01000000
00000000
10000000
01000000
00000000
00100000
00000000
00010000
01000000
00000000
00010000
01000000
00000000
,
00001000
00000100
00000001
00000010
,
00000010
00000001
00000010
00000001
00000100
00000001
00000100
00000001
,
00000010
00000001
00000100
00001000
00010000
01000000
10010000
00000000
,
00100000
10000000
00100000
10000000
01000000
10000000
01000000
10000000
,
00100000
10000000
01000000
00010000
00001000
00000100
00001001
00000000
,
00000010
00000001
00000100
00001000
00010000
01000000
10010000
00000000
,
00100000
10000000
01000000
00010000
00001000
00000100
00001001
00000000
,
00001010
00000001
00000010
00000000
00000011
00001000
00000010
00000000
,
00002002
00000000
00000000
00003003
,
00000010
00000000
00001000
00000000
00010000
01000000
10000000
00100000
,
00010000
00000000
00001000
00000000
00000100
00001000
00010000
00000000
,
01000000
00000000
10000000
00000000
00010000
00001000
00000010
00000001
,
00000100
00000000
00001000
00000000
01000000
00001000
00000100
00010000
,
00022000
00000000
00000000
00033000
,
01000000
00000000
00100000
00000000
01000000
00000000
10000000
00100000
01000000
00000000
00010000
00000000
00100000
00000000
00000000
00000000
,
01000000
00000000
10000000
00000000
00010000
00000000
00100000
01000000
00010000
00000000
00001000
00000000
00000010
00000000
00000001
00000000
,
00000100
00000000
00000001
00000000
00000010
00000000
00000100
00010000
00001000
00000000
00000010
00000000
00000001
00000000
00000000
00000000
,
00000100
00000000
00000010
00000000
00010000
00000000
00001000
00000100
00000001
00000000
00001000
00000000
00000010
00000000
00010000
00000000
,
00001000
00000000
00100000
00000000
00010000
00000000
10000000
00100000
01000000
00000000
00010000
00000000
01000000
00000000
00000000
00000000
,
00100000
00000000
10000000
00000000
00010000
00000000
00100000
00001000
00010000
00000000
00000100
00000000
00000010
00000000
00000001
00000000
,
00001000
00000000
00000010
00000000
00001000
00000000
00000100
00000010
00000100
00000000
00001000
00000000
00000001
00000000
00000000
00000000
,
00010100
00101000
20020000
30030000
,
00100000
00000000
10000000
00000000
00100000
00000000
10000000
01000000
00100000
00000000
00001000
00000000
00000010
00000000
00000001
00000000
,
00000100
00000000
00000001
00000000
00001000
00000000
00000100
00000010
00001000
00000000
00010000
00100000
01000000
00000000
00010000
00000000
,
10000000
00000000
01000000
00000000
10000000
00000000
00100000
01000000
00001000
00000000
00010000
00000000
00000100
00000000
00000010
00000000
,
00001000
00000000
00010000
00000000
00001000
00000000
00000100
00000001
00001000
00000000
00000100
00000010
00000001
00000000
00000100
00000000
,
00001000
00000000
00010000
00000000
00001000
00000000
00100000
01000000
10000000
00000000
00100000
00000000
01000000
00000000
00001000
00000000
,
00010000
00000000
00100000
00000000
10000000
00000000
00010000
00100000
01000000
00000000
00100000
00001000
00010000
00000000
00000010
00000000
,
00001000
00000000
00000100
00000000
00000010
00000000
00000100
00010000
00000010
00000000
00000100
00000000
00000001
00000000
00000010
00000000
,
00000100
00001000
00010000
01000000
,
20020000
00000000
00000000
00000000
,
00000000
00000000
00000000
30030000
;

//---------------dance-single - ----------------
#NOTES:
     dance-single:
     :
     Hard:
     10:
     0.698,0.878,0.485,0.263,0.657,409.000,48.000,26.000,0.000,0.000,0.000,0.698,0.878,0.485,0.263,0.657,409.000,48.000,26.000,0.000,0.000,0.000: // measure 0
0000
0000
0000
0000
,  // measure 1
0000
0000
0000
0000
,  // measure 2
0000
0000
0000
0000
,  // measure 3
0000
0000
0000
0000
,  // measure 4
1000
0001
1000
0000
0000
0000
0000
0000
0010
0100
0010
0000
0000
0000
0000
0000
,  // measure 5
1000
0010
1000
0000
0000
0000
0000
0000
0110
0000
0000
0000
1010
0000
0000
0000
,  // measure 6
0110
0011
0110
1100
,  // measure 7
0001
0100
0001
0100
0001
0100
0001
0100
0001
1000
0001
0000
2002
0000
3003
0000
,  // measure 8
0100
0010
0000
0010
0100
0000
0000
0000
0001
1000
0000
1000
0001
0000
0100
0000
,  // measure 9
0010
1000
0000
1000
0010
0000
0000
0000
0100
0000
0010
0000
0100
0000
0101
0000
,  // measure 10
1000
0001
0000
0001
0100
0000
0000
0000
0010
1000
0000
1000
0100
0000
1000
0000
,  // measure 11
0001
0100
0000
0100
0010
0000
0000
0000
1000
0000
0010
0000
0100
0000
0110
0000
,  // measure 12
1000
0001
0000
0001
0100
0000
0000
0000
0010
1000
0000
1000
0100
0000
0010
0000
,  // measure 13
0001
0010
0000
0010
0100
0000
0000
0000
1000
0000
0001
0000
0100
0000
0101
0000
,  // measure 14
0010
1000
0000
1000
0100
0000
0000
0000
1000
0001
0000
0001
0100
0000
0001
0000
,  // measure 15
0010
0100
0000
0100
0001
0000
0000
0000
0100
0000
0001
0000
0010
0000
0011
0000
,  // measure 16
0100
1000
0000
1000
0001
0000
0000
0000
0100
0010
0000
0010
1000
0000
0001
0000
,  // measure 17
0100
0010
0000
0010
1000
0000
0000
0000
1000
0000
0010
0000
0100
0000
0110
0000
,  // measure 18
0001
0100
0000
0100
0010
0000
0000
0000
1000
0001
0000
0001
0100
0000
0010
0000
,  // measure 19
1000
0010
0000
0010
0100
0000
0000
0000
0001
0000
0100
0000
0010
0000
1010
0000
,  // measure 20
0100
0001
0000
0001
1000
0000
0000
0000
0010
0100
0000
0100
0001
0000
1000
0000
,  // measure 21
0010
1000
0000
1000
0001
0000
0000
0000
0100
0000
0010
0000
1000
0000
1001
0000
,  // measure 22
0100
0010
0000
0010
1000
0000
0000
0000
0001
0100
0000
0100
0010
0000
0100
0000
,  // measure 23
0001
1000
0000
0001
0100
0000
0000
0000
0010
1000
0000
1000
0010
0000
0000
0000
,  // measure 24
0100
0001
0000
0001
1000
0000
0000
0000
0001
0000
0100
0000
0110
0000
1010
0000
,  // measure 25
0100
0001
0000
0001
1000
0000
0000
0000
0001
0100
0000
0100
0010
0000
0000
0000
,  // measure 26
1000
0001
0000
0001
0100
0000
0000
0000
0010
0000
1000
0000
0001
0000
0101
0000
,  // measure 27
1000
0010
0000
0010
0100
0000
0000
0000
0001
1000
0000
1000
0010
0000
0000
0000
,  // measure 28
0100
0001
0000
0001
1000
0000
0000
0000
0010
0000
0100
0000
0001
0000
1001
0000
,  // measure 29
0100
0010
0000
0010
1000
0000
0000
0000
0001
1000
0000
1000
0010
0000
0000
0000
,  // measure 30
0220
0000
0000
0330
,  // measure 31
1000
0100
0000
1000
0100
0000
0010
0000
0001
0010
0000
0001
0010
0000
0100
0000
,  // measure 32
1000
0001
0000
0100
0001
0000
0000
0000
1000
0000
0010
0000
0100
0000
0101
0000
,  // measure 33
0001
1000
0000
0010
1000
0000
0000
0000
0100
0001
0000
1000
0001
0000
0000
0000
,  // measure 34
0100
0010
0000
0001
1000
0000
0000
0000
0100
0000
0010
0000
1000
0000
1001
0000
,  // measure 35
0010
0100
0000
0001
1000
0000
0000
0000
0100
0010
0000
0001
1000
0000
0000
0000
,  // measure 36
0100
1000
0000
0010
0001
0000
0000
0000
0100
1000
0000
0001
1000
0000
0000
0000
,  // measure 37
0110
1001
0110
1001
,  // measure 38
0220
0000
0000
0000
0000
0000
0000
0330
,  // measure 39
0002
0000
2003
0000
3010
0100
0001
0000
2000
0000
3020
0000
0130
0001
0010
0000
,  // measure 40
0002
0000
0203
0000
1300
0100
0001
0000
0002
0000
0023
0000
1030
0100
0001
0000
,  // measure 41
2000
0000
3200
0000
0301
0100
1000
0000
0002
0000
0023
0000
1030
0010
0001
0000
,  // measure 42
0200
0320
2030
0000
3002
0000
0003
0000
,  // measure 43
0220
0000
0000
0000
0000
0000
0000
0330
,  // measure 44
1001
0000
0110
0000
1000
0001
0101
0000
,  // measure 45
1000
0000
0010
0000
0100
0000
0010
0000
1000
0001
0000
0000
0100
0000
0110
0000
,  // measure 46
0000
0000
1001
0000
0000
0000
0110
0000
0000
0000
1000
0010
0000
0100
0010
0000
,  // measure 47
1000
0000
0001
0000
0100
0000
0001
0000
1000
0010
0000
0001
1000
0000
0000
0000
,  // measure 48
1001
0000
0000
0000
0110
0000
0000
0000
0100
0001
0000
1000
0010
0000
0000
0000
,  // measure 49
0100
0000
0010
0000
1010
0000
0000
0000
0001
0100
0000
1000
0001
0000
0000
0000
,  // measure 50
0110
0000
0000
0000
1001
0000
0000
0000
0100
0010
0000
1000
0001
0000
0000
0000
,  // measure 51
0100
0000
0001
0000
0010
0000
0001
0000
0100
0010
0000
1000
0001
0000
0000
0000
,  // measure 52
0011
0000
0000
0000
1100
0000
0000
0000
0001
0010
0000
0100
1000
0000
0000
0000
,  // measure 53
1000
0000
0100
0000
0001
0000
0000
0000
0100
1000
0000
0100
0001
0000
0000
0000
,  // measure 54
1010
0000
0000
0000
1010
0000
0000
0000
0001
0010
0000
0001
0100
0000
0000
0000
,  // measure 55
1000
0000
0100
0000
0001
0000
0000
0000
0010
1000
0000
0100
0001
0000
0000
0000
,  // measure 56
0110
0000
0000
0000
1001
0000
0000
0000
0100
0010
0000
1000
0001
0000
0000
0000
,  // measure 57
0100
0000
0010
0000
1000
0000
0000
0000
0001
0100
0000
0010
0100
0000
0000
0000
,  // measure 58
1001
0000
0000
0000
0110
0000
0000
0000
1000
0010
0000
0100
0001
0000
0000
0000
,  // measure 59
1000
0000
0010
0000
0100
0000
0000
0010
1000
0000
0010
0000
0110
0000
0000
0000
,  // measure 60
2002
0000
0000
0000
,  // measure 61
0000
0000
0000
0000
,  // measure 62
3003
0000
0000
0000
;
