#TITLE:Lucky Days;
#SUBTITLE:;
#ARTIST:Sota Fujimori feat. Kanako Hoshino;
#TITLETRANSLIT:;
#SUBTITLETRANSLIT:;
#ARTISTTRANSLIT:;
#CREDIT:;
#BANNER:Lucky Days-bn.png;
#BACKGROUND:Lucky Days-bg.png;
#LYRICSPATH:;
#CDTITLE:zerox.png;
#MUSIC:Lucky Days.mp3;
#OFFSET:-1.675;
#SAMPLESTART:49.640;
#SAMPLELENGTH:11.980;
#SELECTABLE:YES;
#BPMS:0.000=159.980;
#STOPS:;
#BGCHANGES:;

//---------------dance-single - ----------------
#NOTES:
     dance-single:
     :
     Hard:
     8:
     0.585,0.532,0.459,0.219,0.063: // measure 1
0000
0000
0000
0000
,  // measure 2
0000
0000
0000
0000
,  // measure 3
0000
0000
0000
0000
,  // measure 4
0000
0000
0000
0000
,  // measure 5
1000
0001
0100
0010
0100
0000
1001
0000
,  // measure 6
0001
0010
0100
0010
0000
0100
1000
0010
,  // measure 7
0100
0001
0100
0010
1000
0000
0011
0000
,  // measure 8
1000
0000
0010
0000
1000
0000
0001
0000
0010
0001
0000
0001
0010
0000
0000
0000
,  // measure 9
2100
0000
0010
0000
3001
0100
1000
0100
,  // measure 10
0000
0010
1000
0001
0000
0010
0100
0010
,  // measure 11
0001
1000
0010
0100
0000
0101
0000
1100
,  // measure 12
0000
0001
0010
0100
1000
0001
0100
0000
,  // measure 13
1020
0000
0100
0000
1030
0001
0010
0100
,  // measure 14
0000
0010
0001
0100
0000
0001
1000
0100
,  // measure 15
0001
0100
0010
0100
0000
1001
0000
0110
,  // measure 16
0000
1001
0000
0001
0100
0010
1000
0000
,  // measure 17
1002
0000
0010
0000
1003
0100
0010
0200
,  // measure 18
0000
2300
0000
3020
0000
0130
0001
0000
,  // measure 19
2001
0000
0100
0000
3001
0010
0001
1000
,  // measure 20
0000
0010
0000
1000
0100
0010
0001
1000
,  // measure 21
0010
0102
0013
1200
,  // measure 22
0010
0000
1300
0001
0100
0001
0010
0100
,  // measure 23
1000
0000
0001
0100
0000
0001
0000
1010
,  // measure 24
0000
1001
0000
0012
0000
1003
0100
0000
,  // measure 25
0010
0100
0010
0001
1000
0010
0100
0000
,  // measure 26
0001
0101
1000
1100
,  // measure 27
0001
0010
1000
0010
0100
1000
0001
0000
,  // measure 28
0100
1010
0001
1001
,  // measure 29
1000
0100
1000
0001
0000
0010
0100
0020
,  // measure 30
0000
0001
0000
0130
0000
1000
0010
0000
,  // measure 31
0101
0000
1000
0100
0000
0011
0000
2001
,  // measure 32
0000
3010
0000
0102
0000
0013
0100
0000
,  // measure 33
1001
0000
1000
0100
0010
0100
1000
0001
,  // measure 34
0000
0100
0000
0010
0100
0001
1000
0010
,  // measure 35
1000
0000
0110
0000
0001
0010
0000
0011
,  // measure 36
0000
1000
0001
1000
0100
0010
0001
0000
,  // measure 37
2001
0000
0010
0000
3100
0010
0001
0100
,  // measure 38
0000
0001
1000
0100
0001
0100
0010
0000
,  // measure 39
0120
0000
0001
0000
0130
1000
0010
0200
,  // measure 40
0000
0001
0000
0310
1000
0001
1000
0000
,  // measure 41
1100
0000
0101
0000
1000
0100
0010
0001
,  // measure 42
0000
1000
0010
1000
0000
0001
0100
0001
,  // measure 43
0010
0000
1001
0000
1000
0100
0000
0011
,  // measure 44
0000
1001
0000
1020
0000
0130
0001
0010
,  // measure 45
0100
0000
1001
0000
1000
0001
0100
0002
,  // measure 46
0000
0010
0000
1003
0100
0001
0100
1000
,  // measure 47
0010
0000
0011
0000
1000
0010
0100
0010
,  // measure 48
0000
0000
1001
0000
0000
0000
0001
0000
0100
0010
0000
0010
0100
0000
0001
0000
,  // measure 49
1000
0100
0010
0001
0000
0010
0100
0010
,  // measure 50
0000
0001
0100
0010
1000
0001
1000
0000
,  // measure 51
0010
0001
0010
0100
0000
0001
1000
0100
,  // measure 52
0000
1100
0000
0011
0000
0001
0100
0001
,  // measure 53
1000
0010
0100
0020
0000
1000
0000
0100
,  // measure 54
0000
1030
0001
0010
0000
0100
1000
0001
,  // measure 55
0100
0010
0100
0001
0000
1001
0000
1100
,  // measure 56
0000
0011
0000
1010
0000
0001
0100
0010
,  // measure 57
1000
0100
0000
0100
2000
0000
0000
0000
0010
0000
0000
0000
3001
0000
0000
0000
,  // measure 58
0100
0010
0000
0010
0200
0000
0000
0000
0001
0000
0000
0000
0310
0000
0000
0000
,  // measure 59
1000
0001
0000
0001
0010
0000
0000
0000
0100
0000
0010
0000
0001
0000
0000
0000
,  // measure 60
0100
0001
0000
0001
1000
0000
0000
0000
0100
0000
0010
0000
0001
0000
1000
0000
,  // measure 61
0010
0000
0000
0000
;

//---------------dance-single - ----------------
#NOTES:
     dance-single:
     :
     Medium:
     6:
     0.483,0.500,0.448,0.146,0.000: // measure 1
0000
0000
0000
0000
,  // measure 2
0000
0000
0000
0000
,  // measure 3
0000
0000
0000
0000
,  // measure 4
0000
0000
0000
0000
,  // measure 5
0010
0100
0001
0000
1001
0000
1100
0000
,  // measure 6
1000
0010
0000
1000
0000
0100
0010
0000
,  // measure 7
0001
1000
0010
0000
1010
0000
0101
0000
,  // measure 8
1000
0100
0000
1000
0000
0001
0010
0000
,  // measure 9
1100
0000
1000
0001
0000
0100
0000
0010
,  // measure 10
0000
0100
0000
0001
0000
1000
0100
0000
,  // measure 11
0010
0001
0100
0001
0000
2100
0000
0010
,  // measure 12
0000
0001
0000
3100
0000
0010
0001
0000
,  // measure 13
0100
1000
0100
0010
0000
1000
0000
0001
,  // measure 14
0000
0010
0100
0010
0000
0000
0001
0000
,  // measure 15
1010
0000
0001
0100
0000
1100
0000
1002
,  // measure 16
0000
0100
0000
1003
0000
0100
0010
0000
,  // measure 17
0001
1000
0200
0010
,  // measure 18
1300
0001
0100
0000
0001
0000
0010
0000
,  // measure 19
2100
0000
0010
0000
3001
0100
1000
0000
,  // measure 20
0100
0000
0001
0000
0010
0100
0010
0000
,  // measure 21
0100
1000
0020
0100
,  // measure 22
1030
0001
0010
0000
0100
0000
0010
0000
,  // measure 23
1002
0000
0100
0000
1003
0010
0100
0001
,  // measure 24
0000
1001
0000
1010
0000
1000
0100
0000
,  // measure 25
0010
0000
0001
0000
1000
0010
1000
0000
,  // measure 26
0001
0101
1000
1100
,  // measure 27
0001
0000
0010
0000
1000
0010
0001
0000
,  // measure 28
0100
0000
1001
0000
1000
0100
0010
0000
,  // measure 29
0100
1000
0010
1001
,  // measure 30
0001
0100
0001
0000
1000
0000
0100
0000
,  // measure 31
0011
0000
1000
0010
0000
1001
0000
0110
,  // measure 32
0000
1000
0010
0100
0000
0000
0110
0000
,  // measure 33
0001
0000
0100
0000
0001
1000
0100
0000
,  // measure 34
0020
0000
0001
0000
0130
1000
0010
0000
,  // measure 35
0100
0000
0010
0000
1000
0100
0000
2100
,  // measure 36
0000
0000
0010
0000
3001
0100
0010
0000
,  // measure 37
0200
0000
0001
0000
0310
1000
0001
0000
,  // measure 38
0010
0000
0100
0000
1000
0001
0100
0000
,  // measure 39
0001
0000
1200
0000
0010
0000
1300
0010
,  // measure 40
0000
0100
0000
0001
0000
0010
0100
0000
,  // measure 41
1001
0000
0110
0000
1000
0010
0001
0000
,  // measure 42
0010
0000
0100
0000
0001
1000
0100
0000
,  // measure 43
0011
0000
1100
0000
0001
0100
0000
2010
,  // measure 44
0000
0000
0100
0000
3001
0010
0001
0000
,  // measure 45
1001
0000
0110
0000
0001
1000
0000
0010
,  // measure 46
0000
0100
0000
0001
0000
1000
0100
0000
,  // measure 47
1100
0000
1002
0000
0010
0000
1003
0100
,  // measure 48
0000
1001
0000
0101
0000
1000
0010
0000
,  // measure 49
0110
0000
1000
0000
0001
0010
0001
0000
,  // measure 50
0100
1001
0010
1001
,  // measure 51
0001
0100
0001
1000
0000
0100
0000
0001
,  // measure 52
0000
0100
0000
1000
0000
0001
0100
0000
,  // measure 53
2010
0000
0001
0000
3010
0100
0001
0000
,  // measure 54
1000
1100
0001
0101
,  // measure 55
1000
0010
0100
0010
0000
1001
0000
0110
,  // measure 56
0000
0002
0000
0010
0000
1003
0100
0000
,  // measure 57
1000
0001
1000
0000
0010
0000
0100
0000
,  // measure 58
0001
1000
0001
0000
0010
0000
1000
0000
,  // measure 59
0010
0001
0100
0000
1000
0000
0100
0000
,  // measure 60
0010
1000
0100
0000
1000
0000
0001
0000
,  // measure 61
1001
0000
0000
0000
;

//---------------dance-single - ----------------
#NOTES:
     dance-single:
     :
     Easy:
     4:
     0.338,0.344,0.156,0.094,0.000: // measure 1
0000
0000
0000
0000
,  // measure 2
0000
0000
0000
0000
,  // measure 3
0000
0000
0000
0000
,  // measure 4
0000
0000
0000
0000
,  // measure 5
0001
1000
0100
0000
,  // measure 6
1000
0001
1000
0000
,  // measure 7
0010
0100
0001
0010
,  // measure 8
0001
1000
0001
0000
,  // measure 9
1000
0100
1000
0011
,  // measure 10
0001
1000
0010
0000
,  // measure 11
1000
0001
0100
0101
,  // measure 12
1000
0100
0010
0000
,  // measure 13
0001
0100
1000
0100
,  // measure 14
0001
1001
0100
0000
,  // measure 15
1000
0110
0001
0110
,  // measure 16
1000
0001
0010
0000
,  // measure 17
0001
0001
1000
1000
,  // measure 18
0002
0010
1000
0103
,  // measure 19
0010
0010
0100
0100
,  // measure 20
0010
1000
0002
0000
,  // measure 21
0013
0100
0010
0001
,  // measure 22
0010
0100
1000
0000
,  // measure 23
0001
0000
0100
0000
0001
0000
1000
0010
,  // measure 24
0000
1000
0000
0200
0000
0000
0000
0000
,  // measure 25
0310
0001
1000
0010
,  // measure 26
1000
0101
0001
1100
,  // measure 27
1000
0100
0001
0100
,  // measure 28
1000
0010
0200
0000
,  // measure 29
0301
0001
1000
1000
,  // measure 30
0100
0010
0100
0000
,  // measure 31
0010
0000
0001
1000
0000
0001
0000
0100
,  // measure 32
0000
0001
0000
1000
0000
0000
1001
0000
,  // measure 33
0001
0001
2000
0100
,  // measure 34
0001
3010
0100
0001
,  // measure 35
2000
0000
0100
0000
3001
0010
0000
0200
,  // measure 36
0000
1300
0001
1000
,  // measure 37
0100
0000
0010
0001
,  // measure 38
0100
1000
0100
0001
,  // measure 39
1000
0000
1100
0000
0001
0000
1000
0100
,  // measure 40
0000
1000
0000
0020
0000
0000
0000
0000
,  // measure 41
1030
0110
0001
0010
,  // measure 42
1000
0010
0001
0000
,  // measure 43
1000
0000
0110
0000
0001
0100
0000
0010
,  // measure 44
0000
1000
0000
0020
0000
0000
0000
0000
,  // measure 45
0130
1001
1000
0100
,  // measure 46
0001
0100
0010
0000
,  // measure 47
0001
0100
0010
1000
,  // measure 48
0001
1000
0100
0000
,  // measure 49
1000
0011
0001
0100
,  // measure 50
0010
0100
0001
0000
,  // measure 51
0001
1010
1000
0100
,  // measure 52
0010
0100
1000
0000
,  // measure 53
1000
0110
0001
0100
,  // measure 54
0010
1000
0100
0000
,  // measure 55
0010
0000
0100
0010
0000
0001
0000
1000
,  // measure 56
0000
0010
0000
0100
0000
0000
0000
0000
,  // measure 57
0001
1000
0100
0100
,  // measure 58
1000
0001
0100
0100
,  // measure 59
0010
1000
0001
0010
,  // measure 60
0100
0010
0001
1000
,  // measure 61
0010
0000
0000
0000
;

//---------------dance-single - ----------------
#NOTES:
     dance-single:
     :
     Beginner:
     1:
     0.098,0.156,0.021,0.000,0.000: // measure 1
0000
0000
0000
0000
,  // measure 2
0000
0000
0000
0000
,  // measure 3
0000
0000
0000
0000
,  // measure 4
0000
0000
0000
0000
,  // measure 5
1000
0000
0000
0000
,  // measure 6
1000
0000
0000
0000
,  // measure 7
0001
0000
0000
0000
,  // measure 8
0001
0000
0000
0000
,  // measure 9
0010
0000
0000
0000
,  // measure 10
0100
0000
0000
0000
,  // measure 11
0100
0000
0000
0000
,  // measure 12
0010
0000
0000
0000
,  // measure 13
0001
0000
0000
0000
,  // measure 14
1000
0000
0000
0000
,  // measure 15
0100
0000
0010
0000
,  // measure 16
0100
0000
0000
0000
,  // measure 17
1000
0000
0000
0000
,  // measure 18
0010
0000
0000
0000
,  // measure 19
1000
0000
0000
0000
,  // measure 20
1000
0000
0000
0000
,  // measure 21
0001
0000
0000
0000
,  // measure 22
0001
0000
0000
0000
,  // measure 23
0010
0000
0000
0000
,  // measure 24
0001
0000
0000
0000
,  // measure 25
1000
0000
0000
0000
,  // measure 26
0100
0000
0000
0000
,  // measure 27
0010
0000
0000
0000
,  // measure 28
0001
0000
0000
0000
,  // measure 29
0001
0000
0000
0000
,  // measure 30
0100
0000
0000
0000
,  // measure 31
0010
0000
1000
0000
,  // measure 32
0001
0000
0000
0000
,  // measure 33
1001
0000
0000
0000
,  // measure 34
0001
0000
0000
0000
,  // measure 35
0100
0000
0000
0000
,  // measure 36
0001
0000
0000
0000
,  // measure 37
1000
0000
0000
0000
,  // measure 38
0100
0000
0000
0000
,  // measure 39
0010
0000
0000
0000
,  // measure 40
0100
0000
0000
0000
,  // measure 41
1000
0000
0000
0000
,  // measure 42
0001
0000
0010
0000
,  // measure 43
0001
0000
0000
0000
,  // measure 44
1000
0000
0010
0000
,  // measure 45
1000
0000
0000
0000
,  // measure 46
0100
0000
0000
0000
,  // measure 47
0010
0000
0000
0000
,  // measure 48
0001
0000
0000
0000
,  // measure 49
1000
0000
0000
0000
,  // measure 50
1000
0000
1000
0000
,  // measure 51
0001
0000
0000
0000
,  // measure 52
0001
0000
0001
0000
,  // measure 53
0100
0000
0000
0000
,  // measure 54
0010
0000
0100
0000
,  // measure 55
0010
0000
0000
0000
,  // measure 56
0100
0000
0000
0000
,  // measure 57
0001
0000
0000
0000
,  // measure 58
1000
0000
0000
0000
,  // measure 59
0001
0000
0000
0000
,  // measure 60
1000
0000
0000
0000
,  // measure 61
1001
0000
0000
0000
;
