#VERSION:0.81;
#TITLE:I WANT YOUR LOVE (Darwin Remix);
#SUBTITLE:;
#ARTIST:GAV;
#TITLETRANSLIT:;
#SUBTITLETRANSLIT:;
#ARTISTTRANSLIT:;
#GENRE:;
#ORIGIN:;
#CREDIT:;
#BANNER:I WANT YOUR LOVE (Darwin remix).png;
#BACKGROUND:I WANT YOUR LOVE (Darwin remix)-bg.png;
#PREVIEWVID:;
#JACKET:I WANT YOUR LOVE (Darwin Remix)-jacket.png;
#CDIMAGE:;
#DISCIMAGE:;
#LYRICSPATH:;
#CDTITLE:;
#MUSIC:I WANT YOUR LOVE (Darwin remix).mp3;
#OFFSET:1.336;
#SAMPLESTART:21.233;
#SAMPLELENGTH:15.000;
#SELECTABLE:YES;
#DISPLAYBPM:170.000;
#BPMS:0.000=170.000;
#STOPS:;
#DELAYS:;
#WARPS:;
#TIMESIGNATURES:0.000=4=4;
#TICKCOUNTS:0.000=4;
#COMBOS:0.000=1;
#SPEEDS:0.000=1.000=0.000=0;
#SCROLLS:0.000=1.000;
#FAKES:;
#LABELS:0.000=Song Start;
#BGCHANGES:0.000=I WANT YOUR LOVE (Darwin Remix).avi=1.000=0=0=0=StretchNoLoop====,
99999=-nosongbg-=1.000=0=0=0 // don't automatically add -songbackground-
;
#KEYSOUNDS:;
#ATTACKS:
;

//---------------dance-single - ----------------
#NOTEDATA:;
#CHARTNAME:;
#STEPSTYPE:dance-single;
#DESCRIPTION:;
#CHARTSTYLE:;
#DIFFICULTY:Hard;
#METER:9;
#RADARVALUES:0.637,0.808,0.030,0.242,0.136,415.000,3.000,24.000,0.000,0.000,0.000,0.000,0.000,0.637,0.808,0.030,0.242,0.136,415.000,3.000,24.000,0.000,0.000,0.000,0.000,0.000;
#CREDIT:;
#DISPLAYBPM:170.000;
#NOTES:
0000
0000
0000
0000
,
0000
0000
0000
0000
,
0000
0000
0000
0000
,
0000
0000
0000
0000
,
0000
0000
0000
0000
,
1000
0100
1000
0000
0100
0010
0100
0000
,
0010
0001
0010
0000
0100
1000
0100
0000
,
2000
0100
0100
3100
,
0020
0001
0001
0031
,
1000
0100
1000
0100
0010
0100
0010
0000
,
0001
0010
0100
0010
0100
0010
0100
0000
,
0100
1000
0100
0001
0100
1000
0100
0000
,
0010
0001
0100
1000
0100
0001
0100
0000
,
0002
0000
0013
0000
0100
1000
0100
0000
,
2000
0000
3100
0000
0010
0001
0010
0000
,
1001
0100
0010
0001
,
1000
0000
0001
0000
1000
0000
0001
0000
1000
0001
1000
0001
1000
0001
1000
0001
,
1000
0000
0100
0000
1000
0100
1000
0100
,
1000
0010
0100
0001
0100
1000
0100
0001
,
0100
0000
0001
0000
1000
0100
1000
0010
,
0001
0010
1000
0010
0001
0010
1000
0010
,
1000
0000
1000
0000
0100
0010
0001
0100
,
1000
0100
0001
0100
1000
0100
0001
0100
,
0010
0000
0100
0000
0010
1000
0010
0001
,
0010
0000
0000
0000
1000
0000
0000
0000
0100
0000
0000
0100
1000
0000
0100
0000
,
1000
0000
0100
0000
0010
0001
0010
0001
,
0010
0100
0010
1000
0010
0001
0010
1000
,
0010
0000
0001
0000
0001
0010
0001
0100
,
1000
0100
0001
0100
1000
0100
0001
0100
,
1000
0000
0100
0000
0001
0010
1000
0010
,
0001
0010
1000
0010
0001
0010
1000
0010
,
0010
0100
0010
0100
0010
0100
0010
0100
,
0010
0100
0010
0100
0010
0100
0010
0200
0020
0000
0000
0000
0000
0000
0330
0000
,
1000
0100
1000
0100
0001
0100
1000
0100
,
1000
0100
0010
0100
0010
0001
0010
0100
,
0010
0100
0010
0001
0100
1000
0100
0010
,
0100
0001
0010
0001
0010
0001
0100
0010
,
2000
0100
3100
0000
0020
0001
0031
0000
,
0200
0010
0310
0000
2000
0001
3001
0000
,
2000
0000
0200
3300
,
0020
0000
0000
0000
0000
0000
0000
0000
0031
0000
0000
0001
1000
0000
0001
0000
,
0001
0010
0001
0010
1000
0010
0001
0010
,
0001
0010
0100
0010
0001
0100
1000
0100
,
0010
0100
0001
0100
0001
0001
0010
0100
,
0010
0001
0100
1000
0100
0001
0010
0100
,
0020
0001
0031
0000
2000
0100
3100
0000
,
0020
0100
0130
0000
2000
0001
3001
0000
,
0001
0010
0001
0010
0001
0010
0001
0010
0001
0010
0001
0010
0001
0010
0001
0010
,
0002
0000
0000
0103
0000
0000
0001
1000
,
0001
0000
1000
0000
0010
1000
0100
0000
,
0010
0001
0100
0010
0100
0001
0010
0100
,
0010
0000
0001
0000
1000
0100
1000
0000
,
0100
0010
0100
1000
0010
0100
0010
0100
,
1000
0000
0100
0000
0001
0010
0001
0000
,
0100
0100
0001
0100
1000
0100
0001
0100
,
0010
0000
0000
0100
0010
0000
0000
0010
0100
0000
0000
0010
1000
0000
0000
0000
,
0220
0000
0000
0330
,
1000
0100
1000
0100
1000
0100
1000
0100
,
0010
0001
0010
0001
0010
0001
0010
0001
,
0100
0010
0100
0010
0100
0010
0100
0010
,
1000
0010
1000
0010
1000
0010
1000
0010
,
1000
1000
1000
1000
1000
1000
1000
1000
,
0100
0100
0100
0100
0100
0100
0100
0100
,
0010
0000
0001
0000
0100
0000
0010
0000
1000
0100
1000
0200
2000
0000
3300
0000
,
1100
0000
1000
0001
0000
0001
0000
0000
0001
0000
0001
1000
0000
2000
0000
0000
,
0002
0000
0000
0000
,
0000
0000
0000
3003
;

//---------------dance-single - ----------------
#NOTEDATA:;
#CHARTNAME:;
#STEPSTYPE:dance-single;
#DESCRIPTION:;
#CHARTSTYLE:;
#DIFFICULTY:Medium;
#METER:7;
#RADARVALUES:0.396,0.438,0.050,0.343,0.000,236.000,5.000,34.000,0.000,0.000,0.000,0.000,0.000,0.396,0.438,0.050,0.343,0.000,236.000,5.000,34.000,0.000,0.000,0.000,0.000,0.000;
#CREDIT:;
#DISPLAYBPM:170.000;
#NOTES:
0000
0000
0000
0000
,
0000
0000
0000
0000
,
0000
0000
0000
0000
,
0000
0000
0000
0000
,
0000
0000
0000
0000
,
2000
0100
0100
3100
,
0020
0001
0001
0031
,
2000
3100
0020
0031
,
0200
0310
0020
1030
,
1000
0100
1000
0000
0010
0000
0010
0000
,
0100
0001
0100
0000
0100
0000
0100
0000
,
0001
0100
0001
0000
1000
0000
1000
0000
,
0200
1000
1000
1300
,
0001
0010
0001
0000
0002
0000
0000
0003
,
0100
0010
0100
0000
0020
0000
0030
0000
,
1000
0010
1000
0010
0001
0010
1000
0100
,
2002
0000
0000
3003
,
1000
0000
0100
0000
1000
0010
0100
0000
,
0001
0001
0010
0010
,
0001
0000
0100
0000
0010
1000
0100
0000
,
1000
1000
0010
0010
,
0100
0001
0100
0000
0001
0010
0001
0000
,
0100
0010
1000
0100
,
2000
0000
0001
3001
,
0002
0000
1000
1003
,
1000
0010
0100
0000
0001
0000
0001
0000
,
0010
0001
0100
0000
0010
0000
1000
0000
,
0100
0100
1000
1000
,
0010
0100
0001
0000
0010
0000
0010
0000
,
0002
0000
1000
1003
,
2000
0000
0001
3001
,
0100
0010
1000
0000
0100
0000
0100
0000
,
2002
0000
0000
3003
,
1000
0100
1000
0000
0010
0000
0010
0000
,
0100
0001
0010
0001
,
0100
0100
0001
0010
,
0001
0100
0010
1000
,
0200
0000
1000
1300
,
0020
0000
0000
0000
0001
0000
0001
0030
,
0010
0100
0010
0000
1000
0001
0010
0000
,
0100
0100
0010
0100
,
0010
0000
0001
0000
0100
0010
1000
0000
,
0100
0100
1000
0010
,
0100
0000
0100
0000
0001
0010
0001
0000
,
0100
0100
0010
1000
,
0200
0000
1000
1300
,
0020
0000
0100
0130
,
2002
0000
0000
3003
,
0220
0000
0000
0330
,
2000
0000
3100
0000
,
0010
0001
0010
0000
0001
0000
0001
0000
,
0200
0000
0310
0000
,
0010
0010
1000
0100
,
2000
0000
3100
0000
,
0010
0010
0100
0010
,
0002
0000
0000
0003
,
0200
0000
0020
0330
,
1000
0001
0010
0100
,
0010
0001
0100
0010
,
1000
0100
0001
0100
,
1000
0100
0010
0001
,
1000
0100
1000
0000
0100
0010
0100
0000
,
0010
0001
0010
0000
0001
0100
0001
0000
,
0100
0000
1000
0000
0100
0001
0010
0100
,
2000
0000
0001
3001
,
2002
0000
0000
0000
,
0000
0000
0000
3003
;

//---------------dance-single - ----------------
#NOTEDATA:;
#CHARTNAME:;
#STEPSTYPE:dance-single;
#DESCRIPTION:;
#CHARTSTYLE:;
#DIFFICULTY:Easy;
#METER:4;
#RADARVALUES:0.343,0.337,0.091,0.504,0.000,179.000,9.000,50.000,0.000,0.000,0.000,0.000,0.000,0.343,0.337,0.091,0.504,0.000,179.000,9.000,50.000,0.000,0.000,0.000,0.000,0.000;
#CREDIT:;
#DISPLAYBPM:170.000;
#NOTES:
0000
0000
0000
0000
,
0000
0000
0000
0000
,
0000
0000
0000
0000
,
0000
0000
0000
0000
,
0000
0000
0000
0000
,
2000
0000
0000
0000
,
0200
0000
0000
3300
,
0020
0000
0000
0000
,
0002
0000
0000
0033
,
0100
0010
1000
0100
,
1000
0010
0100
0001
,
0010
0001
0100
0010
,
1000
1000
0100
0100
,
2000
0000
3001
0000
,
0002
0000
1003
0000
,
0220
0000
0000
0330
,
2002
0000
0000
3003
,
1000
0100
1000
0010
,
2000
3000
0200
0300
,
0010
0001
0100
0010
,
0002
0003
0200
0300
,
0010
1000
0100
0010
,
0020
0030
0002
0003
,
0100
0010
1000
0100
,
2000
0000
0200
3300
,
0010
0001
0100
0010
,
1000
1000
0001
0001
,
0200
0000
0010
0310
,
0010
1000
0100
1000
,
0020
0000
1000
1030
,
0002
0000
0100
0103
,
2002
0000
0000
3003
,
0220
0000
0000
0330
,
1000
0100
1000
0010
,
0100
0001
0010
0001
,
0100
0010
1000
0100
,
1000
0000
0001
0001
,
2002
3003
0100
0100
,
0220
0330
0010
0010
,
2000
0000
0002
3003
,
0002
0000
2000
3003
,
1000
0100
0010
0001
,
0100
0010
1000
0100
,
2000
0000
3001
0000
,
0002
0010
0013
0001
,
0100
0010
1000
0100
,
1000
0010
0100
0001
,
2000
0000
0001
3001
,
1001
0000
0220
0330
,
1000
0100
1000
0010
,
0200
0301
0002
0013
,
2000
0000
3000
0010
,
1000
0100
1000
0010
,
0200
0000
0000
0300
,
0001
0010
0001
0100
,
0020
0000
1000
1030
,
2000
0000
0100
3010
,
0001
0010
0001
0100
,
0010
1000
0100
1000
,
0010
0100
0001
0010
,
0001
0100
0010
1000
,
0100
0100
0100
0100
,
0010
0010
0010
0010
,
2000
0000
0002
3003
,
0200
0000
0020
0330
,
2002
0000
0000
0000
,
0000
0000
0000
3003
;

//---------------dance-single - ----------------
#NOTEDATA:;
#CHARTNAME:;
#STEPSTYPE:dance-single;
#DESCRIPTION:;
#CHARTSTYLE:;
#DIFFICULTY:Beginner;
#METER:1;
#RADARVALUES:0.159,0.197,0.131,0.000,0.000,97.000,13.000,0.000,0.000,0.000,0.000,0.000,0.000,0.159,0.197,0.131,0.000,0.000,97.000,13.000,0.000,0.000,0.000,0.000,0.000,0.000;
#CREDIT:;
#DISPLAYBPM:170.000;
#NOTES:
// measure 0
0000
0000
0000
0000
,  // measure 1
0000
0000
0000
0000
,  // measure 2
0000
0000
0000
0000
,  // measure 3
0000
0000
0000
0000
,  // measure 4
0000
0000
0000
0000
,  // measure 5
0000
0000
0000
0000
,  // measure 6
0000
0000
0000
0000
,  // measure 7
0000
0000
0000
0000
,  // measure 8
0000
0000
0000
0000
,  // measure 9
1000
0000
0000
0000
,  // measure 10
1000
0000
0000
0000
,  // measure 11
0001
0000
0000
0000
,  // measure 12
0001
0000
0000
0000
,  // measure 13
0100
0000
0000
0000
,  // measure 14
0100
0000
0000
0000
,  // measure 15
0010
0000
0000
0000
,  // measure 16
1000
0000
0001
0000
,  // measure 17
1001
0000
0000
0000
,  // measure 18
0100
0000
0010
0000
,  // measure 19
1000
0000
0000
0000
,  // measure 20
0100
0000
0001
0000
,  // measure 21
0010
0000
0000
0000
,  // measure 22
0010
0000
1000
1000
,  // measure 23
1000
0000
0000
0000
,  // measure 24
0001
0000
0010
0000
,  // measure 25
1001
0000
0100
0000
,  // measure 26
0001
0000
0010
0000
,  // measure 27
0001
0000
1000
0000
,  // measure 28
0100
0000
1000
0000
,  // measure 29
0010
0000
1000
0000
,  // measure 30
0001
0001
0001
0000
,  // measure 31
1000
0000
0000
0000
,  // measure 32
1001
0000
0000
0000
,  // measure 33
0110
0000
0010
0000
,  // measure 34
1000
0000
0100
0000
,  // measure 35
1000
0000
0010
0000
,  // measure 36
0100
0000
0001
0000
,  // measure 37
1001
0000
0000
0000
,  // measure 38
0100
0000
0000
0000
,  // measure 39
0010
0000
0000
0000
,  // measure 40
1000
0000
0000
0000
,  // measure 41
1001
0000
0100
0000
,  // measure 42
0001
0000
1000
0000
,  // measure 43
0100
0000
1000
0000
,  // measure 44
0010
0000
0100
0000
,  // measure 45
1001
0000
0100
0100
,  // measure 46
0001
0000
0010
0010
,  // measure 47
1000
0000
0100
0000
,  // measure 48
1001
0000
0000
0000
,  // measure 49
1000
0000
0000
0000
,  // measure 50
1000
0000
0001
0001
,  // measure 51
0001
0000
0000
0000
,  // measure 52
0100
0000
0010
0010
,  // measure 53
0010
0000
0000
0000
,  // measure 54
1000
0000
0100
0100
,  // measure 55
0100
0000
0000
0000
,  // measure 56
1000
0000
0001
0000
,  // measure 57
1001
0000
1000
0000
,  // measure 58
0100
0000
0010
0000
,  // measure 59
0001
0000
0100
0000
,  // measure 60
0010
0000
1000
0000
,  // measure 61
0100
0000
0010
0000
,  // measure 62
0001
0000
1000
0000
,  // measure 63
1001
0000
0000
0000
,  // measure 64
1001
0000
0110
0000
,  // measure 65
1001
0000
0000
0000
;
