#TITLE:Everyday, カチューシャ;
#SUBTITLE:;
#ARTIST:AKB48;
#TITLETRANSLIT:Everyday, KATYUSHA;
#SUBTITLETRANSLIT:;
#ARTISTTRANSLIT:;
#CREDIT:DigiMindAxel;
#BANNER:Everyday, KATYUSHA.png;
#BACKGROUND:Everyday, KATYUSHA-bg.png;
#LYRICSPATH:Everyday, KATYUSHA.lrc;
#CDTITLE:DMAxel original simfile.png;
#MUSIC:Everyday, KATYUSHA.mp3;
#OFFSET:-12.040;
#SAMPLESTART:56.191;
#SAMPLELENGTH:12.000;
#SELECTABLE:YES;
#BPMS:0.000=172.400;
#STOPS:;
#BGCHANGES:-38.000=Everyday KATYUSHA.avi=1.000=1=1=0,
99999=-nosongbg-=1.000=0=0=0 // don't automatically add -songbackground-
;

//---------------dance-single - ----------------
#NOTES:
     dance-single:
     :
     Easy:
     3:
     0.206,0.238,0.104,0.166,0.000:
0001
0000
1000
0000
,
0001
0000
0010
0000
,
0100
0000
0010
0000
,
0001
0000
1000
0000
,
0100
0000
0010
0000
,
0100
0000
1000
0000
,
0010
0100
0010
0000
,
0100
0010
0100
0000
,
0001
0000
1000
0000
,
0002
0000
0000
0003
,
0100
0000
0010
0000
,
0200
0000
0300
0000
,
0010
0000
1000
0000
,
0001
0000
0100
0000
,
0001
0000
1000
0000
,
0001
0000
1000
0000
,
0020
0000
0000
0000
,
0230
0000
0000
0000
,
0320
0000
0000
0000
,
0230
0000
0000
0300
,
0002
0000
0000
0000
,
2003
0000
0000
0000
,
3002
0000
0000
0000
,
1003
0000
0100
0000
,
0010
0001
0010
0000
,
0100
1000
0100
0000
,
1000
0000
0000
0000
0000
0000
0000
1001
,
0000
0000
0000
0000
,
0010
0000
0100
0000
,
0001
0000
1000
0000
,
0001
1000
0001
0000
,
0100
0010
0100
0000
,
0110
0000
0001
0000
,
1000
0000
0001
0000
,
0110
0000
1000
0000
,
0001
0000
1000
0000
,
0120
0000
0000
0000
,
0130
0000
0010
0000
,
2001
0000
0000
0000
,
3001
1000
0001
0000
,
1001
0000
0010
0000
,
1001
0000
0000
0000
,
1001
0000
0100
0000
,
1001
0000
0000
0000
,
1000
0000
0001
0000
,
1000
0000
0010
0000
,
0100
0000
0001
0000
,
0010
0000
0100
0000
,
1000
0001
1000
0000
,
0001
1000
0001
0000
,
0100
0010
0100
0020
,
0200
0000
0000
0330
,
0100
0010
0100
0000
,
0010
0100
0010
0000
,
1000
0001
1000
0001
,
0020
0000
0000
0000
,
0130
0000
0000
0100
0000
0000
2002
0000
,
0000
0000
3003
0000
;

//---------------dance-single - ----------------
#NOTES:
     dance-single:
     :
     Medium:
     5:
     0.379,0.388,0.228,0.270,0.000:
1000
0100
1000
0001
,
0101
0000
0000
0000
,
0001
0100
0010
1000
,
1100
0000
0000
0000
,
0010
0100
1000
0001
,
0100
0100
0010
0010
,
1000
0100
0001
0100
,
1001
0000
0000
0000
,
0010
0001
1000
0010
,
0220
0000
0000
0330
,
0100
1000
0001
0100
,
0220
0000
0330
0000
,
0010
0001
0010
0001
,
1000
0100
1000
0001
,
2000
0000
0000
3010
0200
0000
0000
0301
,
1000
0100
0001
0100
,
2000
0000
0000
0000
3010
0000
0000
0100
,
0010
0100
0000
0000
1001
0000
0000
0000
,
0002
0000
0000
0000
0103
0000
0000
0010
,
0100
0010
0000
0000
1001
0000
0000
0000
,
0020
0000
0000
0000
0031
0000
0000
0100
,
0010
0100
0000
0000
1001
0000
0000
0000
,
0200
0000
0000
0000
1300
0000
0000
0010
,
0100
0010
0000
0000
1001
0000
0001
0000
,
1000
0100
0010
0001
,
1000
1000
0001
0010
,
0100
0000
1000
0001
0000
0001
0000
2002
,
0000
0000
3003
0000
,
0100
0000
0001
0100
0001
0000
1000
0100
,
1000
0001
0010
0100
,
0110
0000
0000
0100
0000
0000
0010
0000
,
0000
1000
0001
0000
0010
0000
0100
0000
,
2100
0000
0002
0000
,
3003
1000
0001
0100
,
0210
0000
0002
0000
,
0303
0000
0001
0000
0100
0010
0100
0000
,
2020
0000
0030
3001
,
0010
0100
1000
0001
,
0202
0000
0000
0000
0300
0000
1003
0100
,
1000
0000
0010
0100
0010
0000
0000
0000
,
1001
0000
1000
0001
1000
0000
0001
1000
,
0001
0100
1000
0100
,
1001
0000
0001
1000
0001
0000
1000
0001
,
1000
0100
0001
0100
,
1000
0110
0000
0100
,
0010
1000
0100
0000
1000
0001
1000
0000
,
0010
0000
0000
1010
0000
0000
0100
0000
,
0000
0101
0000
0000
0100
0010
0100
0000
,
0001
0100
0001
0000
0010
0100
0010
0000
,
0001
0000
1000
0020
0000
0000
1030
0000
,
0001
0010
0001
0000
0010
0000
0001
2000
,
0000
0010
3010
1001
,
1000
0100
1000
0000
0100
0010
0100
0000
,
1000
0000
0001
0200
0000
0000
0301
0000
,
1000
0010
1000
0000
0010
0000
1000
0002
,
0000
0100
0103
1001
,
0010
0100
0000
0100
0010
0000
2000
0002
,
0000
0000
3003
0000
;

//---------------dance-single - ----------------
#NOTES:
     dance-single:
     :
     Hard:
     7:
     0.532,0.507,0.332,0.249,0.010: // measure 1
0001
0100
0001
0000
0010
0100
1000
0000
,  // measure 2
1010
0000
0000
0010
0000
0010
0100
0010
,  // measure 3
1000
0100
1000
0000
0100
0010
0001
0000
,  // measure 4
0011
0000
0000
0001
0000
0001
0100
0010
,  // measure 5
0200
0000
0301
0000
0010
0100
1000
0000
,  // measure 6
0200
1300
0101
0101
,  // measure 7
0020
0000
0130
0000
0001
0100
0010
0000
,  // measure 8
0110
0000
0000
1000
0000
1000
0100
1000
,  // measure 9
0001
0101
0110
1100
,  // measure 10
0220
0000
0000
0330
,  // measure 11
1000
1100
0110
0101
,  // measure 12
0220
0000
0330
0000
,  // measure 13
0001
0100
0010
0000
0100
0001
1000
0000
,  // measure 14
0010
1000
0100
0001
0100
1000
0010
0000
,  // measure 15
1000
0010
0100
0000
0010
1000
0001
0000
,  // measure 16
0100
0001
0010
1000
0010
0001
0100
0000
,  // measure 17
0102
1000
0100
1003
,  // measure 18
0010
0100
0000
0001
0101
0000
0000
0000
,  // measure 19
1000
0200
0000
0000
0310
0000
0000
0001
,  // measure 20
0100
0010
0000
1000
1100
0000
0010
0100
,  // measure 21
0002
1000
0100
1003
,  // measure 22
0001
0100
0000
0010
0110
0000
0000
0000
,  // measure 23
0001
0200
0000
0000
0310
0000
0000
1000
,  // measure 24
0010
0100
0000
0001
0101
0000
0100
0001
,  // measure 25
1000
0000
0001
0100
1000
0000
0100
0000
,  // measure 26
0001
0000
1000
0100
0001
0000
0100
0000
,  // measure 27
1000
0000
0010
0100
0000
0001
0000
0102
,  // measure 28
0000
0000
0000
1000
0000
1003
0010
0010
,  // measure 29
0100
0000
0001
0010
0100
0000
1000
0100
,  // measure 30
0001
0100
1000
0000
0100
1000
0010
0000
,  // measure 31
1000
0001
0001
0100
1000
0100
0001
1000
,  // measure 32
1000
0100
0001
0100
1000
0000
1100
0000
,  // measure 33
0102
0000
0000
1000
2003
0000
0000
3010
,  // measure 34
0000
0010
0100
0001
0010
0000
0101
0000
,  // measure 35
2100
0000
0000
0001
3002
0000
0000
0103
,  // measure 36
0000
0100
0010
1000
0100
0010
0100
0000
,  // measure 37
1002
0000
0100
0000
1000
0000
0103
0001
,  // measure 38
0010
0000
0001
0100
1000
0100
0001
0000
,  // measure 39
2001
0000
0100
0000
0001
0000
3100
1000
,  // measure 40
0001
0010
0100
1000
0100
0010
0001
0100
,  // measure 41
1000
0000
0001
0010
1000
0000
0001
0100
,  // measure 42
0010
0001
0010
1000
0001
0000
1000
0100
,  // measure 43
0001
0000
1000
0010
0001
0000
1000
0010
,  // measure 44
0100
1000
0100
0001
1000
0000
1100
0000
,  // measure 45
0101
1001
0000
0100
,  // measure 46
0100
0001
0010
0000
0001
0010
0100
1000
,  // measure 47
0001
0100
0000
0100
1000
0000
1000
0010
,  // measure 48
0000
0010
0001
1000
0001
0010
0100
1000
,  // measure 49
0001
0100
0010
0000
0001
0100
0010
0000
,  // measure 50
0001
0100
0010
2000
0000
0000
3001
0010
,  // measure 51
0100
1000
0010
0000
0100
1000
0010
0200
,  // measure 52
0000
0001
0301
0000
0110
0000
1001
0000
,  // measure 53
1000
0100
0010
0000
1000
0100
0010
0000
,  // measure 54
1000
0100
0010
0002
0000
0000
1003
0010
,  // measure 55
0100
0001
0010
0000
0100
0001
0010
0200
,  // measure 56
0000
1000
1300
0000
0110
0000
1001
0000
,  // measure 57
0001
0100
0001
0000
0000
0000
1000
0100
1000
0000
0000
0000
0020
0000
0200
0000
,  // measure 58
0000
0000
0330
0000
;

//---------------dance-single - ----------------
#NOTES:
     dance-single:
     :
     Beginner:
     1:
     0.084,0.147,0.093,0.000,0.000:
0001
0000
0000
0000
,
0000
0000
0000
0000
,
1000
0000
0000
0000
,
0000
0000
0000
0000
,
0001
0000
0000
0000
,
0000
0000
0000
0000
,
0001
0000
0000
0000
,
0000
0000
0000
0000
,
1000
0000
0000
0000
,
0001
0000
0000
0000
,
1000
0000
0000
0000
,
1000
0000
0000
0000
,
0010
0000
0000
0000
,
0100
0000
0000
0000
,
0010
0000
0000
0000
,
0000
0000
0000
0000
,
1001
0000
0000
0000
,
0000
0000
0000
0000
,
1000
0000
0000
0000
,
0000
0000
0000
0000
,
0110
0000
0000
0000
,
0000
0000
0000
0000
,
0001
0000
0000
0000
,
0000
0000
0000
0000
,
1001
0000
0000
0000
,
0000
0000
0000
0000
,
0001
0000
0000
0000
,
0000
0000
0000
0000
,
1000
0000
0001
0000
,
1000
0000
0000
0000
,
0010
0000
0000
0000
,
0000
0000
0000
0000
,
0110
0000
0000
0000
,
0000
0000
0000
0000
,
0001
0000
0000
0000
,
0000
0000
0000
0000
,
1000
0000
0000
0000
,
0001
0000
0000
0000
,
1000
0000
0000
0000
,
0010
0000
0000
0000
,
0110
0000
0000
0000
,
0100
0000
0000
0000
,
1001
0000
0000
0000
,
1000
0000
0000
0000
,
0110
0000
0000
0000
,
0010
0000
0000
0000
,
1000
0000
0000
0000
,
0000
0000
0000
0000
,
0001
0000
1000
0000
,
0001
0000
0000
0000
,
1000
0000
0001
0000
,
1000
0000
0000
0000
,
0010
0000
0100
0000
,
0010
0000
0000
0000
,
0100
0000
0010
0000
,
0100
0000
0000
0000
,
1001
0000
0000
1001
;
