#TITLE:EUROMAN;
#SUBTITLE:;
#ARTIST:DJ Command;
#TITLETRANSLIT:;
#SUBTITLETRANSLIT:;
#ARTISTTRANSLIT:;
#CREDIT:;
#BANNER:EUROMAN.png;
#BACKGROUND:EUROMAN-bg.png;
#LYRICSPATH:;
#CDTITLE:;
#MUSIC:EUROMAN.mp3;
#OFFSET:-0.060;
#SAMPLESTART:48.025;
#SAMPLELENGTH:15.620;
#SELECTABLE:YES;
#BPMS:0.000=160.000;
#STOPS:;
#BGCHANGES:;

//---------------dance-single - ----------------
#NOTES:
     dance-single:
     :
     Hard:
     8:
     0.690,0.648,0.474,0.444,0.141:
0000
0000
0000
0000
,
0000
0000
0000
0000
,
0000
0000
0000
0000
,
0000
0000
0000
0000
,
1000
0001
0102
0000
1003
0000
1100
0000
,
1000
0010
0210
0000
0301
0000
0011
0000
,
0010
0000
0100
0000
1100
0000
1000
0010
0000
0010
0100
0000
0101
0000
0000
0000
,
0001
0100
0010
1000
0001
0001
1000
1000
,
0001
0100
0001
0000
1000
0000
2000
0000
0000
0000
0010
0000
3010
0000
0000
0000
,
1000
0001
1000
0000
0001
0000
0002
0000
0000
0000
0100
0000
0103
0000
0000
0000
,
0001
0100
0001
0000
1000
0100
1000
0000
0001
0000
0100
0000
0010
0000
2000
0000
,
0000
0000
0001
0000
0001
0000
3001
0000
1000
0010
0000
0010
1000
0000
0100
0000
,
0010
0100
0010
0000
0001
0000
0002
0000
0000
0000
0100
0000
0103
0000
0000
0000
,
0001
0100
0001
0000
1000
0000
2000
0000
0000
0000
0100
0000
3100
0000
0000
0000
,
1000
0010
1000
0000
0001
0010
0001
0000
1000
0000
0010
0000
0100
0000
0001
0000
,
1000
0100
0000
0100
1000
0000
0001
0000
0100
0000
0010
0000
1000
0000
0000
0000
,
1001
0000
0101
0000
0100
0010
1000
0200
,
0000
1300
0000
2100
0000
3001
1000
0010
,
0100
0001
0010
0001
0100
0010
1000
0010
,
0200
0001
0000
0301
2000
0010
0000
3010
,
1000
0001
0000
0200
0000
0010
0310
1000
,
0001
0100
0000
0002
0000
0010
0013
0001
,
1001
0000
1100
0000
1000
2000
0000
3010
,
1000
0010
0100
0001
1000
0100
0010
0001
,
1001
0000
1000
0100
0001
0100
1000
0010
,
0001
0020
0000
1030
0000
0010
1000
0100
,
1100
0000
0011
0000
0001
0100
0000
0020
,
0000
0100
0130
0000
0010
1000
0100
1000
,
1001
0000
0001
0010
1000
0001
0100
1000
,
0001
0100
1000
0100
0001
0010
1000
0010
,
0001
0100
0000
0020
0000
1030
0000
0001
,
0101
0000
0000
0110
0000
0000
1010
0000
1000
0000
0100
0000
0010
0000
0001
0000
,
2100
0000
0010
0010
0000
0100
3100
0000
,
0012
0000
0010
0010
0000
0100
0103
0000
,
0001
0100
0010
1000
0010
0100
0001
0101
,
0000
0011
0000
0110
0000
2200
0000
3300
,
0012
0000
1000
1003
0000
0001
0100
0010
,
2000
0100
0000
3001
1000
0010
0100
0001
,
0010
0100
0000
1000
0000
0010
0100
0001
,
0101
0000
1010
0000
1000
0100
0010
0000
,
0012
0000
0100
0100
0000
1000
1003
0000
,
2010
0000
0100
0100
0000
0001
3001
0000
,
1000
0010
0001
0010
1000
0100
0001
0101
,
0000
1100
0000
1010
0000
0220
0000
0330
,
0102
0000
0010
0013
0000
0001
0010
0100
,
2000
0001
0000
3100
0000
1000
0010
0100
,
0002
0010
0000
0103
0000
0001
0100
0010
,
1000
0001
0000
1000
0010
0100
0001
0000
,
0101
0000
1010
0000
1000
0100
0010
0001
,
2001
0000
3100
0000
1002
0000
0013
0100
,
2100
0100
0010
3001
,
0200
0000
0310
0000
1000
0100
0010
0001
,
1000
0010
1000
0000
0001
0000
0002
0000
0000
0000
0100
0000
0103
0000
0000
0000
,
0001
1000
0001
0000
1000
0000
2000
0000
0000
0000
0010
0000
3010
0000
0000
0000
,
1000
0010
1000
0000
0001
0010
0001
0000
1000
0000
0010
0000
0100
0000
0002
0000
,
0000
0000
1000
0000
1000
0000
1003
0000
0001
0100
0000
0100
0001
0000
0010
0000
,
0100
0010
0100
0000
1000
0000
2000
0000
0000
0000
0010
0000
3010
0000
0000
0000
,
1000
0010
1000
0000
0001
0000
0002
0000
0000
0000
0010
0000
0013
0000
0000
0000
,
0001
0100
0001
0000
1000
0100
1000
0000
0001
0000
0100
0000
0010
0000
1000
0000
,
0001
0010
0000
0010
0001
0000
1000
0000
0010
0000
0100
0000
0001
0000
0000
0000
,
1010
0000
0101
0000
0001
0010
0100
1000
,
1002
0000
0013
0000
2001
0000
3100
0010
,
0012
0010
0100
1003
,
0001
0000
0100
0000
0010
0000
1000
0000
1100
0000
0000
0110
0000
0000
0022
0000
,
0000
0033
0000
0000
;

//---------------dance-single - ----------------
#NOTES:
     dance-single:
     :
     Beginner:
     1:
     0.143,0.161,0.000,0.000,0.000:
0000
0000
0000
0000
,
0000
0000
0000
0000
,
0000
0000
0000
0000
,
0000
0000
0000
0000
,
1000
0000
0000
0000
,
0001
0000
0000
0000
,
0100
0000
0000
0000
,
0010
0000
0000
0000
,
1000
0000
1000
0000
,
0001
0000
0001
0000
,
0100
0000
0100
0000
,
0010
0000
0010
0000
,
1000
0000
1000
0000
,
0100
0000
0100
0000
,
0010
0000
0010
0000
,
0001
0000
0001
0000
,
1000
0000
0000
0000
,
0001
0000
0000
0000
,
0100
0000
0000
0000
,
0010
0000
0010
0000
,
0010
0000
0000
0000
,
0100
0000
0000
0000
,
0001
0000
0001
0000
,
0001
0000
0000
0000
,
0010
0000
0000
0000
,
0100
0000
0000
0000
,
1000
0000
1000
0000
,
0001
0000
0001
0000
,
0100
0000
0000
0000
,
0010
0000
0000
0000
,
1000
0000
1000
0000
,
0001
0000
0001
0000
,
0100
0000
0100
0000
,
0010
0000
0010
0000
,
1000
0000
0001
0000
,
0100
0000
0010
0000
,
1000
0000
1000
0000
,
0100
0000
0100
0000
,
0010
0000
0001
0000
,
0100
0000
0001
0000
,
0010
0000
0010
0000
,
0100
0000
0100
0000
,
1000
0000
0010
0000
,
0001
0000
0010
0000
,
1000
0000
1000
0000
,
0001
0000
0001
0000
,
0100
0000
0010
0000
,
1000
0000
0001
0000
,
1000
0000
0001
0000
,
0100
0000
0010
0000
,
1000
0000
0000
0000
,
0001
0000
0000
0000
,
0010
0000
0000
0000
,
0100
0000
0000
0000
,
1000
0000
0000
0000
,
0001
0000
0001
0000
,
0001
0000
0000
0000
,
0100
0000
0000
0000
,
0010
0000
0000
0000
,
1000
0000
1000
0000
,
0001
0000
0100
0000
,
0010
0000
1000
0000
,
0001
0000
0000
0000
,
1000
0000
0010
0010
,
0010
0000
0000
0000
;

//---------------dance-single - ----------------
#NOTES:
     dance-single:
     :
     Easy:
     4:
     0.330,0.322,0.050,0.000,0.005: // measure 1
0000
0000
0000
0000
,  // measure 2
0000
0000
0000
0000
,  // measure 3
0000
0000
0000
0000
,  // measure 4
0000
0000
0000
0000
,  // measure 5
1000
0100
1000
0001
,  // measure 6
1000
0010
1000
0001
,  // measure 7
0100
0001
0010
0001
,  // measure 8
1000
0001
0100
0110
,  // measure 9
0010
1000
0100
0000
,  // measure 10
0010
0001
0100
0000
,  // measure 11
0010
1000
0001
0100
,  // measure 12
0001
0001
1000
1000
,  // measure 13
0001
0010
0100
0000
,  // measure 14
1000
0100
0010
0000
,  // measure 15
0001
0100
0010
1000
,  // measure 16
0001
0100
0010
0110
,  // measure 17
0010
1000
0100
1000
,  // measure 18
0010
0100
0001
0100
,  // measure 19
0010
1000
0001
1000
,  // measure 20
0100
1000
0010
0000
,  // measure 21
0100
0001
0011
0000
,  // measure 22
0100
1000
1010
0000
,  // measure 23
1000
0010
0100
0001
,  // measure 24
1000
1000
0001
0001
,  // measure 25
0010
0100
1000
0010
,  // measure 26
1000
0100
0010
0001
,  // measure 27
0100
0010
0100
0001
,  // measure 28
0010
0100
1000
0000
,  // measure 29
0001
0010
1000
0010
,  // measure 30
0001
0100
1000
0100
,  // measure 31
0001
0010
0100
1000
,  // measure 32
0001
0001
1000
1000
,  // measure 33
0001
0100
1000
0000
,  // measure 34
0001
0010
1000
0000
,  // measure 35
0001
0100
0010
1000
,  // measure 36
0100
0100
0010
0010
,  // measure 37
0100
1000
0010
1000
,  // measure 38
0100
0010
0001
0010
,  // measure 39
0100
1000
0001
1000
,  // measure 40
0001
0100
0010
0000
,  // measure 41
1000
0010
0001
0000
,  // measure 42
1000
0100
0001
0000
,  // measure 43
1000
0010
0100
0001
,  // measure 44
1000
1000
0001
0001
,  // measure 45
0010
0100
0010
0001
,  // measure 46
0100
0010
0100
0001
,  // measure 47
0010
0100
1000
0001
,  // measure 48
0100
0010
1000
1000
,  // measure 49
0001
0010
0100
0010
,  // measure 50
0001
0001
1000
1000
,  // measure 51
0001
0100
0010
1000
,  // measure 52
0010
0100
0001
0001
,  // measure 53
0100
0001
0010
0000
,  // measure 54
0100
1000
0010
0000
,  // measure 55
0100
0001
1000
0010
,  // measure 56
1000
1000
0001
0001
,  // measure 57
1000
0100
0010
0000
,  // measure 58
0001
0010
0100
0000
,  // measure 59
1000
0010
0100
0001
,  // measure 60
1000
0010
0100
0110
,  // measure 61
1000
0100
0010
0100
,  // measure 62
1000
1000
0001
0001
,  // measure 63
1000
0010
0100
0001
,  // measure 64
0100
0000
0000
0000
0010
0000
0000
0000
1000
0000
0000
1000
0000
0000
1000
0000
;

//---------------dance-single - ----------------
#NOTES:
     dance-single:
     :
     Medium:
     7:
     0.578,0.547,0.575,0.151,0.010:
0000
0000
0000
0000
,
0000
0000
0000
0000
,
0000
0000
0000
0000
,
0000
0000
0000
0000
,
1000
0000
1001
0000
0001
0100
1000
0000
,
0001
0000
1001
0000
1000
0010
0001
0000
,
1000
0100
1000
0100
0010
0001
0010
0000
,
0001
0100
0001
0100
0010
1000
0010
1000
,
0001
0000
1001
0000
0001
0100
0010
0000
,
1000
0000
1001
0000
1000
0100
0010
0000
,
0001
0100
0001
0100
0010
0100
0010
0100
,
0010
0000
1010
0000
1000
0100
0010
0001
,
1000
0000
1001
0000
0001
0100
0010
0000
,
1000
0000
1001
0000
1000
0100
0010
0000
,
0001
0100
0001
0100
0010
1000
0010
1000
,
0100
1000
0100
1000
0001
0010
0001
0000
,
1000
1100
0001
0101
,
1000
1010
0001
0011
,
1000
0100
0010
0100
1000
0010
0100
0010
,
1000
0001
1000
0000
0010
0100
0010
0000
,
1000
0100
0000
2000
0000
0000
3001
0000
,
0100
0001
0000
0200
0000
0000
0301
0000
,
0101
0101
1010
1010
,
0001
0010
0100
0010
0001
0100
0010
0100
,
0001
0000
1001
0000
0001
0100
0010
0000
,
0100
0001
0000
2000
0000
0010
3010
0000
,
1010
0000
0101
0000
0001
1000
0000
0200
,
0000
0010
0310
0000
0100
0010
0001
0000
,
1000
0000
1001
0000
0001
0100
0010
0000
,
1000
0000
1001
0000
1000
0100
0010
0000
,
0001
0100
1000
0000
1000
0100
0001
0000
,
1001
0000
0000
0001
0000
0000
0100
0000
0010
0000
1000
0000
0100
0000
1000
0000
,
0002
0000
1000
1000
0000
1000
1003
0000
,
0200
0000
0010
0010
0000
0010
0310
0000
,
0100
0010
0001
0000
0100
0010
1000
0000
,
1010
0101
0011
1100
,
0002
0000
0010
0010
0000
0010
0013
0000
,
0200
0000
1000
1000
0000
1000
1300
0000
,
0002
0000
0100
0100
0000
0100
0103
0000
,
0101
0000
1010
0000
1000
0001
0100
0000
,
0102
0000
0010
0010
0000
0100
0103
0000
,
2010
0000
0100
0100
0000
0001
3001
0000
,
1000
0100
0001
0000
1000
0010
0001
0000
,
1010
0101
0011
1100
,
0002
0000
0100
0100
0000
1000
1003
0000
,
2000
0000
0010
0010
0000
0001
3001
0000
,
0200
0000
0010
0010
0000
1000
1300
0000
,
0002
0000
0100
0100
0000
1000
1003
0000
,
1001
0000
1001
0000
0001
0100
1000
0000
,
1001
0000
1001
0000
1000
0100
0001
0000
,
1100
1100
0011
0011
,
1001
0000
1001
0000
0001
0100
0010
1000
,
0001
0000
1001
0000
0001
0100
0010
0000
,
1000
0000
1001
0000
1000
0100
0010
0000
,
0001
0100
0001
0100
0010
0100
0010
0100
,
0010
0000
1010
0000
1000
0100
0010
0001
,
1000
0000
1001
0000
0001
0100
0010
0000
,
1000
0000
1001
0000
1000
0100
0010
0000
,
0001
0100
0001
0100
0010
1000
0010
1000
,
0100
1000
0100
1000
0001
0010
0001
0000
,
1001
0000
1001
0000
0001
0100
1000
0000
,
1001
0000
1001
0000
1000
0100
0001
0000
,
1100
1100
0011
0011
,
1000
0000
0100
0000
0010
0000
0001
0000
1000
0000
0000
0001
0000
0000
1001
0000
;
