#VERSION:0.81;
#TITLE:Busted;
#SUBTITLE:;
#ARTIST:Vannesa and Candace (from Phineas and Ferb);
#TITLETRANSLIT:;
#SUBTITLETRANSLIT:;
#ARTISTTRANSLIT:;
#GENRE:;
#ORIGIN:;
#CREDIT:;
#BANNER:busted-banner.png;
#BACKGROUND:busted-bg.png;
#PREVIEWVID:;
#JACKET:busted-jacket.png;
#CDIMAGE:;
#DISCIMAGE:;
#LYRICSPATH:;
#CDTITLE:busted-cdtitle.png;
#MUSIC:Busted.mp3;
#OFFSET:0.610;
#SAMPLESTART:39.000;
#SAMPLELENGTH:15.380;
#SELECTABLE:YES;
#BPMS:0.000=203.980;
#STOPS:;
#DELAYS:;
#WARPS:;
#TIMESIGNATURES:0.000=4=4;
#TICKCOUNTS:0.000=4;
#COMBOS:0.000=1;
#SPEEDS:0.000=1.000=0.000=0;
#SCROLLS:0.000=1.000;
#FAKES:;
#LABELS:0.000=Song Start;
#BGCHANGES:18.000=Busted.avi=1.000=1=0=1===CrossFade==,
324.000=busted-bg.png=1.000=0=0=1=====,
99999=-nosongbg-=1.000=0=0=0 // don't automatically add -songbackground-
;
#KEYSOUNDS:;
#ATTACKS:
;

//---------------dance-single - ----------------
#NOTEDATA:;
#CHARTNAME:;
#STEPSTYPE:dance-single;
#DESCRIPTION:;
#CHARTSTYLE:;
#DIFFICULTY:Hard;
#METER:9;
#RADARVALUES:0.617,0.680,0.134,0.175,0.186,389.000,13.000,17.000,0.000,0.000,0.000,0.000,0.000,0.617,0.680,0.134,0.175,0.186,389.000,13.000,17.000,0.000,0.000,0.000,0.000,0.000;
#CREDIT:;
#NOTES:
0000
0000
0000
0000
,
0001
0000
0100
0000
0010
0000
1000
0001
,
0000
0100
0010
0000
0000
0001
1000
0010
,
0100
0000
1000
0000
0010
0000
1000
0001
,
0000
0010
0001
0000
0100
0000
0010
0000
,
1000
0000
0001
0000
0100
0000
0010
2000
,
0000
0000
0002
0000
3000
0000
0103
0010
,
1000
0000
0001
0100
0000
0001
0000
1000
,
0000
0000
0000
0001
,
0010
0000
1000
0000
0001
0000
0100
0001
,
0000
0010
0000
0001
0000
0100
0000
0010
,
0000
0000
0001
1000
0000
0000
0010
0100
,
0000
0001
1000
0000
0000
0100
0001
0000
,
0100
0001
0100
0010
,
1000
0000
0001
0000
0000
0010
1000
0001
,
0100
0010
0000
1000
0000
0001
0000
0100
,
0000
0001
1000
0000
0000
0010
0100
0001
,
0010
0000
0100
0000
0010
0000
1000
0001
,
0000
0100
0000
0000
0000
0000
0001
0000
,
1000
0010
0100
0001
,
1001
0110
0101
1010
,
1100
0000
0001
0000
0010
1000
0001
0100
,
0001
0010
0000
0001
0000
0000
0010
1000
,
0001
0100
0010
1000
0000
0001
0100
1000
,
0010
0100
0000
0011
0000
1100
0000
0011
,
0000
0000
0100
0000
0010
0000
1000
0001
,
0000
0000
0100
0000
0001
0000
0010
0001
,
0000
0001
0000
1000
0010
0000
0100
0000
,
0001
0000
0010
0000
0001
1000
0010
0000
,
0001
0000
0000
0001
1000
0000
0000
1000
0010
0000
0000
0010
0100
0000
0000
0100
,
0001
0000
0000
0001
0010
0000
0000
0010
0001
0000
0000
0001
0100
0000
0000
0100
,
0010
0000
0000
0010
1000
0000
0000
1000
0100
0000
0000
0100
0010
0000
0000
0010
,
0001
0000
0000
0001
0100
0000
0000
0100
0001
0000
0000
0001
0010
0000
0000
0010
,
0001
0001
1000
1000
,
0010
0010
0100
0100
,
0001
0000
1000
0000
0010
0000
0100
0001
,
0000
0010
0000
0001
0000
0000
0100
0000
,
0010
0000
0000
0010
1000
0000
0000
1000
0001
0000
0000
0001
0100
0000
0000
0100
,
0001
0000
0000
0001
0010
0000
0000
0010
0001
0000
0000
0001
0100
0000
0000
0100
,
0010
0000
0000
0010
1000
0000
0000
1000
0001
0000
0000
0001
0100
0000
0000
0100
,
0001
0000
0000
0001
0010
0000
0000
0010
0001
0000
0000
0001
0100
0000
0000
0100
,
0020
2030
3200
2300
,
3020
0230
0302
0023
,
0230
2300
3020
0230
,
0302
0023
0032
0103
,
1000
1000
0010
0100
,
0010
0100
1000
0001
0010
0000
0100
0000
0001
0000
0000
0000
0010
0000
0000
0000
,
1000
0000
0000
0000
0100
0000
0000
0010
,
0000
0100
0001
0000
0000
0010
1000
0000
,
0001
0000
0000
0000
0100
0000
0000
1000
,
0000
0001
0100
0000
0000
0100
0001
0000
,
0100
0000
0000
0000
1000
0000
0000
0001
,
0000
0100
0010
0000
0000
0100
1000
0000
,
0010
0000
0000
0000
0010
0000
0001
1000
,
0000
0100
0010
0000
0000
0001
1000
0000
,
0001
0000
0010
0000
1000
0000
0001
0100
,
0000
0000
0001
0000
0000
0010
1000
0000
,
0100
0000
1000
0000
0010
0100
0000
0001
,
0000
0000
0010
0000
0000
0001
0100
0010
,
1000
0001
0000
0100
0000
0010
1000
0001
,
0100
0010
0000
1000
0000
0010
0001
0000
,
0010
1000
0000
0001
0000
0100
1000
0000
,
0010
0100
0000
0001
0000
0010
0001
0000
,
0100
0010
1000
0001
,
0100
0000
0010
0000
1000
0001
0000
0000
,
0110
1001
0010
1000
,
0000
0001
0000
1000
0010
0100
0001
0010
,
0001
0100
0000
0010
0000
0001
0000
0000
,
0000
0000
0010
1000
0001
0100
0010
1000
,
0000
0000
0001
0000
0100
1000
0000
0010
,
0000
0000
0100
0000
0001
0100
0000
0001
,
0000
0010
0001
0000
0101
0000
0010
1000
,
0000
0011
0000
1100
0000
0000
0100
0000
,
1000
0000
0010
0000
0100
0001
0010
0001
,
0100
0010
0000
1000
0001
0100
0010
1000
,
0100
0001
0000
0010
0000
0000
0100
0000
,
0001
1000
0000
0010
0000
0100
0000
1000
,
0000
0000
0001
0000
0100
0001
0000
1000
,
0000
0000
0010
0000
1000
0100
0000
1000
,
0000
0001
0100
0010
,
0000
0001
0100
0001
,
0001
0100
0010
1000
,
0001
0010
0100
1000
0010
0000
0001
0000
0000
0000
0000
0000
0000
0000
0000
0000
;

//---------------dance-single - ----------------
#NOTEDATA:;
#CHARTNAME:;
#STEPSTYPE:dance-single;
#DESCRIPTION:;
#CHARTSTYLE:;
#DIFFICULTY:Medium;
#METER:7;
#RADARVALUES:0.485,0.510,0.320,0.072,0.000,291.000,31.000,7.000,0.000,0.000,0.000,0.000,0.000,0.485,0.510,0.320,0.072,0.000,291.000,31.000,7.000,0.000,0.000,0.000,0.000,0.000;
#CREDIT:;
#NOTES:
0000
0000
0000
0000
,
2000
0000
0000
0000
0010
0000
0000
0001
,
0000
0010
0000
3001
,
0200
0000
0000
0000
0001
0000
0000
0010
,
0000
0001
0010
1300
,
0002
0000
0000
0000
0100
0000
0000
0010
,
0000
0100
0000
0013
,
2000
0000
0000
0000
0001
0000
0000
0010
,
0000
0001
0000
3010
,
0200
0000
0000
0000
0001
0000
0000
0010
,
0000
0001
0000
0310
,
2000
0000
0000
0000
0100
0000
0000
0010
,
0000
0001
0000
3001
,
1000
0110
0100
0001
,
0001
0000
0010
0000
0000
0001
1000
0000
,
0010
0000
0000
1000
0000
0001
0000
0100
,
0000
0000
0010
0000
0000
0001
1000
0010
,
0100
0000
0000
0000
0001
0000
0000
0010
,
0000
1000
0000
0000
0000
0000
0001
0000
,
0100
0010
1000
0010
,
1001
1010
0101
1100
,
0001
1000
0010
0100
,
1000
0000
0000
0001
0000
0000
0100
0000
,
0010
0000
0000
1000
0000
0000
0001
0000
,
0100
0000
0000
0001
0000
0010
0000
0100
,
0000
0000
1000
0000
0001
0000
0100
0010
,
0000
0001
1000
0100
,
0000
0001
1000
0010
,
0100
0000
0001
0000
1000
0001
1000
0000
,
0010
0001
1000
0001
,
0000
0100
1000
0010
,
0101
0011
1100
1010
,
0001
0000
0100
0001
0010
0000
0001
0000
,
0100
0010
1000
0001
,
0100
0010
1000
0001
,
0100
0001
0010
0001
,
0100
0010
1000
0001
,
0100
0001
0010
0100
,
0010
1000
0001
0100
,
0010
1000
0010
0100
,
0001
0010
0001
0100
,
0010
0010
1000
1000
,
0001
0001
0100
0100
,
1001
1100
0110
0011
,
0110
0011
1100
1010
,
0001
0100
0010
1000
,
0001
1000
0001
1000
0010
0000
0100
0000
,
0001
0000
0000
0000
0100
0000
0000
1000
,
0000
0010
0000
0001
,
0001
0000
0000
0000
1000
0000
0000
1000
,
0000
0010
0000
0001
,
0200
0300
0010
0000
,
1000
0001
0100
0000
,
0010
0000
0001
0000
,
1000
0010
0100
0000
,
0001
0010
0001
0010
,
0100
1000
0100
0010
,
0001
0100
0001
0010
,
0001
0100
0010
1000
,
0010
0000
0000
1000
0000
0000
0010
0000
,
0100
0000
0000
0001
0000
0000
0010
0000
,
1000
0000
0000
1000
0000
0000
0001
0000
,
0100
0000
0000
0010
0000
0000
0001
0000
,
1000
0010
0100
0001
,
0010
0001
0100
0010
,
1001
1001
0110
0110
,
0001
1000
0100
0010
,
0100
0001
0010
0100
,
0001
1000
0010
0100
,
1001
1001
1010
1010
,
0101
0101
0011
0011
,
0001
1000
0010
0100
,
0001
0010
0100
1000
,
0110
1010
0001
0100
,
0001
0010
0100
1000
,
0010
0001
0100
0001
,
0010
0001
0000
1000
0000
0010
0000
0100
,
0000
0000
1000
0000
0010
0100
0000
0001
,
0000
0000
0010
0000
0001
0100
0000
0010
,
0000
1000
0001
0100
,
0010
0001
1000
0100
,
0010
1000
0001
0100
,
0001
1000
0001
1000
0000
0000
0000
0000
;

//---------------dance-single - ----------------
#NOTEDATA:;
#CHARTNAME:;
#STEPSTYPE:dance-single;
#DESCRIPTION:;
#CHARTSTYLE:;
#DIFFICULTY:Easy;
#METER:5;
#RADARVALUES:0.374,0.419,0.155,0.062,0.000,233.000,15.000,6.000,0.000,0.000,0.000,0.000,0.000,0.374,0.419,0.155,0.062,0.000,233.000,15.000,6.000,0.000,0.000,0.000,0.000,0.000;
#CREDIT:;
#NOTES:
0000
0000
0000
0000
,
0001
0000
0010
0000
,
1000
0001
0010
0000
,
0001
0000
0100
0000
,
1000
0010
0100
0001
,
1000
0000
0001
0000
,
0010
0001
0000
0010
,
1000
0000
0001
0000
,
0100
0001
0000
0010
,
1000
0000
0100
0000
,
0010
0001
0000
0010
,
0100
0000
0001
0000
,
0010
1000
0000
0001
,
0100
0001
0010
0001
,
1000
0000
0001
0000
,
0010
0100
0001
0010
,
0100
0000
0001
0000
,
0010
1000
0100
0000
,
0010
0100
0001
0000
,
1001
0000
1001
0000
,
0110
0000
0110
0000
,
0001
0001
0001
0001
,
1000
1000
1000
1000
,
0010
0010
0010
0010
,
0100
0100
0100
0100
,
0001
0000
0001
0000
,
1000
0000
1000
0000
,
2002
0000
0000
0000
,
0000
0000
0000
3003
,
0010
0000
0010
0000
,
0100
0000
0100
0000
,
0010
0010
0010
0000
,
1000
1000
1000
0000
,
0001
0001
0100
0100
,
0010
0010
1000
1000
,
0001
0100
0010
0001
,
1000
0001
1001
0000
,
0010
0010
0000
0100
,
0000
0100
0000
0100
,
0000
0001
0001
0001
,
0000
1000
0000
1000
,
0000
0010
0100
0001
,
0000
0010
1000
0100
,
0000
0001
1000
0010
,
0000
0001
0100
0010
,
1000
0001
0100
0010
,
1001
1001
0010
0100
,
1000
0000
0001
0000
,
0010
0000
0100
0000
,
1000
0000
0100
0000
,
0001
0000
0010
0000
,
0001
1000
0001
0000
,
0010
0100
0010
0000
,
1001
0000
1001
0000
,
0110
0000
0000
0000
,
0001
0001
0001
0001
,
1000
1000
1000
1000
,
0010
0010
0010
0010
,
0100
0100
0100
0100
,
0002
0000
0000
0000
,
2003
0000
0000
0000
,
3020
0000
0000
0000
,
0230
0000
0000
0300
,
0001
1000
0010
0100
,
0001
1000
0001
1000
,
0001
0001
1000
1000
,
0000
0010
0001
0100
,
0001
1000
0100
0001
,
1000
0100
0001
0010
,
0100
0000
0100
0000
,
1000
0000
1000
0000
,
0010
0000
0010
0000
,
0001
1000
0010
0100
,
1001
1001
0010
0100
,
0001
0010
0100
0010
,
0001
1000
0010
0100
,
0001
1000
0010
0100
,
1000
0001
0100
0010
,
0001
0100
0010
1000
,
0001
0100
0010
0001
,
0100
0010
1000
0001
,
0110
0110
0000
0000
;

//---------------dance-single - Blank----------------
#NOTEDATA:;
#CHARTNAME:;
#STEPSTYPE:dance-single;
#DESCRIPTION:Blank;
#CHARTSTYLE:;
#DIFFICULTY:Beginner;
#METER:2;
#RADARVALUES:0.166,0.167,0.103,0.000,0.000,103.000,10.000,0.000,0.000,0.000,0.000,0.000,0.000,0.166,0.167,0.103,0.000,0.000,103.000,10.000,0.000,0.000,0.000,0.000,0.000,0.000;
#CREDIT:;
#NOTES:
// measure 0
0000
0000
0000
0000
,  // measure 1
0001
0000
0000
0000
,  // measure 2
1000
0000
0000
0000
,  // measure 3
0010
0000
0000
0000
,  // measure 4
0001
0000
0000
0000
,  // measure 5
1000
0000
0000
0000
,  // measure 6
1000
0000
0000
0000
,  // measure 7
0001
0000
0000
0000
,  // measure 8
0001
0000
0000
0000
,  // measure 9
0010
0000
0000
0000
,  // measure 10
0010
0000
0000
0000
,  // measure 11
1001
0000
0000
0000
,  // measure 12
1001
0000
0000
0000
,  // measure 13
0010
0000
0000
0000
,  // measure 14
0010
0000
0000
0000
,  // measure 15
0100
0000
0000
0000
,  // measure 16
0100
0000
0000
0000
,  // measure 17
0010
0000
0000
0000
,  // measure 18
0100
0000
0000
0000
,  // measure 19
0001
0000
0001
0000
,  // measure 20
0001
0000
0000
0000
,  // measure 21
1000
0000
1000
0000
,  // measure 22
1000
0000
0000
0000
,  // measure 23
0010
0000
0010
0000
,  // measure 24
0010
0000
0000
0000
,  // measure 25
1000
0000
0000
0000
,  // measure 26
0001
0000
0000
0000
,  // measure 27
1001
0000
0000
0000
,  // measure 28
1001
0000
0000
0000
,  // measure 29
0010
0000
0010
0000
,  // measure 30
0010
0000
0010
0000
,  // measure 31
0100
0000
0100
0000
,  // measure 32
0100
0000
0100
0000
,  // measure 33
0001
0000
0000
0000
,  // measure 34
1000
0000
0000
0000
,  // measure 35
0010
0000
0000
0000
,  // measure 36
0010
0000
0000
0000
,  // measure 37
1000
0000
0001
0000
,  // measure 38
0000
0000
0001
0000
,  // measure 39
0001
0000
0001
0000
,  // measure 40
0001
0000
0001
0000
,  // measure 41
0001
0000
0000
0000
,  // measure 42
0100
0000
0000
0000
,  // measure 43
1000
0000
0000
0000
,  // measure 44
0100
0000
0000
0000
,  // measure 45
1000
0000
1000
0000
,  // measure 46
1000
0000
0010
0000
,  // measure 47
0001
0000
0000
0000
,  // measure 48
0001
0000
0000
0000
,  // measure 49
1000
0000
1000
0000
,  // measure 50
1000
0000
0000
0000
,  // measure 51
0010
0000
0010
0000
,  // measure 52
0010
0000
0000
0000
,  // measure 53
0100
0000
0100
0000
,  // measure 54
0100
0000
0000
0000
,  // measure 55
0010
0000
0000
0000
,  // measure 56
0010
0000
0000
0000
,  // measure 57
1000
0000
0000
0000
,  // measure 58
1000
0000
0000
0000
,  // measure 59
1001
0000
0000
0000
,  // measure 60
1001
0000
0000
0000
,  // measure 61
0110
0000
0000
0000
,  // measure 62
0110
0000
0000
0000
,  // measure 63
0001
0000
0001
0000
,  // measure 64
0001
0000
0000
0000
,  // measure 65
1000
0000
1000
0000
,  // measure 66
1000
0000
0000
0000
,  // measure 67
0010
0000
0000
0000
,  // measure 68
0010
0000
0000
0000
,  // measure 69
0100
0000
0000
0000
,  // measure 70
0100
0000
0000
0000
,  // measure 71
1001
0000
0000
0000
,  // measure 72
1001
0000
0000
0000
,  // measure 73
0010
0000
0010
0000
,  // measure 74
0010
0000
0010
0000
,  // measure 75
0000
0000
0100
0000
,  // measure 76
0100
0000
0100
0000
,  // measure 77
0100
0000
0000
0000
,  // measure 78
0010
0000
0000
0000
,  // measure 79
0010
0000
0010
0000
,  // measure 80
0010
0000
0010
0000
,  // measure 81
0010
0000
0000
0000
;
