#TITLE:UNBELIEVABLE (Sparky remix);
#SUBTITLE:;
#ARTIST:jun feat. Sarah-Jane;
#TITLETRANSLIT:;
#SUBTITLETRANSLIT:;
#ARTISTTRANSLIT:;
#GENRE:;
#CREDIT:;
#MENUCOLOR:;
#METERTYPE:DDR;
#BANNER:[Falling in Love] - UNBELIEVABLE (Sparky remix).png;
#BACKGROUND:[Falling in Love] - UNBELIEVABLE (Sparky remix)-bg.png;
#JACKET:[Falling in Love] - UNBELIEVABLE (Sparky remix)-jacket.png;
#LYRICSPATH:;
#CDTITLE:cdtitle.png;
#MUSIC:[Falling in Love] - UNBELIEVABLE (Sparky remix).ogg;
#OFFSET:0.000;
#SAMPLESTART:45.240;
#SAMPLELENGTH:15.000;
#SELECTABLE:YES;
#LISTSORT:;
#DISPLAYBPM:87.000:175.000;
#BPMS:0.000=175.006,260.000=87.485,276.000=174.946;
#STOPS:;
#BGCHANGES:;
#ATTACKS:;

//---------------dance-single - ----------------
#NOTES:
     dance-single:
     :
     Hard:
     8:
     0.584,0.564,0.419,0.166,0.048:
0000
0000
0000
0000
,
0000
0000
0000
0000
,
0000
0000
0000
0000
,
0000
0000
0000
0000
,
0000
0000
0000
0000
,
1100
0000
0101
0000
0001
0100
0010
0100
,
0000
0001
0000
1000
0000
0001
0010
0100
,
1000
0000
0001
0000
1000
0000
0010
0100
,
0220
0000
0300
0030
,
1000
0100
0001
0100
0000
1000
0010
0100
,
0001
0010
0100
1000
0000
0001
0100
1000
,
0100
0001
0010
0100
0000
1100
0000
0101
,
0000
0001
0100
0010
0100
0000
1001
0000
,
0010
1000
0100
1000
0000
0010
0100
0001
,
0010
0001
0100
0010
0000
1000
0100
0001
,
0200
0010
1000
0301
,
0100
1000
0010
0100
0001
0000
1001
0000
,
0010
0100
0001
0100
0000
0010
1000
0100
,
1000
0010
0100
0001
0000
0010
0100
1000
,
0001
0100
0010
0100
0000
0101
0000
1100
,
0000
0001
0010
0100
1000
0000
0110
0000
,
1000
0100
1000
0010
0000
0100
0001
0100
,
1000
0100
0001
0010
0000
0100
1000
0100
,
0020
0000
0001
0000
0100
0000
0031
1000
,
0020
0000
0130
0001
1000
0000
1001
0000
,
0010
0100
0010
0100
0001
0100
0001
0100
,
0010
1000
0010
1000
0100
1000
0100
1000
,
0001
0100
1000
0100
0001
0100
1000
0100
,
0001
0010
0100
1000
0001
0000
1001
0000
,
1000
0100
1000
0100
0010
0001
0010
0001
,
1000
0010
1000
0010
0100
0001
0100
0001
,
1000
0100
0010
0001
0100
1000
0100
0001
,
0010
0000
0000
0100
0000
0000
1000
0000
1001
0000
0000
0000
0110
0000
0000
0000
,
0020
0000
1030
1000
0001
0010
0100
1000
,
0001
1100
1000
0101
,
1000
0100
0001
0100
1000
0000
0001
0000
,
2100
3002
0203
0310
,
0200
0000
0301
0001
1000
0100
0010
0100
,
1000
0101
0001
1100
,
0001
0100
1000
0100
0001
0000
1000
0000
,
0001
0010
0100
1000
1001
0000
0110
0000
,
0020
0000
0031
0001
1000
0010
0100
0001
,
1000
0101
0001
1100
,
0001
0100
1000
0100
0001
0000
1000
0000
,
0102
2003
3200
0310
,
0200
0000
1300
1000
0001
0100
0010
0000
,
0101
0010
1100
0101
,
1000
0000
0000
0001
0100
0000
0001
0000
0010
0000
0100
0000
1000
0000
0001
0000
,
0220
0000
0300
0030
,
1100
0000
0011
0000
0001
0100
1000
0100
,
0000
0001
0000
0010
0000
0100
1000
0010
,
0100
0000
0101
0000
1100
0000
1000
0010
,
0000
0100
0010
0100
0100
0000
1001
0000
,
1010
0000
0101
0000
0001
0010
1000
0010
,
0000
0001
0000
0100
0000
0010
1000
0100
,
0010
0000
0011
0000
1010
0000
1000
0100
,
0010
0001
1000
0010
0110
0000
1001
0000
,
0011
0000
1100
0000
1000
0010
0001
0010
,
0000
1000
0000
0100
0000
0010
0001
0100
,
0010
0000
1010
0000
0011
0000
0001
0100
,
0000
0010
0100
0010
0010
0000
1001
0000
,
0101
0000
1010
0000
1000
0100
0001
0100
,
0000
1000
0000
0010
0000
0100
0001
0010
,
0100
0000
1100
0000
0101
0000
0001
0020
,
0200
0000
0030
0300
,
1000
0000
0000
0000
0100
0000
0000
0010
0000
0100
1000
0000
0001
0000
0000
0000
,
0001
0000
0000
0000
0100
0000
0000
0010
0000
0100
0001
0000
1000
0000
0000
0100
,
1000
0000
0000
0000
0010
0000
0000
0100
0000
0010
1000
0000
0001
0000
0000
0000
,
0001
0000
0000
0000
0010
0000
0000
0100
0000
0010
0001
0000
1000
0000
0000
0000
,
0001
0001
0100
0100
,
1000
1000
0010
0010
,
0001
0100
1000
0010
,
0001
0010
1000
0100
,
0001
0000
1000
0100
0010
0000
0001
0100
,
0010
0100
0001
0000
1000
0000
0100
1000
,
0010
0001
0010
1000
0100
0001
0100
1000
,
0001
0000
0000
0000
;

//---------------dance-single - ----------------
#NOTES:
     dance-single:
     :
     Medium:
     6:
     0.402,0.431,0.052,0.087,0.000:
0000
0000
0000
0000
,
0000
0000
0000
0000
,
0000
0000
0000
0000
,
0000
0000
0000
0000
,
0000
0000
0000
0000
,
1000
0000
0001
0000
1000
0100
0001
0000
,
0100
0000
1000
0000
0001
0100
1000
0000
,
0100
0000
0001
0000
0010
0000
0100
2000
,
0002
0000
3000
0003
,
1000
0000
0001
0000
1000
0100
1000
0000
,
0001
0000
1000
0000
0001
0100
0001
0000
,
1000
0010
0100
0001
,
0020
0100
0100
0130
,
1000
0000
0001
0000
1000
0100
1000
0000
,
0001
0000
1000
0000
0001
0100
0001
0000
,
1000
0010
0100
0001
,
1000
0001
2002
3003
,
0100
0000
0010
0000
0001
0100
0001
0000
,
0010
0000
0100
0000
1000
0100
1000
0000
,
0010
0100
0001
1000
,
0200
0010
0010
0310
,
0001
0000
0100
0000
0010
0100
0010
0000
,
1000
0000
0100
0000
0010
0100
0010
0000
,
0100
1000
0001
0100
,
0010
0100
0110
0000
,
0001
0100
0001
1000
,
0100
1000
0001
0100
,
0001
0010
0100
1000
,
0001
1000
1001
0000
,
1000
0010
1000
0001
,
0010
0001
1000
0010
,
1000
0001
0010
0100
,
1000
0001
1001
0000
,
1000
0000
0100
0010
0100
0000
1000
0000
,
0001
0100
0010
1000
,
0001
0000
1000
0001
1000
0000
0010
0000
,
0100
0100
0100
0000
,
0001
0000
0010
0001
0010
0000
0100
0000
,
1000
0010
0100
0001
,
1000
0000
0010
1000
0010
0000
0100
0000
,
0010
0010
0010
0000
,
1000
0000
0010
0100
0010
0000
1000
0000
,
0001
0010
0100
1000
,
0001
0000
1000
0001
1000
0000
0100
0000
,
0010
0010
0010
0000
,
0001
0000
0100
0001
0100
0000
0010
0000
,
1000
0100
0010
0001
,
1000
0000
0100
1000
0100
0000
0010
0000
,
0220
0000
0300
0030
,
0001
0000
0100
0000
0001
0100
0001
0100
,
0001
0000
1000
0000
0100
1000
0100
1000
,
0100
0000
0010
0000
0001
0100
0001
0100
,
0001
0010
0100
1000
,
0001
0000
0100
0000
0010
1000
0010
1000
,
0010
0000
0100
0000
0001
1000
0001
1000
,
0001
0000
0010
0000
0100
1000
0100
1000
,
0100
0100
0100
0000
,
0010
0000
0001
0000
1000
0100
1000
0100
,
1000
0000
0010
0000
0100
0001
0100
0001
,
0100
0000
0001
0000
0010
0001
0010
0001
,
0010
0100
1000
0010
,
0100
0000
0001
0000
1000
0100
1000
0100
,
1000
0000
0001
0000
0100
0010
0100
0010
,
0100
0000
0001
0000
1000
0000
0100
2000
,
0002
0000
3000
0003
,
0100
0100
0010
0010
,
1000
0010
0001
0001
,
1000
0100
0001
0010
,
1000
0001
0100
1000
,
0001
0000
1000
0000
,
0001
1000
0100
0000
,
1000
0000
0001
0000
,
1000
0001
0100
0000
,
0001
1000
0001
1000
,
0010
0100
0010
0100
,
0001
0100
1000
0000
1000
0100
0001
0000
,
1001
0000
0000
0000
;

//---------------dance-single - ----------------
#NOTES:
     dance-single:
     :
     Easy:
     4:
     0.264,0.299,0.061,0.166,0.000:
0000
0000
0000
0000
,
0000
0000
0000
0000
,
0000
0000
0000
0000
,
0000
0000
0000
0000
,
0000
0000
0000
0000
,
1000
0000
0001
0000
,
0100
0100
0100
0000
,
0001
0000
1000
0000
,
2002
0000
3003
0000
,
0010
0100
0001
0000
,
0010
0100
1000
0000
,
0001
0000
1000
0000
,
0001
0000
1001
1001
,
1000
0100
0010
0000
,
0001
0100
0010
0000
,
1000
0000
0001
0000
,
0100
0000
0110
0000
,
0010
1000
0001
0000
,
0100
0001
1000
0000
,
0100
0000
0010
0000
,
0001
0000
1001
1001
,
0001
0100
0010
0000
,
0100
0001
1000
0000
,
0100
0000
1000
0000
,
0010
0000
0110
0000
,
0100
0000
0001
0000
,
1000
0000
0100
0000
,
0010
0100
1000
0001
,
0100
0000
0010
0100
0010
0000
0000
0000
,
1000
0000
0001
0000
,
0100
0000
0010
0000
,
1000
0100
0010
0001
,
0100
0000
0010
0100
0010
0000
0000
0000
,
1000
1000
0001
0001
,
1000
0100
0010
0000
,
0002
0003
0200
0300
,
0020
0030
2000
3000
,
0001
0001
1000
1000
,
0100
0010
0001
0000
,
2000
3000
0020
0030
,
0200
0300
0002
0003
,
1000
1000
0001
0001
,
1000
0010
0100
0000
,
0002
0003
0020
0030
,
0200
0300
2000
3000
,
0001
0001
1000
1000
,
0010
0100
0001
0000
,
2000
3000
0200
0300
,
0020
0000
0030
0000
,
0001
0100
0000
0001
,
0001
1000
0000
0100
,
0100
1000
0000
0001
,
0001
0100
0100
0100
,
0001
0100
0000
0010
,
0010
1000
0000
0001
,
0001
0100
0000
1000
,
0001
0100
0020
0030
,
0100
0001
0000
1000
,
1000
0100
0000
0010
,
0010
0100
0000
1000
,
1000
0001
0001
0001
,
0100
0001
0000
0010
,
0010
0100
0000
1000
,
1000
0010
0000
0100
,
0020
0000
0030
0000
,
0100
0000
0100
0000
,
0010
0000
0010
0000
,
1000
0000
1000
0000
,
0001
0000
0001
0000
,
1000
0000
0000
0000
,
0010
0000
0000
0000
,
0001
0000
0000
0000
,
0100
0000
0000
0000
,
1000
0000
0010
0000
,
0001
0000
0100
0000
,
1000
0010
0001
0100
,
1000
0000
0000
0000
;

//---------------dance-single - ----------------
#NOTES:
     dance-single:
     :
     Beginner:
     2:
     0.167,0.199,0.009,0.000,0.000: // measure 1
0000
0000
0000
0000
,  // measure 2
0000
0000
0000
0000
,  // measure 3
0000
0000
0000
0000
,  // measure 4
0000
0000
0000
0000
,  // measure 5
0000
0000
0000
0000
,  // measure 6
1000
0000
0001
0000
,  // measure 7
0100
0000
0100
0000
,  // measure 8
0001
0000
1000
0000
,  // measure 9
0100
0000
0000
0000
,  // measure 10
0000
0001
0000
0001
,  // measure 11
0000
1000
0000
1000
,  // measure 12
0000
0001
0000
0001
,  // measure 13
0000
0000
0100
0100
,  // measure 14
0000
0100
0000
0100
,  // measure 15
0000
0001
0000
0001
,  // measure 16
0000
1000
0000
1000
,  // measure 17
0000
0000
0010
0000
,  // measure 18
0000
1000
0000
1000
,  // measure 19
0000
0001
0000
0001
,  // measure 20
0000
1000
0000
1000
,  // measure 21
0000
0000
0010
0010
,  // measure 22
0000
0100
0000
0100
,  // measure 23
0000
0001
0000
0001
,  // measure 24
0000
1000
0000
1000
,  // measure 25
1000
0000
0001
0000
,  // measure 26
1000
0000
1000
0000
,  // measure 27
0100
0000
0100
0000
,  // measure 28
0001
0000
0001
0000
,  // measure 29
0100
0000
0100
0000
,  // measure 30
0001
0000
0001
0000
,  // measure 31
0100
0000
0100
0000
,  // measure 32
1000
0000
1000
0000
,  // measure 33
0100
0000
0100
0000
,  // measure 34
0001
0000
0001
0000
,  // measure 35
1000
0000
1000
0000
,  // measure 36
0001
0000
1000
0000
,  // measure 37
0001
0000
1000
0000
,  // measure 38
0001
0000
1000
0000
,  // measure 39
0001
0000
0001
0000
,  // measure 40
1000
0000
0001
0000
,  // measure 41
1000
0000
0001
0000
,  // measure 42
1000
0000
0001
0000
,  // measure 43
1000
0000
1000
0000
,  // measure 44
0001
0000
1000
0000
,  // measure 45
0001
0000
1000
0000
,  // measure 46
0001
0000
1000
0000
,  // measure 47
0001
0000
0001
0000
,  // measure 48
1000
0000
0001
0000
,  // measure 49
1000
0000
0000
0000
,  // measure 50
0001
0001
0000
1000
,  // measure 51
0000
1000
0000
0001
,  // measure 52
0000
0001
0000
0100
,  // measure 53
0000
0000
0100
0100
,  // measure 54
0000
0001
0000
0001
,  // measure 55
0000
1000
0000
1000
,  // measure 56
0000
0001
0000
0001
,  // measure 57
0001
0000
1000
0000
,  // measure 58
1000
1000
0000
0001
,  // measure 59
0000
0001
0000
0100
,  // measure 60
0000
0100
0000
0010
,  // measure 61
0000
0000
0010
0010
,  // measure 62
0000
0100
0000
0100
,  // measure 63
0000
0001
0000
0001
,  // measure 64
0000
1000
0000
1000
,  // measure 65
1000
0000
0000
0000
,  // measure 66
0100
0000
0000
0000
,  // measure 67
0010
0000
0000
0000
,  // measure 68
1000
0000
0000
0000
,  // measure 69
0001
0000
0000
0000
,  // measure 70
1000
0000
0000
0000
,  // measure 71
1000
0000
0000
0000
,  // measure 72
0001
0000
0000
0000
,  // measure 73
0001
0000
0000
0000
,  // measure 74
1000
0000
1000
0000
,  // measure 75
0001
0000
0001
0000
,  // measure 76
1000
0000
0001
0000
,  // measure 77
1001
0000
0000
0000
;
