#TITLE:Timebomb;
#SUBTITLE:;
#ARTIST:Kylie Minogue;
#TITLETRANSLIT:;
#SUBTITLETRANSLIT:;
#ARTISTTRANSLIT:;
#CREDIT:;
#BANNER:;
#BACKGROUND:;
#LYRICSPATH:;
#CDTITLE:;
#MUSIC:Timebomb.mp3;
#OFFSET:-0.135;
#SAMPLESTART:37.520;
#SAMPLELENGTH:12.000;
#SELECTABLE:YES;
#BPMS:0.000=128.000;
#STOPS:;
#BGCHANGES:0.000=[Falling in Love] - Timebomb.avi=1.000=0=0=1,
99999=-nosongbg-=1.000=0=0=0 // don't automatically add -songbackground-
;

//---------------dance-single - Copied from Copied f----------------
#NOTES:
     dance-single:
     Copied from Copied f:
     Hard:
     8:
     0.544,0.552,0.204,0.194,0.000:
0000
0000
0000
0000
,
0000
0000
0000
0000
,
0000
0000
0000
0000
,
0000
0000
0000
0000
,
2000
0000
3001
1000
0100
1000
0010
0000
,
0100
0000
0001
0010
1000
0010
0001
0100
,
0020
0000
1030
0010
0100
0001
1000
0000
,
0001
0000
1000
0100
1000
0001
0100
0010
,
1000
0000
1000
0010
0000
0010
0100
0000
,
0001
0000
0001
1000
0000
1000
0100
0000
,
0010
0000
0001
0100
0010
0100
0001
0000
,
1000
0100
1000
0100
0010
0001
0010
0001
,
2000
0000
3010
1000
0010
0100
0001
0000
,
0100
0000
0010
1000
0001
1000
0010
0100
,
0001
0000
0101
0000
0001
1000
0001
0100
,
0010
0000
1000
0100
0001
0100
1000
0010
,
0200
0000
0301
1000
0100
0000
1001
0000
,
2000
0000
3001
0010
0100
0000
1000
0100
,
0001
0100
1000
0010
0100
0000
1001
0000
,
1000
0001
1000
0001
0100
0010
0100
0000
,
0001
0100
1000
0100
0001
0010
0100
1000
,
0001
1000
0010
0001
0010
1000
0001
0100
,
0201
0000
0301
0100
0010
1000
0100
0000
,
0010
0100
1000
0001
0000
1000
0100
1000
,
1001
0000
0001
0010
1000
0010
0001
1000
,
0000
1010
0000
0010
1000
0001
1000
0100
,
1200
0000
1300
0010
0001
0010
1000
0000
,
1020
0000
0130
0001
1000
0000
1001
0000
,
0020
0000
1030
0000
1000
0010
0100
0000
,
0001
0000
1000
0100
0001
0100
0010
0001
,
2000
0000
3001
0000
0100
0010
0100
0000
,
0010
0000
1000
0000
0010
0100
0001
1000
,
0100
0000
0100
1000
0000
1000
0001
0000
,
0100
0000
0001
0100
0000
0100
0010
0000
,
1000
0000
0100
1000
0001
0000
1000
0000
,
1000
0100
1000
0100
0010
0001
0010
0001
,
0100
0000
0010
1000
0010
0100
0001
0000
,
1000
0001
0010
1000
0010
0100
1000
0001
,
0100
0000
0001
0100
0001
1000
0100
0000
,
0010
0000
0001
0100
1000
0100
0001
1000
,
0001
0000
0001
1000
0000
1000
0100
0000
,
1000
0000
1000
0010
0000
0010
0100
0000
,
0001
0000
0001
1000
0100
1000
0001
0000
,
0001
0100
0010
1000
0001
1000
0100
0000
,
1001
0001
0100
0001
0010
1000
0010
0001
,
1000
0100
1000
0001
0100
1000
0100
0001
,
1002
0000
1003
0010
0100
0001
1000
0000
,
1000
0100
0010
0001
0000
0010
0001
0100
,
0101
0000
0001
0100
1000
0100
0001
1000
,
0000
1001
0000
0001
0010
0100
1000
0010
,
0120
0000
0130
0001
1000
0100
1000
0000
,
2001
0000
3001
0010
0001
1000
0100
0000
,
2100
0000
3010
0100
0001
1000
0001
0000
,
0201
0000
0301
1000
0010
0001
0010
1000
,
0100
0000
1001
0000
1000
0100
1000
0002
,
0000
0103
0001
0000
0001
0010
0100
0000
,
0210
0000
0310
0001
1000
0100
1000
0000
,
2001
0000
3001
1000
0010
0100
0001
0100
,
0010
0000
2001
0000
3001
0100
0010
2000
,
0000
3100
0010
0000
0001
0100
0010
0000
;

//---------------dance-single - ----------------
#NOTES:
     dance-single:
     :
     Medium:
     6:
     0.421,0.407,0.223,0.136,0.000:
0000
0000
0000
0000
,
0000
0000
0000
0000
,
0000
0000
0000
0000
,
0000
0000
0000
0000
,
2000
3001
1000
0100
,
1000
0000
0010
0000
0100
0100
0001
0000
,
2001
3100
1000
0010
,
0001
0010
1000
0100
,
0010
0000
0010
0001
0000
0001
1000
0000
,
1000
0000
1000
0100
0000
0100
1000
0000
,
0002
0100
0100
0103
,
0020
1000
1000
1030
,
1001
0000
1000
0100
1000
0000
0010
0000
,
0100
0000
0001
0100
0010
0000
1000
0100
,
0010
2001
0001
3001
,
0100
1000
0100
0001
,
0010
0000
0010
0002
0000
0003
1001
0000
,
1000
0000
1000
0020
0000
0030
0110
0000
,
0100
0001
1000
0100
,
0010
0000
0001
1000
0001
1000
0001
0000
,
1000
0100
0000
1000
0100
0010
0001
1000
,
0000
0001
0000
0001
0100
0010
1000
0000
,
1001
1000
0100
0010
,
0100
0010
0100
0010
0000
0010
0001
0000
,
1001
0000
1000
0010
1000
0010
1000
0000
,
0001
0000
0100
0000
0001
0100
0001
0000
,
0101
1000
0100
0010
,
0002
1003
0100
1100
,
2000
3001
0010
0001
,
0100
0000
0010
0000
1000
1000
0100
0000
,
0020
0031
0100
0010
,
1000
0100
1000
0001
,
2000
0000
3100
1000
0000
1000
0010
0000
,
0200
0000
0301
0100
0000
0100
0010
0000
,
1000
0000
0100
0000
0010
0001
0010
0000
,
0001
0000
0100
0000
0010
1000
0010
0000
,
1000
0000
0100
1000
0100
0000
1001
0000
,
0001
0000
0100
0001
0100
0000
0010
0000
,
1000
0000
0001
0000
0100
0000
0010
1000
,
0000
1000
0100
0000
0010
0000
0001
0000
,
2001
3001
0100
1000
,
2010
3010
0100
0001
,
1001
1000
0100
0010
,
0001
1000
0001
1000
0001
1000
0001
0000
,
1000
0100
0000
0100
1000
0010
0100
0001
,
0000
0001
0000
0001
0100
0010
1000
0000
,
1001
1000
0100
0010
,
0001
0100
0010
1000
0000
1000
0100
0000
,
0010
0000
0010
0001
0010
0001
0010
0000
,
0000
0001
0000
0001
0100
0010
1000
0000
,
1001
0000
1000
0100
1000
0000
0010
0000
,
0100
0100
0001
0010
,
1010
0010
0001
0100
,
0110
0000
0010
0000
1000
0001
1000
0000
,
1100
0000
1010
0000
1000
0000
0001
0100
,
0000
0100
0010
0000
1000
0000
0100
0000
,
0110
0010
0001
0100
,
0101
0001
1000
0100
,
0110
0000
1001
0000
1000
0000
0100
1000
,
0000
1000
0010
0000
0100
0000
0001
1000
;

//---------------dance-single - ----------------
#NOTES:
     dance-single:
     :
     Easy:
     3:
     0.289,0.406,0.146,0.243,0.000:
0000
0000
0000
0000
,
0000
0000
0000
0000
,
0000
0000
0000
0000
,
0000
0000
0000
0000
,
1000
0000
1000
0000
,
0001
0000
0001
0001
,
0001
0000
0100
0000
,
0100
0000
0010
0010
,
0010
0000
1000
0000
,
1000
0000
0100
0000
,
0001
0000
0100
0000
,
1000
0000
0001
1000
,
1001
1000
0000
0010
,
0000
0001
0010
1000
,
0100
0110
0000
0010
,
0000
0010
0001
1000
,
0100
1000
0000
1001
,
0001
0100
0000
0101
,
0001
0100
0010
0000
,
2002
0000
0000
3003
,
1000
0100
1000
0100
,
0010
0001
0010
0001
,
2000
0000
3002
0000
,
2003
0000
3002
0000
,
0103
0100
0100
0100
,
0010
0010
0010
0010
,
2000
3100
0010
0001
,
2002
0000
3003
0000
,
1000
0000
0100
0000
,
0001
0000
0001
0100
,
1000
0000
1000
0000
,
0010
0000
0100
0100
,
0001
0000
0100
0000
,
0001
0000
1000
0000
,
0100
0100
0000
0010
,
0000
0001
0001
0001
,
1000
0100
0000
0100
,
0000
0100
0010
0001
,
2002
0000
3003
0000
,
1000
1000
0000
0001
,
0100
0010
0000
0010
,
1000
0001
0000
0001
,
1000
1000
0000
0001
,
1000
0001
1000
1001
,
0001
0100
0001
0100
,
0010
1000
0010
1000
,
0002
0103
1000
0100
,
0002
0013
0100
0010
,
1001
0001
0001
0001
,
1000
0100
0100
0100
,
0110
0020
0031
0100
,
0220
0330
0010
1000
,
2002
3003
1000
0100
,
2200
3300
0001
0100
,
0020
1030
0100
1000
,
0001
0100
0010
1000
,
2002
3003
1000
0100
,
2200
3300
0001
0100
,
0010
0010
1000
0001
,
1000
0100
0010
0001
;
