#VERSION:0.81;
#TITLE:Take Me;
#SUBTITLE:;
#ARTIST:Harmony Machine;
#TITLETRANSLIT:;
#SUBTITLETRANSLIT:;
#ARTISTTRANSLIT:;
#GENRE:;
#ORIGIN:;
#CREDIT:;
#BANNER:[Falling in Love] - Take Me.png;
#BACKGROUND:[Falling in Love] - Take Me-bg.png;
#PREVIEWVID:;
#JACKET:[Falling in Love] - Take Me-jacket.png;
#CDIMAGE:;
#DISCIMAGE:;
#LYRICSPATH:;
#CDTITLE:;
#MUSIC:[Falling in Love] - Take Me.ogg;
#OFFSET:2.347;
#SAMPLESTART:14.408;
#SAMPLELENGTH:15.000;
#SELECTABLE:YES;
#BPMS:0.000=100.000;
#STOPS:138.000=0.600;
#DELAYS:;
#WARPS:;
#TIMESIGNATURES:0.000=4=4;
#TICKCOUNTS:0.000=4;
#COMBOS:0.000=1;
#SPEEDS:0.000=1.000=0.000=0;
#SCROLLS:0.000=1.000;
#FAKES:;
#LABELS:0.000=Song Start;
#BGCHANGES:;
#KEYSOUNDS:;
#ATTACKS:
;

//---------------dance-single - ----------------
#NOTEDATA:;
#CHARTNAME:;
#STEPSTYPE:dance-single;
#DESCRIPTION:;
#CHARTSTYLE:;
#DIFFICULTY:Beginner;
#METER:1;
#RADARVALUES:0.052,0.082,0.030,0.000,0.000,34.000,3.000,0.000,0.000,0.000,0.000,0.000,0.000,0.052,0.082,0.030,0.000,0.000,34.000,3.000,0.000,0.000,0.000,0.000,0.000,0.000;
#CREDIT:hooky;
#NOTES:
0000
0000
0000
0000
,
0000
0000
0000
0000
,
0000
0000
0000
0000
,
1000
0000
0000
0000
,
0000
0000
0000
0000
,
0001
0000
0000
0000
,
0000
0000
0000
0000
,
1000
0000
0000
0000
,
0000
0000
0000
0000
,
0001
0000
0000
0000
,
0000
0000
0000
0000
,
1000
0000
0000
0000
,
1000
0000
0000
0000
,
1000
0000
0000
0000
,
1000
0000
0000
0000
,
0001
0000
0000
0000
,
0001
0000
0000
0000
,
0001
0000
0000
0000
,
0001
0000
0000
0000
,
0001
0000
0000
0000
,
0000
0000
0000
0000
,
1000
0000
0000
0000
,
0000
0000
0000
0000
,
0001
0000
0000
0000
,
0000
0000
0000
0000
,
1000
0000
0000
0000
,
0000
0000
0000
0000
,
0001
0000
0000
0000
,
0001
0000
0000
0000
,
0001
0000
0000
0000
,
0001
0000
0000
0000
,
1000
0000
0000
0000
,
1000
0000
0000
0000
,
1000
0000
0000
0000
,
1001
0000
0000
1000
,
0000
0000
0000
0001
,
0000
0000
0000
1000
,
0000
0001
0000
1001
,
0000
0000
0000
0001
,
0000
0000
0000
1000
,
0000
0000
0000
0001
,
0000
1000
0000
1001
;

//---------------dance-single - ----------------
#NOTEDATA:;
#CHARTNAME:;
#STEPSTYPE:dance-single;
#DESCRIPTION:;
#CHARTSTYLE:;
#DIFFICULTY:Easy;
#METER:3;
#RADARVALUES:0.230,0.252,0.148,0.158,0.000,132.000,15.000,16.000,0.000,0.000,0.000,0.000,0.000,0.230,0.252,0.148,0.158,0.000,132.000,15.000,16.000,0.000,0.000,0.000,0.000,0.000;
#CREDIT:hooky;
#OFFSET:2.321;
#BPMS:0.000=100.000
;
#STOPS:138.000=0.600
;
#DELAYS:;
#WARPS:;
#TIMESIGNATURES:0.000=4=4
;
#TICKCOUNTS:0.000=4
;
#COMBOS:0.000=1
;
#SPEEDS:0.000=1.000=0.000=0
;
#SCROLLS:0.000=1.000
;
#FAKES:;
#LABELS:0.000=Song Start
;
#NOTES:
0000
0000
0000
0000
,
0000
0000
0000
0000
,
0000
0000
0000
0000
,
1000
0000
1000
0010
,
0100
0000
0100
0010
,
0001
0000
0001
1000
,
0200
0000
2000
3300
,
1000
0010
0100
0100
,
0001
0010
0001
0001
,
1000
0010
0100
0100
,
0001
0010
2002
3003
,
0100
0010
1000
1000
,
0001
0100
0010
0010
,
1000
0100
0010
0001
,
2002
0000
0000
3003
,
0100
0010
1000
1000
,
0100
0010
0001
0001
,
0010
0001
0100
0010
,
2020
0000
0000
3030
,
1000
0100
0010
0010
,
0100
1000
0010
0010
,
0100
0001
0100
0100
,
0001
0010
0220
0330
,
0010
1000
0100
0100
,
1000
0010
0100
0100
,
0001
0010
0001
0001
,
1000
0010
0220
0330
,
0001
1000
0001
1000
,
0010
0100
0010
0100
,
1000
0010
0110
0001
,
0010
0000
0100
0000
,
0010
1000
0100
0100
,
1000
0010
0100
0100
,
0001
0010
0001
0100
,
2002
0000
3003
1000
,
1100
1000
0000
0010
,
0011
0010
0000
0100
,
0101
0100
0000
0100
,
0110
0100
0000
0010
,
1010
1000
0000
0001
,
0011
0001
0000
0100
,
0101
0001
0010
2002
,
0000
0000
3003
0000
;

//---------------dance-single - ----------------
#NOTEDATA:;
#CHARTNAME:;
#STEPSTYPE:dance-single;
#DESCRIPTION:;
#CHARTSTYLE:;
#DIFFICULTY:Medium;
#METER:5;
#RADARVALUES:0.286,0.355,0.178,0.178,0.000,167.000,18.000,18.000,0.000,0.000,0.000,0.000,0.000,0.286,0.355,0.178,0.178,0.000,167.000,18.000,18.000,0.000,0.000,0.000,0.000,0.000;
#CREDIT:hooky;
#NOTES:
// measure 0
0000
0000
0000
0000
,  // measure 1
0000
0000
0000
0000
,  // measure 2
0000
0000
0000
0000
,  // measure 3
1000
0000
0100
0000
1000
0100
1000
0000
,  // measure 4
0010
0000
0100
0000
0010
0100
0010
0000
,  // measure 5
1000
0000
0100
0000
0010
0001
0010
0000
,  // measure 6
0100
0010
2200
3300
,  // measure 7
0001
0000
0010
0000
0001
0100
0001
0000
,  // measure 8
0010
0000
0001
0000
1000
0100
1000
0000
,  // measure 9
0100
0000
0010
0000
0001
0010
0001
0000
,  // measure 10
0100
0010
0220
0330
,  // measure 11
0100
0000
0010
0000
1000
0010
1000
0000
,  // measure 12
0010
0000
0100
0000
0001
0100
0001
0000
,  // measure 13
0010
0001
1000
0100
,  // measure 14
2000
3000
0002
0003
,  // measure 15
0100
0000
0010
0000
1000
0100
1000
0000
,  // measure 16
0010
0000
0100
0000
0001
0010
0001
0000
,  // measure 17
0100
0010
1000
0100
,  // measure 18
2000
3000
0002
0003
,  // measure 19
0100
0000
0010
0000
1000
0010
1000
0000
,  // measure 20
0010
0000
0100
0000
0001
0100
0001
0000
,  // measure 21
0010
0000
0001
0000
0100
0010
1000
0000
,  // measure 22
0100
1000
2002
3003
,  // measure 23
0100
0000
0010
0000
0100
0001
0010
0000
,  // measure 24
0001
0000
0001
0000
1000
0010
0100
0000
,  // measure 25
0100
0000
0010
0000
1000
0100
0010
0000
,  // measure 26
0001
1000
0220
0330
,  // measure 27
1000
0000
0100
0000
1000
0100
1000
0000
,  // measure 28
0010
0000
0100
0000
0001
0100
0001
0000
,  // measure 29
0010
0001
0100
0001
,  // measure 30
0010
0010
0100
0100
,  // measure 31
1000
0010
0100
0000
0100
0000
0100
0000
,  // measure 32
0001
0010
0001
0000
0100
0000
0100
0000
,  // measure 33
0010
1000
0100
0000
1000
0000
0010
0000
,  // measure 34
2002
0000
3003
1000
,  // measure 35
1100
0010
0011
0001
,  // measure 36
0101
1000
1010
0100
,  // measure 37
0110
0001
0011
0002
,  // measure 38
0000
2000
3003
1000
,  // measure 39
1100
0010
1010
0100
,  // measure 40
0101
0010
0011
1000
,  // measure 41
1100
0000
0010
0000
0100
0001
1001
0220
,  // measure 42
0000
0330
0000
0000
;

//---------------dance-single - ----------------
#NOTEDATA:;
#CHARTNAME:;
#STEPSTYPE:dance-single;
#DESCRIPTION:;
#CHARTSTYLE:;
#DIFFICULTY:Hard;
#METER:7;
#RADARVALUES:0.420,0.438,0.306,0.089,0.123,258.000,31.000,9.000,0.000,0.000,0.000,0.000,0.000,0.420,0.438,0.306,0.089,0.123,258.000,31.000,9.000,0.000,0.000,0.000,0.000,0.000;
#CREDIT:hooky;
#OFFSET:2.347;
#BPMS:0.000=100.000
;
#STOPS:138.000=0.620
;
#DELAYS:;
#WARPS:;
#TIMESIGNATURES:0.000=4=4
;
#TICKCOUNTS:0.000=4
;
#COMBOS:0.000=1
;
#SPEEDS:0.000=1.000=0.000=0
;
#SCROLLS:0.000=1.000
;
#FAKES:;
#LABELS:0.000=Song Start
;
#NOTES:
0000
0000
0000
0000
,
0000
0000
0000
0000
,
0000
0000
0000
0000
,
1000
0000
0000
0100
0000
0000
2000
0000
0000
0000
0000
0000
3010
0000
0000
0000
,
0100
0000
0000
0001
0000
0000
0200
0000
0000
0000
0000
0000
0301
0000
0000
0000
,
0010
0000
0000
0001
0000
0000
0020
0000
0000
0000
0000
0000
0130
0000
0000
0000
,
0010
0000
0000
0001
0000
0000
2002
0000
0000
0000
3003
0000
0110
0000
0000
0000
,
1000
0000
0000
0100
0000
0000
0010
0000
0100
0000
0100
0000
0110
0000
0000
0000
,
0010
0000
0000
0001
0000
0000
0100
0000
0010
0000
0010
0000
0110
0000
0000
0000
,
0010
0000
0000
0100
0000
0000
0001
0000
1000
0000
1000
0000
1001
0000
0000
0000
,
0100
0000
0000
0010
0000
0000
1000
0000
1000
0000
0100
0000
1000
0000
0000
0000
,
0010
0010
0100
0100
0001
1000
0001
1000
,
0010
0100
0001
0001
1000
0100
0010
0010
,
0100
0100
0010
0010
0100
1000
0100
1000
,
0001
0000
1000
0000
1000
0001
0000
0001
1000
0000
1000
0001
0000
0000
1000
0000
,
0101
0100
0010
0010
1000
0001
1000
0001
,
0100
0010
1000
1000
0001
0010
0100
0100
,
0010
0010
0100
0100
0010
0001
0010
0001
,
1000
0000
0001
0000
0001
1000
0000
1000
0001
0000
0001
1000
0000
0000
0001
0000
,
0001
0000
0000
0010
0000
0000
0100
0000
0010
0000
0010
0000
0110
0000
0000
0000
,
0100
0000
0000
1000
0000
0000
0010
0000
0100
0000
0100
0000
0110
0000
0000
0000
,
0100
0000
0000
0010
0000
0000
1000
0000
0001
0000
0001
0000
1001
0000
0000
0000
,
0010
0000
0000
0100
0000
0000
0001
0000
0001
0000
0010
0000
0001
0000
0000
0000
,
0100
0000
0000
0010
0000
0000
1000
0000
0100
0000
0100
0000
1100
0000
0000
0000
,
1000
0000
0000
0010
0000
0000
0100
0000
0010
0000
0010
0000
0110
0000
0000
0000
,
0001
0000
0000
0100
0000
0000
0010
0000
0100
0000
0100
0000
0110
0000
0000
0000
,
1000
0000
0000
0100
0000
0000
0010
0000
0001
0000
0000
0000
1001
0000
0000
0000
,
0100
0100
0010
0010
1000
0001
1000
0001
,
0100
0010
1000
1000
0001
0010
0100
0100
,
0010
0010
0100
0100
0010
0001
0010
0100
,
1000
0000
0000
1000
0001
0000
0000
0001
1000
0000
0000
1000
0001
0000
0000
0000
,
1010
0010
0100
0100
0001
1000
0001
1000
,
0010
0100
0001
0001
1000
0100
0010
0010
,
0100
0100
0010
0010
0100
0010
0100
0010
,
0001
0000
0000
0000
0000
0000
0000
0000
0000
0000
0000
0000
0000
0000
0000
0000
0000
0000
0000
0000
0000
0000
0000
0000
0100
0000
0000
0000
0000
0000
0000
0000
0000
0000
0000
0000
0000
0000
0000
0000
0000
0000
0000
0000
0000
0000
0000
0000
1000
0000
0000
0000
0000
0000
0000
0000
0000
0000
0000
0000
0000
0000
0000
0000
0000
0000
0000
0000
0000
0000
0000
0000
0100
0000
0000
0000
0000
0000
0000
0000
0000
0000
0000
0000
0000
0000
0000
0000
0000
0000
0000
0000
0000
0000
0000
0000
2002
3003
0000
0000
0000
0000
0000
0000
0000
0000
0000
0000
0000
0000
0000
0000
0000
0000
0000
0000
0000
0000
0000
0000
0000
0000
0000
0000
0000
0000
0000
0000
0000
0000
0000
0000
0000
0000
0000
0000
0000
0000
0000
0000
0000
0000
0000
0000
1000
0000
0000
0000
0000
0000
0000
0000
0000
0000
0000
0000
0000
0000
0000
0000
0000
0000
0000
0000
0000
0000
0000
0000
1000
0000
0000
0000
0000
0000
0000
0000
0000
0000
0000
0000
0000
0000
0000
0000
0000
0000
0000
0000
0000
0000
0000
0000
,
1100
0000
0100
0100
0110
0000
0001
0001
,
0011
0000
0010
0010
1010
0000
0100
0010
,
0110
0000
1000
0100
1100
0000
0001
0010
,
0110
0000
1000
0010
0110
0000
0001
0010
,
0110
0000
1000
0001
0110
0000
0010
1000
,
0101
0000
0100
0010
1010
0000
0100
0001
,
0011
0000
0100
1000
0011
0001
0110
2002
,
0000
3003
0000
0000
;

//---------------dance-single - JOKE----------------
#NOTEDATA:;
#CHARTNAME:JOKE;
#STEPSTYPE:dance-single;
#DESCRIPTION:JOKE;
#CHARTSTYLE:;
#DIFFICULTY:Edit;
#METER:9999;
#RADARVALUES:0.137,1.000,0.000,0.000,0.454,97.000,0.000,0.000,0.000,0.000,0.000,0.000,0.000,0.137,1.000,0.000,0.000,0.454,97.000,0.000,0.000,0.000,0.000,0.000,0.000,0.000;
#CREDIT:hooky;
#OFFSET:2.347;
#BPMS:0.000=100.000
;
#STOPS:;
#DELAYS:;
#WARPS:;
#TIMESIGNATURES:0.000=4=4
;
#TICKCOUNTS:0.000=4
;
#COMBOS:0.000=1
;
#SPEEDS:0.000=1.000=0.000=0
;
#SCROLLS:0.000=1.000
;
#FAKES:;
#LABELS:0.000=Song Start
;
#NOTES:
0000
0000
0000
0000
,
0000
0000
0000
0000
,
0000
0000
0000
0000
,
0000
0000
0000
0000
,
0000
0000
0000
0000
,
0000
0000
0000
0000
,
0000
0000
0000
0000
,
0000
0000
0000
0000
,
0000
0000
0000
0000
,
0000
0000
0000
0000
,
0000
0000
0000
0000
,
0000
0000
0000
0000
,
0000
0000
0000
0000
,
0000
0000
0000
0000
,
0000
0000
0000
0000
,
0000
0000
0000
0000
,
0000
0000
0000
0000
,
0000
0000
0000
0000
,
0000
0000
0000
0000
,
0000
0000
0000
0000
,
0000
0000
0000
0000
,
0000
0000
0000
0000
,
0000
0000
0000
0000
,
0000
0000
0000
0000
,
0000
0000
0000
0000
,
0000
0000
0000
0000
,
0000
0000
0000
0000
,
0000
0000
0000
0000
,
0000
0000
0000
0000
,
0000
0000
0000
0000
,
0000
0000
0000
0000
,
0000
0000
0000
0000
,
0000
0000
0000
0000
,
0000
0000
0000
0000
,
0000
0000
0000
0000
0000
0000
0000
0000
0000
0000
0000
0000
0000
0000
0000
0000
0000
0000
0000
0000
0000
0000
0000
0000
0000
0000
0000
0000
0000
0000
0000
0000
0000
0000
0000
0000
0000
0000
0000
0000
0000
0000
0000
0000
0000
0000
0000
0000
0000
0000
0000
0000
0000
0000
0000
0000
0000
0000
0000
0000
0000
0000
0000
0000
0000
0000
0000
0000
0000
0000
0000
0000
0000
0000
0000
0000
0000
0000
0000
0000
0000
0000
0000
0000
0000
0000
0000
0000
0000
0000
0000
0000
0000
0000
0000
0000
1000
0100
0010
0001
0010
0100
1000
0100
0010
0001
0010
0100
1000
0100
0010
0001
0010
0100
1000
0100
0010
0001
0010
0100
1000
0100
0010
0001
0010
0100
1000
0100
0010
0001
0010
0100
1000
0100
0010
0001
0010
0100
1000
0100
0010
0001
0010
0100
1000
0100
0010
0001
0010
0100
1000
0100
0010
0001
0010
0100
1000
0100
0010
0001
0010
0100
1000
0100
0010
0001
0010
0100
1000
0100
0010
0001
0010
0100
1000
0100
0010
0001
0010
0100
1000
0100
0010
0001
0010
0100
1000
0100
0010
0001
0010
0100
,
1000
0000
0000
0000
;
