#TITLE:Stay my side;
#SUBTITLE:;
#ARTIST:DJ Yoshitaka feat. RINA;
#TITLETRANSLIT:;
#SUBTITLETRANSLIT:;
#ARTISTTRANSLIT:;
#GENRE:;
#CREDIT:;
#MENUCOLOR:ddrpurple;
#METERTYPE:DDR;
#BANNER:Stay my side.png;
#BACKGROUND:Stay my Side-bg.png;
#LYRICSPATH:;
#CDTITLE:;
#MUSIC:Stay my side.mp3;
#OFFSET:-2.200;
#SAMPLESTART:0.000;
#SAMPLELENGTH:12.000;
#SELECTABLE:YES;
#LISTSORT:;
#BPMS:0.000=100.000;
#STOPS:;
#BGCHANGES:;
#ATTACKS:;

//---------------dance-single - ----------------
#NOTES:
     dance-single:
     :
     Beginner:
     1:
     0.066,0.079,0.000,0.000,0.000: // measure 1
1000
0000
0000
0000
,  // measure 2
0000
0001
0000
0000
,  // measure 3
0000
0100
0000
0000
,  // measure 4
0000
0010
0000
0000
,  // measure 5
0000
1000
0000
0000
,  // measure 6
0000
1000
0000
0000
,  // measure 7
0000
0001
0000
0000
,  // measure 8
0000
0001
0000
0000
,  // measure 9
0000
0010
0000
0000
,  // measure 10
0000
0010
0000
0000
,  // measure 11
0000
0100
0000
0100
,  // measure 12
0000
0010
0000
0010
,  // measure 13
0000
0000
1000
0000
,  // measure 14
1000
0000
0000
0001
,  // measure 15
0000
1000
0000
1000
,  // measure 16
0000
0100
0000
1000
,  // measure 17
0000
0001
0000
0000
,  // measure 18
0000
1000
0000
0000
,  // measure 19
0000
0001
0000
0100
,  // measure 20
0000
0000
0000
0000
,  // measure 21
1000
0000
0000
0100
,  // measure 22
0000
0000
0000
0001
,  // measure 23
0000
0000
0000
0000
,  // measure 24
0000
1000
0000
0000
,  // measure 25
0001
0000
0000
0000
,  // measure 26
1000
0000
0000
0000
,  // measure 27
0000
0100
0000
0000
,  // measure 28
0000
1000
0000
0000
,  // measure 29
0000
0001
0000
1000
,  // measure 30
0000
0010
0000
0000
,  // measure 31
0000
0100
0000
0000
,  // measure 32
0000
0010
0000
0000
,  // measure 33
0000
1000
0000
0000
,  // measure 34
0000
0000
0001
0000
,  // measure 35
0000
0100
0000
0000
,  // measure 36
0000
0010
0000
0000
,  // measure 37
0000
1000
0000
0000
,  // measure 38
0000
0001
0000
0000
,  // measure 39
0000
1000
0000
0000
,  // measure 40
0000
0010
0000
0000
,  // measure 41
0000
0010
0000
0000
;

//---------------dance-single - ----------------
#NOTES:
     dance-single:
     :
     Medium:
     5:
     0.235,0.275,0.029,0.039,0.000: // measure 1
1000
0001
1000
0000
0010
0000
0000
0000
,  // measure 2
0000
1000
0100
0000
,  // measure 3
0000
0000
0100
0000
1000
0100
0000
0000
,  // measure 4
0000
0000
0001
0000
1000
0001
0000
0000
,  // measure 5
0000
0000
0100
0000
0010
0100
0000
0000
,  // measure 6
0001
1000
0001
0000
1000
0001
0000
0000
,  // measure 7
0000
0000
0100
0000
0010
0100
0000
0000
,  // measure 8
1000
0001
1000
0000
0001
1000
0000
0000
,  // measure 9
0100
0010
0100
0000
1000
0000
0100
0000
,  // measure 10
0010
0001
1000
0100
,  // measure 11
0000
0001
0001
1000
,  // measure 12
1000
0000
0100
0000
0100
0100
0000
0000
,  // measure 13
0000
0000
1000
0001
,  // measure 14
1000
0000
0001
0100
0010
0100
0000
0000
,  // measure 15
0000
1000
0100
1000
,  // measure 16
0001
0000
0100
0000
0010
0100
0000
0100
,  // measure 17
0010
1000
0001
1000
,  // measure 18
0100
1000
0100
0000
0010
0000
0100
0000
,  // measure 19
0001
0200
0302
2003
,  // measure 20
3200
1300
1000
0001
,  // measure 21
1001
0100
0010
0110
,  // measure 22
1000
0100
1000
0000
0001
0000
0000
0000
,  // measure 23
0000
0100
1000
0100
,  // measure 24
0010
0100
1000
1000
,  // measure 25
1000
0000
1001
0000
0001
0100
0000
0000
,  // measure 26
0000
0000
1000
0000
1000
0010
0000
0000
,  // measure 27
0010
0100
0001
0000
1000
0010
0100
0000
,  // measure 28
0001
1000
0001
0000
0000
0000
0000
0000
,  // measure 29
1000
0100
1000
0000
0010
0000
0010
0000
,  // measure 30
0100
0100
0001
1000
,  // measure 31
1000
0100
1000
0001
,  // measure 32
1000
0000
0001
0000
1000
0001
0000
0100
,  // measure 33
0010
0100
0010
0000
1000
0000
1000
0000
,  // measure 34
0001
0000
0001
0000
1000
0001
0000
0000
,  // measure 35
0010
0000
0100
0000
0010
0100
0000
0000
,  // measure 36
1000
0000
0001
0000
1000
0001
0000
0010
,  // measure 37
0100
0000
1000
1000
,  // measure 38
0001
0000
0001
0000
1000
1000
0000
0000
,  // measure 39
0100
0000
0010
0000
0100
0010
0000
0000
,  // measure 40
1000
0000
0001
0000
1000
0001
0000
0001
,  // measure 41
0010
0100
0000
0000
0000
0000
0000
0000
;

//---------------dance-single - ----------------
#NOTES:
     dance-single:
     :
     Hard:
     7:
     0.383,0.336,0.098,0.176,0.103: // measure 1
1000
0000
0000
0000
0001
0000
0000
0100
0010
0000
0100
0000
0000
0000
0001
0000
,  // measure 2
1000
0000
0010
0000
1000
0000
0000
0100
0010
0000
0100
0000
0000
0000
1000
0000
,  // measure 3
0100
0000
0010
0000
0001
0000
0000
1000
0001
0000
1000
0000
0000
0000
0001
0000
,  // measure 4
1000
0000
0010
0000
1000
0000
0000
0001
1000
0000
0010
0000
0000
0000
1000
0000
,  // measure 5
0001
0000
0010
0000
0100
0000
0000
0010
0001
0000
0010
0000
0000
0000
0100
0000
,  // measure 6
1000
0000
0100
0000
0010
0000
0000
0001
1000
0000
0001
0000
0000
0000
1000
0000
,  // measure 7
0010
0000
0100
0000
0010
0000
0000
1000
0010
0000
1000
0000
0000
0000
0001
0000
,  // measure 8
0100
0000
0010
0000
0100
0000
0000
0001
0100
0000
0001
0000
0000
0000
1000
0000
,  // measure 9
0010
0100
0001
0000
2000
0000
3020
0000
,  // measure 10
0230
0000
0000
0000
0301
0000
0000
0001
0000
0000
1000
0000
0000
0000
0000
0000
,  // measure 11
0010
0100
0002
0000
0203
0000
0320
0000
,  // measure 12
1030
0000
1000
0000
0001
0000
0000
0010
0000
0000
0100
0000
0000
0000
1000
0000
,  // measure 13
0100
0001
0100
0000
2000
0000
3200
0000
,  // measure 14
0320
0000
0031
0001
1000
0100
0000
0010
,  // measure 15
0001
0000
1000
0000
0001
0000
0000
0000
0100
0000
0001
0000
1000
0000
0000
0001
,  // measure 16
0000
0100
0010
0000
0010
0110
0000
0001
,  // measure 17
0100
0010
0100
0000
0001
2000
0000
3010
,  // measure 18
0100
0002
0000
0000
0003
0000
0001
1000
,  // measure 19
0100
1000
0002
0000
1003
0200
0000
0000
,  // measure 20
1300
0010
0100
0000
0110
0000
1001
0000
,  // measure 21
0110
0000
0000
0000
1000
0000
0000
0001
0000
0000
0100
0000
0000
0000
0000
0000
,  // measure 22
0010
0000
1000
0000
0001
0000
0000
1000
0000
0000
0010
0000
0000
0000
0000
0000
,  // measure 23
0100
0001
2000
0000
3001
0200
0000
0310
,  // measure 24
0010
0110
0000
1000
1000
0001
0001
1000
,  // measure 25
1000
0010
0100
0000
0001
0100
0010
0000
,  // measure 26
1000
0001
0100
0000
0000
0010
1000
0001
,  // measure 27
1000
0010
0110
0000
0001
0100
0020
0000
,  // measure 28
1030
0010
0100
0010
1000
0001
0000
0000
,  // measure 29
1000
0010
1010
0000
0001
0100
0101
0000
,  // measure 30
0010
1000
1010
0000
0000
0000
0001
0100
,  // measure 31
0010
0100
0001
0000
1000
0001
0100
0010
,  // measure 32
0100
0001
2000
0000
3010
0100
0000
0001
,  // measure 33
1000
0000
1001
0000
0010
0000
0000
0100
0010
0000
0100
0000
0000
0000
0001
0000
,  // measure 34
1000
0000
0010
0000
1000
0000
0000
0001
1000
0000
0001
0000
0000
0000
0001
0000
,  // measure 35
0100
0000
0010
0000
0100
0000
0000
0001
0100
0000
0010
0000
0000
0000
1000
0000
,  // measure 36
0010
0000
0100
0000
0010
0000
0000
1000
0010
0000
0100
0000
0000
0000
0001
0000
,  // measure 37
0100
0000
0010
0000
0100
0000
0000
0001
1000
0000
0001
0000
0000
0000
0100
0000
,  // measure 38
0010
0000
1000
0000
0010
0000
0000
0100
0010
0000
0100
0000
0000
0000
0001
0000
,  // measure 39
1000
0000
0010
0000
1000
0000
0000
0001
0100
0000
0010
0000
0000
0000
1000
0000
,  // measure 40
0010
0000
0100
0000
0010
0000
0000
1000
0100
0000
0010
0000
0000
0000
0001
0000
,  // measure 41
1000
0020
0000
0000
0030
0000
0000
0000
;

//---------------dance-single - ----------------
#NOTES:
     dance-single:
     :
     Easy:
     3:
     0.152,0.138,0.000,0.000,0.000: // measure 1
1000
0000
0001
1000
,  // measure 2
0000
0100
0010
0000
,  // measure 3
0000
1000
0001
0000
,  // measure 4
0000
0100
0010
0000
,  // measure 5
0000
1000
0001
0000
,  // measure 6
0000
0001
1000
0000
,  // measure 7
0000
1000
0100
0000
,  // measure 8
0000
0100
0010
0000
,  // measure 9
0000
0010
0100
0010
,  // measure 10
0000
1000
1000
0000
,  // measure 11
0000
0001
0001
0001
,  // measure 12
0000
0100
0100
0100
,  // measure 13
0000
0000
0010
0010
,  // measure 14
0010
0000
0000
0100
,  // measure 15
0000
1000
1000
1000
,  // measure 16
0000
0001
0001
0000
,  // measure 17
0000
1000
0100
1000
,  // measure 18
0000
0100
0010
0000
,  // measure 19
0000
0100
0001
0100
,  // measure 20
0000
0010
0010
0100
,  // measure 21
0100
0001
0000
1000
,  // measure 22
0000
0100
0000
1000
,  // measure 23
0000
1000
0001
1000
,  // measure 24
0100
1000
0000
0001
,  // measure 25
0000
0100
0010
0000
,  // measure 26
0000
0100
0010
0100
,  // measure 27
0001
0100
0000
1000
,  // measure 28
0100
0001
0100
1000
,  // measure 29
0000
1000
0001
1000
,  // measure 30
0000
0010
0100
0010
,  // measure 31
1000
0010
0000
0100
,  // measure 32
0001
0100
0010
0000
,  // measure 33
0000
1000
0001
1000
,  // measure 34
0000
0100
0010
0100
,  // measure 35
0000
0001
1000
0001
,  // measure 36
0000
1000
0010
0100
,  // measure 37
0000
0001
0100
0010
,  // measure 38
0000
1000
0010
0100
,  // measure 39
0000
0001
0100
0010
,  // measure 40
0000
1000
0010
0100
,  // measure 41
0001
0100
0000
0000
;
