#TITLE:Starry Eyed;
#SUBTITLE:;
#ARTIST:Ellie Goulding;
#TITLETRANSLIT:;
#SUBTITLETRANSLIT:;
#ARTISTTRANSLIT:;
#GENRE:;
#CREDIT:;
#MENUCOLOR:;
#METERTYPE:DDR X;
#BANNER:[Falling in Love] - Starry Eyed.png;
#JACKET:[Falling in Love] - Starry Eyed-jacket.png;
#BACKGROUND:[Falling in Love] - Starry Eyed-bg.png;
#LYRICSPATH:;
#CDTITLE:;
#MUSIC:[Falling in Love] - Starry Eyed.mp3;
#OFFSET:-0.060;
#SAMPLESTART:33.620;
#SAMPLELENGTH:15.000;
#SELECTABLE:YES;
#LISTSORT:;
#DISPLAYBPM:150.000;
#BPMS:0.000=150.050;
#STOPS:148.500=0.800
;
#BGCHANGES:-0.250=[Falling in Love] - Starry Eyed.avi=1.000=0=0=0,
99999=-nosongbg-=1.000=0=0=0 // don't automatically add -songbackground-
;
#ATTACKS:;

//---------------dance-single - ----------------
#NOTES:
     dance-single:
     :
     Hard:
     7:
     0.512,0.526,0.583,0.163,0.023:
1000
0100
0100
0000
,
0101
0000
0000
0001
0000
0001
0100
0000
,
0000
0010
1000
0000
,
0000
0000
0000
0010
0000
0010
0010
0010
,
0000
0101
0101
0000
,
1100
0000
0000
0000
2000
0000
0000
0000
3010
0000
0000
0100
0000
0000
0010
0000
,
0000
0000
2000
0000
0000
3001
0010
0000
,
0100
0010
0000
0010
0001
0000
0000
0000
,
1001
1001
1001
1001
,
0011
0000
1100
0000
1000
0001
0001
0001
,
0100
0010
1000
1010
,
0100
0000
1000
0000
0010
1000
0001
0100
,
0000
0001
0000
0000
0001
0010
0000
0100
,
0000
0000
0000
1000
0100
0001
0100
0000
,
1000
0010
0100
0101
,
0001
0000
0010
0000
0001
1000
1000
1000
,
0000
0100
0000
0000
0000
0011
0000
0001
,
0000
0000
1000
1000
0100
0010
0100
1000
,
0010
0000
0110
0000
0110
0000
0000
0100
,
0001
0000
0000
0010
0000
0000
0001
0000
0100
0000
0010
0000
0100
0000
0000
0000
,
0010
1000
0100
0010
0001
1000
0100
1000
,
0001
0100
0001
0011
,
1000
0000
0100
0000
1000
0010
0010
0010
,
0000
0100
0000
0001
1000
0000
1100
0000
,
0100
0000
0110
0010
0100
1000
0010
0100
,
0001
1001
1000
2010
,
3001
0000
0011
0000
0010
0100
0100
0010
,
0000
0100
0000
1000
0001
0000
0101
0000
,
0001
0000
1010
1000
0100
0010
0001
2000
,
0000
3100
0000
0100
2000
0000
3010
0000
,
1100
0000
0000
0000
1000
1100
0000
1001
,
0000
0000
0000
0100
0002
0000
0013
0000
,
0101
0000
0000
0000
0001
0101
0000
1001
,
1000
0000
0010
1000
0100
0000
1100
0000
,
1000
0000
0001
0100
0010
0100
0010
0100
,
0001
0000
0001
1000
0100
0000
1100
0000
,
1000
0010
1000
0010
0100
0001
0010
0200
,
0000
1300
1100
0000
1010
0000
0110
0000
,
0100
0001
0010
0100
0000
1000
0000
0020
,
0130
0000
0101
0000
0001
0000
1001
1000
,
0100
1000
0010
0100
0001
0000
1001
0000
,
1000
0000
1010
0000
0010
0000
0110
0100
,
0001
0010
0100
1000
0001
0000
0101
0000
,
1000
0000
1100
0000
0100
0010
0100
1000
,
0001
0100
0010
2000
0000
3100
0000
0020
,
0130
0110
1001
0000
,
0001
0101
0000
0110
0000
0000
0000
0020
,
0130
0110
1001
0000
,
1000
1100
0000
0110
0000
0000
0000
0010
,
0002
0103
1010
0100
,
0000
0100
0000
0100
,
1000
0000
0000
0010
0000
0000
0100
0000
0002
0000
0000
0000
0000
0000
0000
0000
,
0000
2000
0003
0000
0000
0000
0000
0000
0000
0000
0000
0000
0000
0000
0000
0000
,
3000
0000
0000
0000
;

//---------------dance-single - ----------------
#NOTES:
     dance-single:
     :
     Medium:
     6:
     0.397,0.456,0.292,0.152,0.012:
0000
0010
0010
0000
,
0000
0000
0000
1000
0000
0001
0100
0000
,
0000
0010
1000
0000
,
0000
0000
0000
0001
0000
0001
0001
0000
,
0000
0010
0010
0000
,
0000
0200
2300
3010
,
0000
0200
0000
0301
,
0010
0010
0110
0000
,
1000
0001
1000
0001
,
0010
0000
0100
0000
0010
0100
0010
0000
,
0100
0000
1100
1000
,
1001
0000
0101
0001
,
1001
0000
0010
1000
,
0001
0000
0100
0000
0010
1000
0001
0000
,
1001
0000
0110
0010
,
1010
0000
0110
0010
,
0011
0000
0001
1000
,
0100
0000
0010
0000
0001
1000
0100
0000
,
0000
0000
0010
0000
1000
0000
0000
0001
,
0200
0000
0000
0000
,
0310
1000
0010
1000
0100
1000
0100
1000
,
0001
0100
0001
0101
,
1000
0100
1000
1100
,
0010
0100
0010
0110
,
1000
0000
0100
0010
0001
0100
0001
1000
,
0100
0010
0100
1100
,
1000
0001
1000
0101
,
0001
0010
0001
1100
,
0010
0000
1000
0010
0100
0001
1000
0200
,
0000
0310
0000
0000
0200
0000
1300
0000
,
1010
0000
0000
0000
0000
0010
0000
0010
,
0000
0200
0301
0011
,
0000
0000
0000
0000
0000
0010
0000
0010
,
0000
0000
2000
3010
,
0110
0000
0100
0100
,
0001
0010
0100
1000
,
0001
0000
1000
0001
0100
0001
1000
0200
,
0000
1300
1100
0000
1001
0000
0001
0000
,
0100
0001
0100
0000
0010
0000
0100
0000
,
1000
0001
1000
1000
,
0001
0100
0001
0100
0001
0000
0010
0000
,
0001
0011
0100
1000
,
0100
1000
0001
0000
0100
0000
0001
0000
,
0100
0001
1000
0000
0010
1000
0010
1000
,
0100
0010
0001
2000
0000
3001
0000
0000
,
0200
0301
0011
0000
,
0000
0010
0000
0010
0000
0000
0000
0000
,
0200
0000
1300
0000
1010
0010
0100
0001
,
0000
1000
0000
0001
0000
0010
0000
0100
,
0000
1000
0001
0100
,
0010
1010
1000
1000
,
0001
0000
0000
0010
0000
0000
0200
0000
0000
0000
0000
0000
0000
0000
0000
0300
,
0000
1000
0000
0000
0000
0000
0000
0000
0000
0000
0000
0000
0000
0000
0000
0000
;

//---------------dance-single - ----------------
#NOTES:
     dance-single:
     :
     Easy:
     4:
     0.337,0.451,0.303,0.175,0.000: // measure 1
0000
0010
0010
0000
,  // measure 2
0000
0000
1000
0100
,  // measure 3
0001
0010
0001
0000
,  // measure 4
0001
0100
1000
0010
,  // measure 5
1000
0010
1000
0000
,  // measure 6
0002
1000
0010
1003
,  // measure 7
0000
2000
0000
3001
,  // measure 8
0010
0001
1000
0000
,  // measure 9
1000
1000
0001
0001
,  // measure 10
0010
0010
0100
0100
,  // measure 11
1000
0000
1100
0000
,  // measure 12
0001
0000
0101
0000
,  // measure 13
0010
0000
0110
0000
,  // measure 14
1000
0100
0001
0000
,  // measure 15
1000
0000
1010
0000
,  // measure 16
0001
0000
0011
0000
,  // measure 17
0100
0000
0110
0000
,  // measure 18
0001
0010
1000
0000
,  // measure 19
0010
0100
0010
0000
,  // measure 20
1000
0100
0010
0001
,  // measure 21
2000
3001
0020
0130
,  // measure 22
0110
1001
0110
1001
,  // measure 23
1000
0100
1000
0001
,  // measure 24
0100
0001
0100
0010
,  // measure 25
1000
0001
1001
1001
,  // measure 26
0110
1001
0110
1001
,  // measure 27
1000
0100
0010
0001
,  // measure 28
1000
0001
1000
0100
,  // measure 29
0010
0001
0010
0100
,  // measure 30
2000
0000
0010
0010
,  // measure 31
3010
0000
0100
0100
,  // measure 32
0002
0000
0010
0010
,  // measure 33
0013
0000
0100
0100
,  // measure 34
2000
0000
0010
0010
,  // measure 35
3010
0000
0001
1000
,  // measure 36
1001
1000
0100
1000
,  // measure 37
1001
0001
0100
0001
,  // measure 38
2000
3000
1001
0110
,  // measure 39
1001
0110
1000
0100
,  // measure 40
1000
0001
0100
0001
,  // measure 41
0100
0010
0110
1001
,  // measure 42
0110
1001
1000
0100
,  // measure 43
0010
0100
1000
0001
,  // measure 44
1000
0100
0010
0001
,  // measure 45
0010
1000
0020
0000
,  // measure 46
0130
0000
0200
0000
,  // measure 47
1300
0000
2000
0000
,  // measure 48
3001
0000
0002
0000
,  // measure 49
0103
0000
0200
0000
,  // measure 50
0310
0000
0020
0000
,  // measure 51
0130
0000
0000
0000
,  // measure 52
2000
0000
3001
0000
;
