#TITLE:Simple and Clean;
#SUBTITLE:;
#ARTIST:宇多田ひかる;
#TITLETRANSLIT:;
#SUBTITLETRANSLIT:;
#ARTISTTRANSLIT:Utada Hikaru;
#CREDIT:;
#BANNER:banner.png;
#BACKGROUND:bg.png;
#LYRICSPATH:;
#CDTITLE:;
#MUSIC:Simple and Clean.mp3;
#OFFSET:-11.000;
#SAMPLESTART:43.680;
#SAMPLELENGTH:12.000;
#SELECTABLE:YES;
#BPMS:0.000=88.000;
#STOPS:;
#BGCHANGES:;

//---------------dance-single - ----------------
#NOTES:
     dance-single:
     :
     Beginner:
     1:
     0.073,0.073,0.000,0.083,0.000:
0001
0000
0000
0000
,
0010
0000
0000
0000
,
0100
0000
0000
0000
,
0010
0000
0000
0000
,
0001
0000
1000
0000
,
0001
0000
0000
0000
,
1000
0000
0001
0000
,
1000
0000
0000
0000
,
0010
0000
0100
0000
,
0010
0000
0000
0000
,
0100
0000
0010
0000
,
0100
0000
0000
0000
,
0002
0000
0003
0000
,
0020
0000
0030
0000
,
0200
0000
0300
0000
,
2000
0000
3000
0000
,
0010
0000
0010
0000
,
0100
0000
0100
0000
,
0001
0000
0001
0000
,
1000
0000
1000
0000
,
2000
0000
3000
0000
,
0020
0000
0030
0000
,
0200
0000
0300
0000
,
0002
0000
0003
0000
,
0010
0000
0001
0000
,
0010
0000
0001
0000
,
1000
0000
0100
0000
,
1000
0000
0100
0000
,
1000
0000
0000
0000
;

//---------------dance-single - ----------------
#NOTES:
     dance-single:
     :
     Easy:
     2:
     0.165,0.196,0.000,0.135,0.000: // measure 1
1000
0010
0100
0000
,  // measure 2
0001
0010
0001
0000
,  // measure 3
1000
0100
1000
0000
,  // measure 4
0001
0010
0001
0000
,  // measure 5
0100
0010
1000
0001
,  // measure 6
1000
0010
0100
0000
,  // measure 7
0001
0010
0100
1000
,  // measure 8
0100
0010
0001
0000
,  // measure 9
0001
0100
1000
0100
,  // measure 10
0001
0010
1000
0010
,  // measure 11
0001
0000
0100
0010
,  // measure 12
1000
0100
0010
0001
,  // measure 13
2000
0001
3001
0000
,  // measure 14
0002
1000
1003
0000
,  // measure 15
0020
0100
0100
0130
,  // measure 16
0200
0010
0010
0310
,  // measure 17
1000
0100
1000
0010
,  // measure 18
1000
0001
1000
0010
,  // measure 19
0100
0001
0100
0010
,  // measure 20
0100
1000
0100
0010
,  // measure 21
0002
0000
0100
0000
,  // measure 22
0100
0100
0103
0000
,  // measure 23
2000
0000
0010
0000
,  // measure 24
0010
0010
3010
0000
,  // measure 25
2000
3100
0020
0031
,  // measure 26
0200
0310
2000
3001
,  // measure 27
0020
0031
2000
3100
,  // measure 28
1000
0010
0100
0001
,  // measure 29
0020
0000
0000
0000
,  // measure 30
0030
0000
0000
0000
;

//---------------dance-single - ----------------
#NOTES:
     dance-single:
     :
     Medium:
     4:
     0.213,0.196,0.010,0.021,0.000:
1000
0000
0010
0000
0100
0001
0100
0000
,
0010
0000
1000
0000
0100
1000
0100
0000
,
0010
0000
0001
0000
1000
0100
1000
0000
,
0010
0000
0100
0000
0001
0010
0010
0000
,
0001
0000
0100
0000
0010
1000
0100
0000
,
1000
0000
0010
0000
0100
0001
0010
0000
,
0001
0000
0100
0000
1000
0100
0001
0000
,
0010
0000
0001
0000
1000
0010
0001
0000
,
0100
0000
0010
0000
1000
0100
0010
0000
,
0100
1000
0010
0100
,
0001
0000
0000
0001
0010
0000
0001
0000
,
0100
0010
1000
0001
,
0010
0000
0001
0000
0100
0010
0100
0000
,
0010
0000
1000
0000
0100
1000
0100
0000
,
1000
0000
0010
0000
0100
0001
0100
0000
,
0001
0000
0010
0000
0100
1000
0100
0000
,
0010
0000
0001
0000
0100
0000
0010
1000
,
0100
0000
1000
0000
0010
0000
0100
0001
,
0010
0000
0001
0000
0100
0000
0010
1000
,
0001
0010
0100
1000
,
0010
0000
0100
0001
0010
0000
0100
1000
,
0010
0000
0010
1000
0100
0000
0010
0001
,
0100
0000
0100
0001
1000
0000
0100
1000
,
0001
0000
0001
1000
0010
0000
0010
1000
,
0100
0000
0010
0000
0001
0100
0010
0000
,
0100
0000
0001
0000
0010
0100
1000
0000
,
0010
0000
1000
0000
0100
0010
0001
0000
,
0100
0010
1000
0001
,
2002
0000
0000
0000
,
3003
0000
0000
0000
;

//---------------dance-single - ----------------
#NOTES:
     dance-single:
     :
     Hard:
     6:
     0.293,0.256,0.000,0.010,0.177:
0010
0000
0000
0010
1000
0000
0000
0000
0100
0000
0010
0001
0010
0000
0001
0000
,
0100
0000
0000
0100
0010
0000
0000
0000
1000
0000
0100
1000
0001
0000
1000
0000
,
0100
0000
0000
0100
0010
0000
0000
0000
1000
0000
0001
0010
0001
0000
1000
0000
,
0100
0000
0000
0100
0010
0000
0000
0000
0001
0000
0010
0000
1000
0000
0100
0000
,
0001
0000
0100
0000
0001
0000
0010
0000
0100
0000
1000
0100
0000
0000
0010
0000
,
0000
0000
0001
0000
0100
0000
0010
0000
1000
0000
0100
1000
0000
0000
0010
0000
,
0100
0000
0000
0000
0001
0000
0010
0001
0000
0000
0100
0000
0010
0000
1000
0000
,
0100
1000
0001
0100
0010
1000
0100
1000
,
0010
0000
0000
0000
0100
0000
0001
0010
0000
0000
0001
0000
0000
0100
0000
0000
,
0010
1000
0100
1000
,
0001
0000
0100
0000
0001
0000
0010
0001
0000
0000
0100
0000
0010
0000
1000
0000
,
0100
0000
0000
1000
0000
0000
0010
0000
0100
0000
0000
0000
0001
0000
0000
0000
,
0010
0000
0000
0001
0000
0000
0100
0000
0000
0010
0000
0000
1000
0000
0000
0000
,
0100
0000
0000
1000
0000
0000
0010
0000
0000
0100
0000
0000
0001
0000
0000
0000
,
0010
0001
0100
0010
1000
0100
0010
0001
,
0001
0000
0100
0010
0000
0000
1000
0000
0100
0000
1000
0000
0001
0000
0000
0000
,
0100
0000
0000
0010
0000
0000
0100
0000
0001
0000
0000
1000
0000
0000
0001
0000
,
1000
0000
0000
0010
0000
0000
0100
0000
0001
0000
0000
0010
0000
0000
0001
0000
,
0100
0000
0010
0000
1000
0000
0100
1000
0000
1000
0001
0000
0100
0000
0010
0000
,
1000
0000
0001
0000
0010
0000
0001
0100
0000
0000
0010
0000
0000
1000
0000
0000
,
0100
1000
0100
0010
0001
0010
0100
1000
,
0001
0100
0010
0100
0001
0010
0100
1000
,
0010
0000
0010
0100
0001
0010
0001
0100
,
0010
0000
1000
0100
0000
1000
0000
0001
0000
0000
0000
0000
0100
0000
0010
0000
,
1000
0000
0000
0100
0000
0000
1000
0000
0001
0000
0000
0010
0000
0000
0001
0000
,
0100
0010
1000
0001
0010
0001
0100
0010
,
1000
0000
0010
0000
0100
0001
0100
0000
0010
0000
1000
0000
0001
0000
0100
0000
,
0010
0000
0000
0000
1000
0000
0000
0000
0001
0000
0000
0010
0000
0000
0001
0000
,
0200
0000
0000
0000
,
0300
0000
0000
0000
;

//---------------dance-single - Copied from----------------
#NOTES:
     dance-single:
     Copied from:
     Challenge:
     7:
     0.394,0.317,0.031,0.021,0.265:
1000
0000
0000
1000
0010
0000
0000
0000
0100
0000
0001
0010
0001
0000
0100
0000
,
0010
0000
0000
0010
1000
0000
0000
0000
0100
0000
1000
0001
0100
0000
0010
0000
,
1000
0000
0000
1000
0010
0000
0000
0000
0100
0000
0001
0010
0001
0000
0100
0000
,
0010
0000
0000
0010
1000
0000
0000
0000
1000
0100
1000
0010
0100
0001
0010
0100
,
1000
0000
0100
0000
0010
0000
0001
0100
0001
0000
0100
0000
0010
0000
1000
0001
,
0010
0000
0100
0000
1000
0000
0100
0010
0001
0000
1000
0000
0010
0000
0100
0000
,
0001
0000
0100
0010
1000
0000
0010
0000
0100
0000
0001
0010
0001
0000
0100
0000
,
0010
0000
1000
0001
0010
0000
0100
0000
1000
0000
0100
0010
0001
0000
1000
0000
,
0010
0000
0100
0001
1000
0000
0100
0000
0010
0000
0100
1000
0001
0000
0100
0000
,
0010
0000
1000
0100
0010
0000
0100
0000
1000
0000
0001
0100
0010
0000
0100
0000
,
0001
0000
0010
0100
1000
0000
0100
0000
0010
0000
0001
0100
0001
0000
0100
0000
,
0010
0000
1000
0100
0000
0100
1000
0000
0010
0000
0100
0000
1001
0000
0000
0000
,
1000
0000
0010
0000
0100
0000
0001
0100
0001
0000
0010
0000
0100
0000
1000
0000
,
0010
0000
1000
0000
0100
0000
0001
0100
0010
0000
0100
0000
0001
0000
0010
0000
,
0100
0000
1000
0000
0010
0000
0100
0001
0010
0000
0001
0000
0100
0000
0010
0000
,
1000
0000
0100
0000
0010
0000
0100
1000
0001
0100
0010
0000
0100
0000
0001
0000
,
0010
0000
0100
0000
1000
0000
0001
0100
0010
0000
0100
0000
0001
0000
0010
0000
,
0100
0000
1000
0000
0010
0000
1000
0100
0010
0000
0100
0000
1000
0000
0001
0000
,
0100
0000
0010
0000
0100
0000
0001
0010
0001
0000
0100
0000
0010
0000
1000
0000
,
0001
0000
0010
0000
0100
0000
1000
0010
0100
0001
0010
0000
0001
0000
0100
0000
,
0010
0000
1000
0000
0100
0000
1000
0010
0100
0000
0010
0000
1000
0000
0001
0000
,
0010
0000
0100
0000
1000
0000
0100
0010
0001
0100
0010
0000
1000
0000
0001
0000
,
0010
0000
0001
0000
0100
0000
0010
1000
0100
0000
1000
0000
0010
0000
0100
0000
,
0001
0000
0010
0001
0000
0100
0000
0101
0000
0000
0100
0000
0010
0000
1000
0000
,
0100
0000
1000
0000
0010
0000
0100
0001
0010
0000
0001
0000
0100
0000
0010
0000
,
1000
0000
0001
0000
0010
0000
0100
0000
1000
0001
0100
0010
1000
0000
0010
0000
,
0100
0000
0001
0000
0010
0000
0100
1000
0100
0000
0010
0000
0001
0000
0100
0000
,
0010
0000
0000
0010
1000
0000
0000
1000
0100
0000
0010
0001
0000
1000
0010
0000
,
2002
0000
0000
0000
,
3003
0000
0000
0000
;
