#TITLE:Romance;
#SUBTITLE:;
#ARTIST:Rockミ★TAKA with 明星&三上;
#TITLETRANSLIT:;
#SUBTITLETRANSLIT:;
#ARTISTTRANSLIT:Rock Star TAKA with MYOJO & MIKAMI;
#CREDIT:DigiMindAxel;
#BANNER:Romance.png;
#BACKGROUND:Romance-bg.png;
#LYRICSPATH:;
#CDTITLE:ee'MALL.png;
#MUSIC:Romance.mp3;
#OFFSET:-9.780;
#SAMPLESTART:28.386;
#SAMPLELENGTH:12.000;
#SELECTABLE:YES;
#BPMS:0.000=206.000;
#STOPS:;
#BGCHANGES:;

//---------------dance-single - ----------------
#NOTES:
     dance-single:
     :
     Easy:
     4:
     0.298,0.299,0.136,0.051,0.000:
0001
0000
1000
0000
,
0100
0000
0010
0000
,
0001
1000
0000
1001
,
0000
1001
0000
0001
,
1000
0000
0100
0000
,
0010
0000
0002
0000
,
1003
0000
0010
0000
,
0200
0000
0300
0000
,
0010
0100
0010
0000
,
0100
0010
0100
0000
,
0001
1000
0001
0000
,
1000
0000
0001
0000
,
1000
0100
1000
0000
,
0100
1000
0100
0000
,
0010
0001
0010
0000
,
0002
0000
0000
0000
,
1003
0000
0100
0000
,
0010
0000
0001
0000
,
1000
0001
0000
1001
,
0000
1001
0000
0001
,
1000
0000
0100
0000
,
0010
0000
0001
1000
,
0001
0000
0100
0000
,
0010
0000
0100
0000
,
0001
1000
0001
0000
,
1000
0001
1000
0000
,
0010
0100
0000
0110
,
0000
0110
0000
0100
,
0010
0000
1000
0000
,
0100
0000
0010
0000
,
0001
1000
0001
0000
,
0100
0010
0100
0000
,
1001
0000
0010
0000
,
0001
1000
0001
0000
,
0010
0000
0100
0000
,
1000
0001
0000
1001
,
0000
0001
0000
1000
,
0000
0001
0100
0010
,
0100
0001
0000
1000
,
0000
0100
0000
0000
,
1000
0100
1000
0000
,
0001
0010
0001
0000
,
0100
0010
0100
0000
,
0000
0110
0000
0110
,
0000
0100
0010
0000
,
1000
0010
0100
0010
,
2000
0000
0000
0000
,
3002
0000
0000
0003
,
1000
0010
1000
0000
,
0001
0100
0001
0000
,
0100
0010
0100
0000
,
0010
0100
0010
0000
,
1000
0000
0100
0000
,
0010
0000
0001
1000
,
0001
0000
0100
0000
,
0010
0000
0100
0000
,
0001
1000
0001
0000
,
1000
0001
1000
0000
,
0010
0100
0010
0000
,
0100
0010
0100
0000
,
0001
0000
0010
0000
,
0100
0000
1000
0001
,
1000
0000
0010
0000
,
0100
0000
0001
0000
,
0010
0001
0010
0000
,
0100
1000
0100
0000
,
1000
0001
0000
1001
,
0000
1001
0000
0001
,
0100
0010
0100
0000
,
0001
0000
0100
0010
,
0200
0000
0000
0000
,
0310
0000
0000
0000
,
1000
0100
1000
0000
,
0001
0010
0001
0000
,
0100
0010
0000
0110
,
0000
0110
0000
0001
,
1000
0100
1000
0000
,
0001
0100
0001
1000
,
0001
0000
0010
0000
,
0100
0000
1000
0000
,
0010
0100
0010
0000
,
1000
0001
1000
0000
,
0010
0100
0000
0110
,
0000
0110
0000
0100
,
0001
1000
0001
1000
,
0100
0010
0001
0000
,
0100
0010
0100
0010
,
1000
0100
1000
0001
;

//---------------dance-single - ----------------
#NOTES:
     dance-single:
     :
     Medium:
     6:
     0.441,0.486,0.323,0.085,0.000:
1000
0000
0001
0100
0000
0001
0000
1000
,
0200
0000
0000
0300
,
1000
1001
0000
0110
,
0000
0000
1001
0000
0000
0000
0010
0100
,
0020
0000
0000
0230
,
0000
0000
0301
1000
,
0001
1001
0010
0100
,
1000
0001
0000
0000
,
0100
0000
0001
0100
0000
0001
0000
1000
,
0100
1000
0100
1000
,
0001
0000
0100
0001
0000
1000
0000
0001
,
0100
0001
1000
0100
,
1000
0000
0001
1000
0000
0100
0000
1000
,
0100
1000
0001
1000
,
0010
0000
1000
0001
0000
0100
0000
0001
,
1000
0000
0000
0000
,
0001
0100
0001
0000
,
0001
0100
0001
0000
,
0001
1001
0000
0110
,
0000
1001
0000
0001
,
1000
0100
0010
0001
,
1000
0100
0010
0001
,
0001
1000
0100
0000
,
1000
0001
0100
0000
,
0001
0010
0001
0000
,
0001
0010
0001
0000
,
1000
1001
0000
0110
,
0000
1001
0000
1000
,
0001
0010
0100
1000
,
0001
0010
0100
1000
,
1000
0010
0100
0000
,
0001
0100
0010
0000
,
0100
0010
0100
0010
,
1000
0100
1000
0100
,
1000
0001
1000
0001
,
0100
0110
0000
0110
,
0010
1000
0100
1000
,
0001
0100
0001
0001
,
0001
1000
0100
0010
,
0001
0010
0100
1000
,
0010
0000
0100
0000
0010
1000
0000
0000
,
0100
0000
0010
0000
0001
0100
0000
0000
,
0001
1000
0100
0010
,
0001
1001
0000
1001
,
0100
0000
0010
0000
0001
0100
0000
0000
,
0010
1000
0001
0001
,
1001
0010
0100
0001
,
0010
0100
1000
0000
,
0001
0100
0001
1000
,
0100
1000
0010
0100
,
0001
0010
0100
1000
,
0010
0100
0001
1000
,
0002
0000
0100
0000
,
1000
0000
0103
1001
,
1001
0010
0100
1000
,
0001
0100
0010
0000
,
1000
0000
0100
0000
1000
0001
1000
0000
,
0001
0100
0010
0100
,
0001
0000
1000
0001
1000
0000
0010
0000
,
1000
0000
0010
0100
0010
0000
1000
0000
,
0002
0000
1000
0000
,
0100
0000
1003
1001
,
1001
0100
0010
0001
,
0010
0100
1000
0001
,
0100
0000
0001
1000
0000
0001
1000
0000
,
0100
0001
0100
1000
,
0010
0110
0000
1100
,
0000
0000
0011
0000
0000
0000
1000
0001
,
1000
0000
0010
1000
0000
0010
1000
0000
,
0001
0000
0110
0110
,
2002
0000
0000
0000
,
3003
0000
0000
0000
,
0001
0000
0100
0001
0000
1000
0000
0010
,
2000
0000
3001
0100
,
0010
0110
0000
1010
,
0000
0101
0000
1001
,
0010
0000
0100
0000
1000
0010
0000
0200
,
0000
0301
1001
1001
,
1001
0100
0010
0001
,
1000
0010
0100
0020
0000
0000
0000
0000
,
0130
0000
0001
1000
0000
0100
0000
1000
,
0001
0010
1000
0010
,
0001
1001
0000
0101
,
0000
1010
0000
0110
,
1000
0000
0001
0000
0010
0001
0010
0000
,
0100
1000
0100
0000
1001
0000
1001
0000
,
0010
0000
0100
0000
1000
0010
1000
0000
,
0001
0100
0001
0000
0100
0010
1000
0100
;

//---------------dance-single - ----------------
#NOTES:
     dance-single:
     :
     Hard:
     9:
     0.677,0.640,0.400,0.204,0.102: // measure 1
0001
1000
0100
1000
0000
0001
0000
0100
,  // measure 2
0002
0000
0000
2003
0000
0000
3001
0000
,  // measure 3
0100
0101
0100
0110
,  // measure 4
0100
0000
1100
0000
0100
0000
0010
0001
,  // measure 5
1000
0000
0100
0000
0001
0100
1000
0000
,  // measure 6
0001
0100
0110
0110
,  // measure 7
0100
0001
0010
0000
0001
0010
0100
0000
,  // measure 8
1000
0000
1000
0000
1000
0001
0100
0001
,  // measure 9
1000
0010
0100
0001
0000
0100
0000
1000
,  // measure 10
0100
0001
0100
0020
0000
0000
1030
0001
,  // measure 11
0010
0100
1000
0100
0000
0001
0000
0100
,  // measure 12
1000
0010
0100
0010
0000
0200
0000
0000
,  // measure 13
0301
0100
0010
1000
0000
0010
0000
0001
,  // measure 14
0010
1000
0010
0200
0000
0000
0301
1000
,  // measure 15
0100
0010
0001
0100
0000
0100
0000
2002
,  // measure 16
0000
0000
0000
3003
,  // measure 17
2000
0100
0010
3100
,  // measure 18
0020
0001
0100
0031
,  // measure 19
0100
0110
0100
1100
,  // measure 20
0100
0101
0100
1001
,  // measure 21
0100
0000
0000
0000
0000
0000
0001
0000
0000
0000
0000
1000
0000
0000
0000
0000
0100
0000
0000
0000
0000
0000
0010
0000
0000
0000
0000
0100
0000
0000
0000
0000
,  // measure 22
1000
0000
0000
0000
0000
0000
0010
0000
0000
0000
0000
0100
0000
0000
0000
0000
0010
0000
0000
0000
0000
0000
0000
0000
0110
0000
0000
0000
0000
0000
0000
0000
,  // measure 23
0010
1000
0100
0000
1000
0100
0010
0000
,  // measure 24
0001
0010
0100
0000
1000
0001
0100
0001
,  // measure 25
1000
0100
0010
0001
1000
0100
1000
0000
,  // measure 26
0100
1000
0010
0100
0001
0010
0100
0000
,  // measure 27
0010
0011
0010
1010
,  // measure 28
0010
0110
0010
1001
,  // measure 29
0010
0000
0000
0000
0000
0000
0100
0000
0000
0000
0000
0001
0000
0000
0000
0000
0010
0000
0000
0000
0000
0000
0100
0000
0000
0000
0000
0010
0000
0000
0000
0000
,  // measure 30
0001
0000
0000
0000
0000
0000
0100
0000
0000
0000
0000
0010
0000
0000
0000
0000
1000
0000
0000
0000
0000
0000
0000
0000
1001
0000
0000
0000
0000
0000
0000
0000
,  // measure 31
0010
0001
0100
0000
0001
0100
0010
0000
,  // measure 32
1000
0010
0100
0000
0100
0000
0100
0000
,  // measure 33
0001
0100
1000
0000
0100
0000
0001
1000
,  // measure 34
0100
0000
1000
0100
1000
0001
0100
0001
,  // measure 35
1000
0000
0100
0000
0001
0000
0100
1000
,  // measure 36
0010
0110
0010
0110
,  // measure 37
1001
0000
1000
0100
0001
0000
0100
0000
,  // measure 38
1000
0001
0010
0000
1001
0000
1001
0000
,  // measure 39
1001
0000
0010
1000
0100
0000
1000
0100
,  // measure 40
0010
0001
0010
0001
1000
0010
0100
0010
,  // measure 41
2000
0000
3001
0010
0100
0010
0001
0100
,  // measure 42
0020
0000
1030
0100
0010
0100
1000
0001
,  // measure 43
0200
0000
0301
0010
1000
0010
0001
0000
,  // measure 44
0100
0110
0100
0110
,  // measure 45
0020
0000
1030
0100
0001
0100
1000
0001
,  // measure 46
0200
0310
1001
1001
,  // measure 47
2000
0000
3001
0100
1000
0100
0001
0200
,  // measure 48
0000
0310
1000
0002
0000
0013
0100
1000
,  // measure 49
0002
0100
0010
0103
,  // measure 50
0020
1000
0100
1030
,  // measure 51
0001
0100
0010
0000
1000
0100
0010
0000
,  // measure 52
0001
0100
0010
1000
0001
0000
1001
0000
,  // measure 53
0100
0000
0000
0000
0000
0000
0010
0000
0000
0000
0000
1000
0000
0000
0000
0000
0010
0000
0000
0000
0000
0000
0100
0000
0000
0000
0000
0010
0000
0000
0000
0000
,  // measure 54
1000
0000
0000
0000
0000
0000
0001
0000
0000
0000
0000
0100
0000
0000
0000
0000
0010
0000
0000
0000
0000
0000
0000
0000
0110
0000
0000
0000
0000
0000
0000
0000
,  // measure 55
1000
0001
0100
0000
0001
0100
0010
0000
,  // measure 56
1000
0100
0010
0000
0001
0000
1000
0100
,  // measure 57
1000
0001
0100
0001
1000
0100
0010
0000
,  // measure 58
0100
1000
0010
0100
0001
0010
0100
0000
,  // measure 59
0100
1010
0100
1010
,  // measure 60
0001
0110
0001
0110
,  // measure 61
1000
0000
0000
0000
0000
0000
0010
0000
0000
0000
0000
0100
0000
0000
0000
0000
0001
0000
0000
0000
0000
0000
0100
0000
0000
0000
0000
0010
0000
0000
0000
0000
,  // measure 62
0100
0000
0000
0000
0000
0000
0001
0000
0000
0000
0000
0100
0000
0000
0000
0000
0010
0000
0000
0000
0000
0000
0000
0000
1001
0000
0000
0000
0000
0000
0000
0000
,  // measure 63
0001
0100
0010
0000
0100
0001
0010
0000
,  // measure 64
0001
0010
0100
1000
0002
0000
1000
0000
,  // measure 65
1003
0000
0010
1000
0000
0010
1000
0000
,  // measure 66
0100
1000
0010
0100
0010
1000
0100
0010
,  // measure 67
0100
1010
0100
1010
,  // measure 68
0001
0000
0110
0000
1000
0000
0001
1000
,  // measure 69
0001
0000
0100
0001
0000
0100
0001
0010
,  // measure 70
0100
1000
0000
0000
1001
0000
1001
0000
,  // measure 71
1001
0010
0100
1000
,  // measure 72
0020
0000
0000
0030
,  // measure 73
1000
0100
1000
0001
0000
0100
0000
1000
,  // measure 74
0100
0000
0001
0010
0100
0000
0010
0100
,  // measure 75
0010
0101
0010
0101
,  // measure 76
1000
0100
0010
0001
0010
0100
1000
0001
,  // measure 77
0100
0001
1000
0100
0001
0100
1000
0020
,  // measure 78
0000
0130
0001
0000
1001
0000
1001
0000
,  // measure 79
0001
0100
0010
1000
0100
0010
0001
1000
,  // measure 80
0100
1000
0001
0200
0000
0000
0301
1000
,  // measure 81
0001
0100
0001
1000
0000
0100
0000
0001
,  // measure 82
0100
0000
1000
0100
0010
0000
0100
0010
,  // measure 83
0100
1010
0100
1010
,  // measure 84
0001
0100
0010
1000
0100
0010
0001
1000
,  // measure 85
0001
0010
1000
0010
0001
0100
0010
1000
,  // measure 86
0100
0001
0100
0000
1001
0000
1001
0000
,  // measure 87
0001
0010
1000
0010
0001
0010
0100
0010
,  // measure 88
0001
0100
1000
0100
0001
1000
0100
0020
,  // measure 89
0000
0000
0030
0000
;

//---------------dance-single - ----------------
#NOTES:
     dance-single:
     :
     Beginner:
     2:
     0.101,0.148,0.051,0.000,0.000:
1000
0000
0000
0000
,
1000
0000
0000
0000
,
1000
0000
0000
0000
,
0000
0000
0000
0000
,
0001
0000
0000
0000
,
0000
0000
0000
0000
,
1000
0000
0000
0000
,
0001
0000
0000
0000
,
0100
0000
0000
0000
,
0100
0000
0000
0000
,
0100
0000
0000
0000
,
0100
0000
0000
0000
,
0010
0000
0000
0000
,
0010
0000
0000
0000
,
0010
0000
0000
0000
,
0110
0000
0000
0000
,
1000
0000
0000
0000
,
0001
0000
0000
0000
,
1000
0000
0000
0000
,
0000
0000
0000
0000
,
0100
0000
0000
0000
,
0010
0000
0000
0000
,
0001
0000
0000
0000
,
1000
0000
0000
0000
,
0010
0000
0000
0000
,
0100
0000
0000
0000
,
0001
0000
0000
0000
,
0000
0000
0000
0000
,
0010
0000
0000
0000
,
0100
0000
0000
0000
,
1000
0000
0000
0000
,
0001
0000
0000
0000
,
1001
0000
0000
0000
,
1000
0000
0000
0000
,
0001
0000
0000
0000
,
1000
0000
0000
0000
,
0010
0000
0000
0000
,
0100
0000
0000
0000
,
0001
0000
0000
0000
,
1000
0000
0000
0000
,
0001
0000
0000
0000
,
0001
0000
0000
0000
,
0001
0000
0000
0000
,
0001
0000
0000
0000
,
1000
0000
0000
0000
,
1000
0000
0000
0000
,
1000
0000
0000
0000
,
0000
0000
0000
0000
,
1001
0000
0000
0000
,
0010
0000
0000
0000
,
0100
0000
0000
0000
,
0000
0000
0000
0000
,
0010
0000
0000
0000
,
0000
0000
0000
0000
,
0010
0000
0000
0000
,
0000
0000
0000
0000
,
1001
0000
0000
0000
,
0100
0000
0000
0000
,
0010
0000
0000
0000
,
0000
0000
0000
0000
,
0100
0000
0000
0000
,
0100
0000
0000
0000
,
0010
0000
0000
0000
,
0100
0000
0000
0000
,
1001
0000
0000
0000
,
0010
0000
0000
0000
,
0100
0000
0000
0000
,
1000
0000
0000
0000
,
0100
0000
0000
0000
,
0010
0000
0000
0000
,
0001
0000
0000
0000
,
0000
0000
0000
0000
,
1001
0000
0000
0000
,
0000
0000
0000
0000
,
1000
0000
0000
0000
,
0001
0000
0000
0000
,
0100
0000
0000
0000
,
0010
0000
0000
0000
,
0100
0000
0000
0000
,
0100
0000
0000
0000
,
0001
0000
0000
0000
,
1000
0000
0000
0000
,
0010
0000
0000
0000
,
0100
0000
0000
0000
,
0010
0000
0000
0000
,
0010
0000
0000
0000
,
1000
0000
0000
0000
,
0001
0000
0000
0000
;
