#TITLE:Miss Independent;
#SUBTITLE:;
#ARTIST:Kelly Clarkson;
#TITLETRANSLIT:;
#SUBTITLETRANSLIT:;
#ARTISTTRANSLIT:;
#GENRE:;
#CREDIT:;
#MENUCOLOR:;
#METERTYPE:DDR X;
#BANNER:[Falling in Love] - Miss Independent.png;
#JACKET:[Falling in Love] - Miss Independent-jacket.png;
#BACKGROUND:[Falling in Love] - Miss Independent-bg.png;
#LYRICSPATH:;
#CDTITLE:;
#MUSIC:[Falling in Love] - Miss Independent.mp3;
#OFFSET:-0.360;
#SAMPLESTART:54.900;
#SAMPLELENGTH:15.000;
#SELECTABLE:YES;
#LISTSORT:;
#BPMS:0.000=87.990,76.000=43.995,78.000=175.980,142.000=87.990,157.000=43.995,158.500=87.990;
#STOPS:;
#BGCHANGES:0.000=[Falling in Love] - Miss Independent.avi=1.000=0=0=0,
99999=-nosongbg-=1.000=0=0=0 // don't automatically add -songbackground-
;
#ATTACKS:;

//---------------dance-single - ----------------
#NOTES:
     dance-single:
     :
     Hard:
     8:
     0.567,0.594,0.324,0.101,0.593:
0100
1000
0100
0010
0100
0000
1000
0100
0000
0000
0000
1000
0100
1000
0001
0000
,
0100
0001
0100
0010
0100
0000
0001
0100
0000
0000
0000
0001
0100
0001
1000
0000
,
0010
1000
0010
0100
0010
0000
1000
0010
0000
0000
0000
1000
0010
1000
0001
0000
,
0010
0001
0010
0100
0010
0000
0100
0000
1100
0000
0000
0000
0011
0000
0000
0000
,
0001
1000
0010
1000
0100
0000
0010
0001
0000
0001
0000
0001
1000
0000
1020
0000
,
0130
0001
0010
0100
1000
0000
0000
0001
0000
0010
0000
1000
0001
0000
0200
0000
,
0310
1000
0010
0000
1000
0100
0010
0001
0010
0000
0001
0010
1000
0000
0000
1000
,
0010
0001
0100
0001
0100
0000
0001
1000
0100
0000
0000
0000
1001
0000
0000
0000
,
1010
0000
0100
0001
0100
0000
0000
0001
0000
0010
0000
0001
1000
0000
0200
0000
,
0310
0100
0010
0100
1000
0000
0001
0000
0100
0000
0001
0010
0000
0000
0110
0000
,
0100
1000
0001
0000
0100
0001
1000
0000
0010
1000
0010
0000
0000
0000
0000
0100
,
0000
0001
0000
0020
0000
1030
0000
0000
0000
0000
0010
0001
0100
0001
1000
0000
,
0100
0010
0100
0010
0100
0000
0100
1000
0001
0100
0001
0100
0000
0000
0101
0000
,
0001
0010
0001
1000
0010
0000
0101
0000
0001
0010
0100
0000
1000
0000
1010
0000
,
1000
0100
0000
0000
0000
0000
0010
0001
0100
0000
0001
1000
0001
1000
0001
0100
,
0000
0010
0000
1000
0000
0100
0000
0000
0110
0000
0000
0000
1001
0000
0000
0001
,
1000
0100
0010
0001
0000
0001
1000
0000
1001
0000
0000
0001
0010
0001
0010
0100
,
1000
0010
0100
0001
1000
0000
1000
0100
0000
0110
0000
0010
0001
0010
0100
0000
,
1000
0100
0001
0000
0101
0000
0100
1000
0000
1010
0000
1000
0001
1000
0001
0000
,
1001
0000
0000
0000
0000
1000
0100
0010
0001
0000
0000
0000
0000
0000
0000
0000
1000
0000
0000
0000
0100
0000
0000
0000
0000
0000
0000
0000
0100
0000
0000
0000
,
0010
0000
0010
1000
0000
1000
0100
0000
,
1100
0000
0000
0000
1000
0100
0000
0100
,
0001
0000
0001
0010
0000
0010
0001
0000
,
1001
0000
0000
0000
1000
0010
0000
1000
,
0000
0001
0000
0010
0000
0100
0000
1000
,
0000
0002
0000
0000
1003
0001
0000
1001
,
0000
0010
0000
0110
0000
0100
0000
1000
,
0001
0200
0000
0000
0310
1000
0000
1000
,
0100
0000
0010
0001
0000
0001
0100
0000
,
0101
0000
0010
1000
0001
0100
0000
0001
,
0010
0000
0100
1000
0000
0010
1000
0000
,
1001
0000
0110
0000
1000
0100
0000
0110
,
0000
0001
0000
0011
0000
1000
0000
1010
,
0000
0001
0000
1000
0000
0001
0000
1000
,
0100
0010
0001
0000
0001
1000
0000
0001
,
0000
0000
1000
0000
0000
0000
0001
0000
0001
0010
0001
0010
0100
0000
0100
1000
,
0000
0000
0000
1000
0001
0010
0100
0000
1100
1000
0010
1000
0100
0000
0100
0010
,
0000
0001
0010
0001
0010
0100
0010
0000
0010
1000
0100
0001
0100
0000
0000
1000
,
0000
0010
0000
1000
0001
0000
0002
0000
0013
0100
1000
0001
0100
0000
0001
0000
,
0101
0000
0000
0000
2002
3003
0000
0000
0000
0000
0000
0000
0000
0000
0000
0000
;

//---------------dance-single - ----------------
#NOTES:
     dance-single:
     :
     Medium:
     6:
     0.294,0.330,0.134,0.045,0.073:
1000
0000
0000
0000
0010
0000
0000
1000
0000
0000
0000
0000
0001
0000
0000
0000
,
1000
0000
0000
0000
0001
0000
0000
0010
0000
0000
0000
0000
0100
0000
0000
0000
,
1100
0000
0000
0000
0010
0000
0000
0100
0000
0000
0000
0000
0001
0000
0000
0000
,
1000
0000
0000
0000
0001
0000
0000
0010
0100
0000
0000
0000
0110
0000
0000
0000
,
0000
0000
0000
0000
0000
0000
0000
0001
0000
0001
0000
0000
0001
0000
0001
0000
,
0000
0000
0000
0000
0000
0000
0000
1000
0000
1000
0000
0000
1000
0000
1000
0000
,
0000
0010
0000
0000
0010
0100
0002
0000
,
2003
0000
3001
1001
,
0011
0000
0000
0000
0100
0000
0000
1000
0000
1000
0000
0000
1000
0000
0000
0000
,
0000
0000
0000
0001
0010
0010
0000
0100
,
0000
1000
0000
0000
0010
0100
1000
0000
,
0001
0000
0101
0000
1010
1000
0100
0000
,
1000
0001
0100
0000
0001
1000
0100
0000
,
0010
1000
0100
0000
0010
0001
0100
0000
,
0001
0001
1000
0000
0010
0010
0100
0000
,
0100
0100
0001
0000
0001
0001
1000
0000
,
0100
0010
0001
0010
1000
0010
0100
0000
,
0010
0100
1000
0100
0001
0100
0010
0000
,
1000
0100
0010
0001
0010
0100
1000
0000
,
1001
0110
0010
0000
,
0010
0000
1000
0100
,
1000
0000
0010
0000
,
0010
0000
0001
0100
,
0001
0000
0000
0000
0000
0010
0000
1000
,
0000
0001
0000
0100
0000
0010
0000
1000
,
0000
1000
0000
0001
0000
0001
0000
0010
,
0000
0010
0000
0100
0000
0010
0000
0100
,
0000
0000
0001
1000
,
0001
1000
0010
0100
,
0110
0000
1000
0001
,
1000
0001
0010
0100
,
0110
0000
0000
0000
1000
0100
0000
0010
,
0000
0000
0000
0000
0001
0100
0000
0010
,
0000
0000
0000
0000
1000
0001
0000
0001
,
0010
0100
1000
0000
0001
0001
0000
0001
,
0000
0000
0001
0000
0000
0000
0001
0000
1000
0000
0000
0000
0100
0000
0000
1000
,
0000
0000
0000
0000
0010
0000
0000
0000
0100
0000
0000
0000
0001
0000
0000
0010
,
0000
0000
0000
0000
0100
0000
0000
0000
1000
0000
0000
0000
0010
0000
0000
0100
,
0000
0001
0010
0100
,
0110
0000
2002
3003
0000
0000
0000
0000
;

//---------------dance-single - ----------------
#NOTES:
     dance-single:
     :
     Easy:
     3:
     0.197,0.220,0.134,0.067,0.000: // measure 1
1000
0000
0100
0100
,  // measure 2
1000
0000
0001
0001
,  // measure 3
0010
0000
0001
0001
,  // measure 4
0100
0000
0110
1001
,  // measure 5
1000
0000
0010
0010
,  // measure 6
0100
0000
0100
0100
,  // measure 7
0001
0000
0001
0001
,  // measure 8
1000
0010
0110
1001
,  // measure 9
0001
0000
1000
1000
,  // measure 10
0010
0000
0100
0100
,  // measure 11
0001
0010
1000
0010
,  // measure 12
0002
0000
1000
1003
,  // measure 13
1001
1000
0100
0000
,  // measure 14
0110
0010
0001
0000
,  // measure 15
1001
0001
0100
0000
,  // measure 16
0110
0010
1000
0000
,  // measure 17
0001
0100
1000
0100
,  // measure 18
0001
0010
1000
0010
,  // measure 19
0001
1000
0001
0100
,  // measure 20
0020
0030
0000
0000
,  // measure 21
0100
0000
0100
0000
,  // measure 22
0100
0000
0000
0000
,  // measure 23
0010
0000
0010
0000
,  // measure 24
0010
0000
0000
0000
,  // measure 25
1100
0000
0000
0000
,  // measure 26
0101
0000
0000
0000
,  // measure 27
0011
0000
0000
0000
,  // measure 28
1010
0000
1000
0000
,  // measure 29
0001
0000
1000
0000
,  // measure 30
0001
0000
0010
0000
,  // measure 31
0100
0000
0010
0000
,  // measure 32
0100
0000
1000
0100
,  // measure 33
1000
0100
0001
0100
,  // measure 34
0001
0100
1000
0100
,  // measure 35
1000
0100
0001
0100
,  // measure 36
0001
0100
2000
0000
,  // measure 37
0000
3001
0002
0000
,  // measure 38
0000
0103
0200
0000
,  // measure 39
0000
1300
0200
0000
,  // measure 40
0000
0310
0000
0000
;
