#TITLE:Kiss Me;
#SUBTITLE:;
#ARTIST:Sixpence None the Richer;
#TITLETRANSLIT:;
#SUBTITLETRANSLIT:;
#ARTISTTRANSLIT:;
#GENRE:;
#CREDIT:N. Muriel;
#MENUCOLOR:;
#METERTYPE:DDR X;
#BANNER:[Falling in Love] - Kiss Me.png;
#BACKGROUND:[Falling in Love] - Kiss Me-bg.png;
#LYRICSPATH:;
#CDTITLE:;
#MUSIC:[Falling in Love] - Kiss Me.mp3;
#OFFSET:-9.643;
#SAMPLESTART:37.520;
#SAMPLELENGTH:15.000;
#SELECTABLE:YES;
#LISTSORT:;
#DISPLAYBPM:100.000;
#BPMS:0.000=99.970;
#STOPS:99.000=0.300
,182.500=0.300
;
#BGCHANGES:-1.500=[Falling in Love] - Kiss Me.avi=1.000=0=0=1,
99999=-nosongbg-=1.000=0=0=0 // don't automatically add -songbackground-
;
#ATTACKS:;

//---------------dance-single - ----------------
#NOTES:
     dance-single:
     :
     Hard:
     8:
     0.324,0.330,0.184,0.136,0.128:
1000
0000
0100
0000
1000
0000
0000
0001
0000
0100
0001
0000
0101
0000
0000
0000
,
0001
0000
0100
0000
0001
0000
0000
1000
0000
0100
1000
0000
1100
0000
0000
0000
,
0001
0010
0001
0000
1100
0000
0000
0000
1000
0010
1000
0000
0101
0000
0000
0000
,
1000
0001
0010
0100
1000
0001
1000
0000
,
0001
0100
0001
0000
2000
0000
0000
0000
3001
0000
0000
0000
0000
0000
0000
0000
,
0000
0000
1000
0000
0010
0000
1000
0010
0000
0000
1000
0000
0010
0000
0100
0000
,
0001
0010
0001
0000
2000
0000
0000
0000
3001
0000
0000
0000
0000
0000
0000
0000
,
0000
0000
0001
0000
0010
0000
0001
0010
0000
0000
0100
0000
0000
0000
1000
0000
,
1000
0010
1000
0000
0002
0000
0000
0000
1003
0000
0000
0000
0000
0000
0000
0000
,
0000
0000
0000
0000
0001
0000
0010
0000
0100
0001
0000
0000
0100
0000
0000
0000
,
0000
0010
1000
0100
1000
0010
0100
0001
,
0000
1000
0100
0001
0000
1000
0001
0000
,
0000
1000
0010
0100
0000
0000
0000
0000
,
0000
0000
0001
0000
0010
0000
0100
0010
0000
0000
0100
0000
0010
0000
0001
0000
,
0000
1000
0001
0100
0000
0000
0000
0000
,
0000
0000
1000
0000
0001
0000
0100
0001
0000
0000
1000
0000
0000
0000
0010
1000
,
0100
0000
0000
0000
0001
0000
0001
0000
0010
0100
0000
1000
0000
0000
0000
0000
,
0000
0000
1000
0000
0010
0000
1000
0010
0000
0000
0100
0001
0000
0010
0000
0001
,
0000
0100
0000
0000
1000
0000
0000
0000
1000
0000
0100
1000
0000
0100
0000
0001
,
0100
0001
0100
0001
0000
0001
1000
0000
,
0011
0000
0110
0000
1100
1000
0001
0000
,
0000
0001
0010
2000
0000
0000
0000
0000
,
0000
3100
0001
0020
0000
0000
0000
0000
,
0000
0130
1000
0002
0000
0000
0000
0000
,
1000
0000
1000
0000
1000
0000
1003
1001
,
0001
0200
0000
0301
0000
0000
0000
0000
,
0010
0000
1000
0000
0100
1000
0000
0000
0001
0000
0100
0000
0002
0000
0000
0000
,
0000
1003
0000
1001
0000
0000
0000
0000
,
1000
0000
0100
0000
0010
0100
0000
0000
1000
0000
0000
0000
0001
0000
0000
0000
,
0000
0110
0000
0202
0000
0000
0000
0303
,
0000
0000
1000
0000
0100
0000
1000
0100
0000
0000
0010
0000
0000
0000
0000
0000
,
0001
0000
1000
0000
0001
0100
0000
0000
0100
0000
0001
0000
0010
0000
0100
0000
,
1000
0010
1000
0000
1000
0002
0000
1003
,
1001
1000
0200
0000
0000
0000
0300
0000
,
0010
0000
0001
0000
0100
0001
0000
0000
1000
0000
0100
0000
0001
0000
0001
0000
,
1001
0001
0200
0000
0000
0000
0300
0000
,
0010
0000
1000
0000
0001
0100
0000
0000
0010
0000
0000
0000
1000
0100
0001
0000
,
0000
1010
0100
0001
0010
0100
0000
0011
,
0100
1000
0000
1010
0100
0001
0000
1100
,
0010
0001
0000
0101
0010
1000
0000
0001
,
0010
0100
1000
0000
1000
1001
0000
1100
,
0000
0110
0000
0011
0001
0100
0000
2000
,
0000
0000
0000
0010
0000
3010
0002
0000
,
0000
0000
0000
0010
0000
0013
2000
0000
,
0000
0000
0000
0100
0000
3100
0002
0000
,
0000
0000
0000
1000
1000
1003
1001
0000
;

//---------------dance-single - ----------------
#NOTES:
     dance-single:
     :
     Easy:
     3:
     0.198,0.202,0.192,0.104,0.000:
1000
1100
0000
1100
,
0001
0101
0000
0101
,
1000
1010
0000
1010
,
0001
0011
0000
0011
,
0000
1000
2000
0000
,
0000
3001
0010
0100
,
0000
0001
0002
0000
,
0000
1003
0010
0100
,
0000
1001
2002
0000
,
3003
1000
0100
0010
,
0000
0001
0100
0010
,
1000
0001
0010
0100
,
0110
0010
0001
0000
,
0110
0010
1000
0010
,
1100
1000
0100
0000
,
0110
0010
0001
0010
,
0101
0001
0100
0000
,
1000
1000
0001
0001
,
0010
0010
0100
0100
,
1000
0100
0010
0001
,
1000
0100
1000
0000
,
0000
0001
0010
0000
,
0000
1000
0100
0000
,
0000
1000
0010
0000
,
0000
0001
0100
0000
,
0000
1000
0000
2000
0000
0000
0000
0000
,
0000
3001
0000
0010
0000
0100
0000
0000
,
0000
0001
0000
0002
0000
0000
0000
0000
,
0000
1003
0000
0010
0000
0100
0000
0000
,
0000
1001
0000
2002
0000
0000
0000
3003
,
0000
1000
0000
0100
0000
0010
0000
0000
,
0000
0001
0000
0100
0000
0010
0000
1000
,
0000
0001
0000
0010
0000
0100
0000
0110
,
0000
0010
0000
0001
0000
0000
0000
0110
,
0000
0010
0000
1000
0000
0010
0000
1100
,
0000
1000
0000
0100
0000
0000
0000
0110
,
0000
0010
0000
0001
0000
0010
0000
0101
,
0000
0001
0000
0100
0000
0000
0000
1000
,
0000
1000
0000
0001
0000
0001
0000
0010
,
0000
0010
0000
0100
0000
0100
0000
1000
,
0000
0100
0000
0010
0000
0001
0000
1000
,
0000
0100
0000
1000
0000
0000
0000
0002
,
0000
0000
0000
1003
0000
0000
0000
2000
,
0000
0000
0000
3010
0000
0000
0000
0020
,
0000
0000
0000
0130
0000
0000
0000
2002
,
0000
0000
3003
1001
;

//---------------dance-single - ----------------
#NOTES:
     dance-single:
     :
     Medium:
     5:
     0.305,0.293,0.192,0.144,0.000: // measure 1
1000
0000
0100
0000
1000
0100
1000
0000
,  // measure 2
0001
0000
0100
0000
0001
0100
0001
0000
,  // measure 3
1000
0000
0010
0000
1000
0010
1000
0000
,  // measure 4
0001
0000
0010
0000
0001
0010
0001
0000
,  // measure 5
1000
0001
0202
0303
,  // measure 6
0000
0000
0001
0000
0010
0100
0010
0000
,  // measure 7
0000
1000
2200
3300
,  // measure 8
0000
0000
1000
0000
0010
0100
0000
0010
,  // measure 9
1000
0100
0010
0000
1010
0000
0000
0000
,  // measure 10
0001
0100
0010
0000
0011
0000
0000
0000
,  // measure 11
0010
1000
0001
0000
0010
0001
1000
0000
,  // measure 12
0010
1000
0100
0010
0001
0100
0001
0000
,  // measure 13
1000
0001
1000
0001
0000
0000
0000
0000
,  // measure 14
0010
0100
0010
0100
1000
0100
0010
0001
,  // measure 15
1000
0001
1000
0001
0000
0000
0000
0000
,  // measure 16
0100
0010
0100
0010
1000
0010
0100
0001
,  // measure 17
1000
0100
0001
0000
1000
0100
0001
0000
,  // measure 18
0001
0010
1000
0000
0001
0010
1000
0000
,  // measure 19
1000
0010
0001
0000
1000
0010
0001
0000
,  // measure 20
0001
0100
1000
0000
0001
0100
1000
0000
,  // measure 21
1001
0110
1001
0000
,  // measure 22
0000
1000
0100
0020
0000
0000
0000
0000
,  // measure 23
0000
0130
1000
0002
0000
0000
0000
0000
,  // measure 24
0000
0103
0001
2000
0000
0000
0000
0000
,  // measure 25
0000
3010
1000
0200
0000
0000
0310
0000
,  // measure 26
0000
0001
0000
0202
0000
0000
0000
0303
,  // measure 27
0001
0010
0100
1000
1000
0001
0100
0000
,  // measure 28
0000
1000
0000
2200
0000
0000
0000
3300
,  // measure 29
0100
0010
0001
0010
0100
1000
0000
1001
,  // measure 30
0000
1010
0000
2002
0000
0000
0000
3003
,  // measure 31
0000
0001
0010
0100
0000
1010
0000
1000
,  // measure 32
0010
0100
0000
0011
0000
0011
0000
0001
,  // measure 33
0010
0100
1000
0001
0100
0001
0010
0100
,  // measure 34
1000
0100
1000
0000
0000
1001
0000
0010
,  // measure 35
0100
0010
0100
0001
0010
0100
1000
0100
,  // measure 36
0001
0100
0001
0000
0000
0110
0000
0010
,  // measure 37
0100
0010
0100
1000
0100
0010
0001
1001
,  // measure 38
0000
0010
1000
0100
1000
0100
0000
0010
,  // measure 39
0010
0100
0000
0100
0100
1000
0000
1000
,  // measure 40
1000
0001
0000
0001
0001
0100
0000
0001
,  // measure 41
0010
0100
1000
0000
1000
0100
1000
0001
,  // measure 42
0000
0110
0000
1000
0100
0001
0000
2001
,  // measure 43
0000
0000
0000
0010
0000
3100
0000
1002
,  // measure 44
0000
0000
0000
0010
0000
0103
0000
2010
,  // measure 45
0000
0000
0000
0100
0000
3001
0000
0012
,  // measure 46
0000
0000
0000
0100
0000
1003
1001
0000
;
