#TITLE:High School Love;
#SUBTITLE:;
#ARTIST:DJ YOSHITAKA feat.DWP;
#TITLETRANSLIT:;
#SUBTITLETRANSLIT:;
#ARTISTTRANSLIT:;
#CREDIT:TaroNuke;
#BANNER:banner.png;
#BACKGROUND:bg.png;
#LYRICSPATH:;
#CDTITLE:;
#MUSIC:High School Love.ogg;
#OFFSET:0.000;
#SAMPLESTART:33.345;
#SAMPLELENGTH:12.000;
#SELECTABLE:YES;
#BPMS:0.000=180.000;
#STOPS:;
#BGCHANGES:;

//---------------dance-single - TaroNuke----------------
#NOTES:
     dance-single:
     TaroNuke:
     Hard:
     9:
     0.599,0.585,0.358,0.288,0.004:
0000
0000
0000
0000
,
0000
0000
0000
0000
,
0000
0000
0000
0000
,
0000
0000
0000
0000
,
1000
0000
0001
0000
1000
0000
0001
0100
,
0000
0100
0010
1000
0001
0000
0100
0000
,
0010
0000
0100
0001
0000
1000
0000
0001
,
0000
0010
0000
0200
0000
0000
1300
0000
,
1000
0100
0010
0001
0000
0100
0010
0001
,
0000
0010
0100
0000
0110
0000
1001
0000
,
0001
0010
0100
1000
0000
0010
0100
1000
,
0000
0100
0010
0000
0110
0000
1001
0000
,
1000
0010
0100
0001
0000
0010
0100
0001
,
0000
0100
0010
0000
0110
0000
1001
0000
,
1000
0001
0100
0000
0001
1000
0100
0000
,
1000
0001
0100
0001
1000
0010
0100
0000
,
1001
0000
1000
0000
0001
0100
0010
1000
,
0001
0010
1000
0010
,
0200
1000
0010
1300
,
0020
0001
0100
0031
,
1002
0000
0013
0000
0001
0010
0100
1000
,
0100
0010
0011
1010
,
2001
0000
3100
0000
0001
0100
0010
1000
,
0100
0000
0010
0000
0100
0010
0001
2000
,
0000
0000
0010
0000
0100
0000
3020
0230
,
0000
0000
0001
0000
0010
0000
0302
0023
,
0000
0000
0001
0000
0100
0000
0032
2003
,
0000
0000
0010
0000
0100
0000
3002
0203
,
0000
0000
0310
1000
0100
0000
0010
0001
,
0100
0000
0010
1000
0100
0000
1000
0000
,
1020
0100
1000
0100
,
1000
0100
1000
0130
,
0201
1000
0001
1000
,
0301
0001
0001
0000
0000
0000
0000
0000
,
0000
0000
1001
0000
1000
0100
0001
0100
,
0000
0010
1000
0001
0100
0010
0001
0000
,
1000
0010
0001
2000
0000
3001
0010
1000
,
0001
0000
1000
0001
0010
0000
1001
0000
,
1000
0100
1000
0100
0001
0100
0010
0011
,
0000
0001
0100
1000
0100
0010
1000
0000
,
0001
0100
0010
0100
0001
0010
0100
1000
,
0000
0100
1000
0100
0010
0000
0110
0000
,
0000
0000
1001
0000
0001
0100
1000
0100
,
0000
0010
0001
1000
0100
0010
1000
0000
,
0001
0010
1000
0002
0000
1003
0010
0001
,
1000
0000
0001
1000
0010
0000
1001
0000
,
1000
0100
0010
0001
0000
0010
0100
0001
,
0000
0100
0010
0000
0110
0000
1001
0000
,
0001
0100
0010
1000
0000
0010
0100
1000
,
0000
0100
0010
0000
0110
0000
1001
0000
,
1000
0010
0100
0001
0000
0100
0010
0001
,
0000
0010
0100
0000
0110
0000
1001
0000
,
0001
1000
0010
0000
1000
0001
0010
0000
,
0001
1000
0010
1000
0001
0010
0000
1002
,
0000
0000
0100
0000
1000
0000
0023
0230
,
0000
0000
1000
0000
0010
0000
2300
3020
,
0000
0000
1000
0000
0100
0000
2030
3002
,
0000
0000
0100
0000
0010
0000
2003
3020
,
0000
0030
0100
0001
0010
0100
1000
0010
,
0001
0010
1000
0100
0010
0100
1000
0001
,
0201
0010
0001
0010
,
0001
0010
0001
0310
,
1020
0001
1000
0001
,
1030
1000
1000
0000
0000
0000
0000
0000
,
0000
0000
1001
0000
1000
0100
0010
0100
,
0000
1000
0000
0001
0100
0000
0010
0000
,
1000
0000
0001
0000
0000
0000
0202
0000
0000
0000
0303
0000
0000
0000
0001
1000
,
0100
0000
0000
0000
0001
0100
0001
0000
,
1100
0000
0000
0000
,
0101
0000
0000
0000
,
1100
0000
0101
0000
,
1000
0000
0001
0000
1000
0100
0010
0001
,
0000
0000
1001
0000
1000
0010
0001
0010
,
0000
0100
1000
0100
0001
0010
1000
0000
,
0001
0100
1000
0020
0000
1030
0100
0010
,
0001
0000
0000
1000
0001
0100
0001
0010
,
0001
1000
0100
0001
0000
1000
0100
0001
,
0000
1000
0100
0000
0011
0000
1100
0000
,
1000
0001
0100
1000
0000
0001
0100
1000
,
0000
0001
0100
0000
1010
0000
0101
0000
,
1000
0001
0100
0010
0000
0001
0100
0010
,
0000
0001
0100
0000
0110
0000
1001
0000
,
1000
0001
0100
0000
0001
1000
0100
0000
,
1000
0001
0100
0001
1000
0010
0200
0300
;

//---------------dance-single - ----------------
#NOTES:
     dance-single:
     :
     Medium:
     6:
     0.384,0.438,0.192,0.017,0.000:
0000
0000
0000
0000
,
0000
0000
0000
0000
,
0000
0000
0000
0000
,
0000
0000
0000
0000
,
1100
1000
0100
1000
,
0001
0100
0001
0100
,
0010
0010
0010
0000
,
0100
0100
0100
0000
,
1001
0000
0000
1000
0000
0100
0000
0001
,
0000
0100
1000
0001
,
1001
0000
0000
0001
0000
0100
0000
1000
,
0000
0100
0001
1000
,
1001
0000
0000
0001
0000
0010
0000
1000
,
0000
0010
0001
1000
,
0010
0100
0010
0100
,
0001
1000
0100
0110
,
0000
1000
0100
0010
,
0100
1000
0001
0100
,
0010
0100
0010
0100
,
0001
0010
0100
1000
,
0002
0000
0000
0000
,
1003
0010
0100
0001
,
2000
0000
0000
0000
,
3001
0010
0100
1000
,
1001
0100
0010
0100
,
1001
0100
0010
0100
,
1001
0010
0100
0010
,
1001
0010
0100
0010
,
1001
0100
0010
0001
,
1000
0001
0010
0100
,
1000
0100
0001
0100
,
1000
0100
0001
0100
,
1000
0010
0001
0010
,
0100
0100
0100
0000
0000
0000
0000
0000
,
0000
1001
1000
0100
,
0010
0100
1000
0001
,
1000
0100
0001
0100
,
1000
0000
0001
0001
,
0001
0100
0010
0100
,
0001
0010
0100
1000
,
0001
0010
1000
0010
,
0001
0000
1000
1000
,
0000
0000
1001
0000
0001
0100
0001
0000
,
1000
0000
0100
0000
0010
0001
0010
0000
,
0001
0100
1000
0100
,
0001
0000
1000
1000
,
1001
0000
0000
1000
0000
0100
0000
0001
,
0000
0010
1000
0001
,
1001
0000
0000
0001
0000
0100
0000
1000
,
0000
0010
0001
1000
,
1001
0000
0000
0001
0000
0010
0000
1000
,
0000
0100
0001
1000
,
0100
0010
0100
0010
,
0001
1000
0001
0000
,
1001
1000
0100
0010
,
1001
0001
0010
0100
,
1001
1000
0010
0100
,
1001
0001
0100
0010
,
1001
1000
0100
1000
,
0001
0100
0001
0100
,
0010
0100
0010
0100
,
0001
1000
0001
1000
,
0100
0010
0100
0010
,
0100
0100
0100
0000
0000
0000
0000
0000
,
0000
1001
1000
0100
,
0001
0100
1000
0010
,
0100
0001
1000
0001
,
0100
0000
0001
0001
,
1000
0000
0000
0000
,
0001
0000
0000
0000
,
0100
0000
0010
0000
,
1000
0001
1000
0001
,
0000
1001
0001
0010
,
1000
0010
0001
0100
,
0010
1000
0001
1000
,
0100
0000
1000
1000
,
1000
0000
0000
0100
0000
0001
0000
0010
,
0000
1000
0100
0001
,
0010
0000
0000
1000
0000
0100
0000
0001
,
0000
0010
1000
0100
,
0001
0000
0000
0010
0000
1000
0000
0100
,
0000
0001
0010
1000
,
0010
0100
0010
0100
,
0001
1000
0100
0010
;

//---------------dance-single - ----------------
#NOTES:
     dance-single:
     :
     Easy:
     2:
     0.169,0.292,0.166,0.000,0.000: // measure 1
0000
0000
0000
0000
,  // measure 2
0000
0000
0000
0000
,  // measure 3
0000
0000
0000
0000
,  // measure 4
0000
0000
0000
0000
,  // measure 5
0000
0000
0000
0000
,  // measure 6
0000
0000
0000
0000
,  // measure 7
0000
0000
0000
0000
,  // measure 8
0000
0000
0000
0000
,  // measure 9
1000
0000
0001
0000
,  // measure 10
0100
0000
0000
0000
,  // measure 11
0010
0000
0100
0000
,  // measure 12
0001
0000
0000
0000
,  // measure 13
1000
0000
0100
0000
,  // measure 14
0010
0000
0000
0000
,  // measure 15
1001
0000
1001
0000
,  // measure 16
1001
0000
0000
0000
,  // measure 17
1000
0000
0100
0000
,  // measure 18
0010
0000
0100
0000
,  // measure 19
1000
0000
0001
0000
,  // measure 20
0100
0000
0010
0000
,  // measure 21
1000
0000
0010
0000
,  // measure 22
0100
0000
0001
0000
,  // measure 23
1000
0000
0100
0000
,  // measure 24
0010
0000
0001
0000
,  // measure 25
1000
0000
1000
0000
,  // measure 26
0001
0000
0001
0000
,  // measure 27
0100
0000
0100
0000
,  // measure 28
0010
0000
0010
0000
,  // measure 29
1000
0000
0000
0000
,  // measure 30
0000
0000
0000
0000
,  // measure 31
1001
0000
0000
0000
,  // measure 32
0110
0000
1001
0000
,  // measure 33
0110
0000
0000
0000
,  // measure 34
1001
0000
0000
0000
,  // measure 35
0000
1000
0000
0000
,  // measure 36
0001
0000
0010
0000
,  // measure 37
0100
0000
0100
0000
,  // measure 38
0100
0000
0000
0000
,  // measure 39
0010
0000
1000
0000
,  // measure 40
0001
0000
1000
0000
,  // measure 41
0010
0000
0100
0000
,  // measure 42
0100
0000
0000
0000
,  // measure 43
0000
1001
0000
0000
,  // measure 44
1000
0000
0100
0000
,  // measure 45
0001
0000
0010
0000
,  // measure 46
1000
0000
0000
0000
,  // measure 47
1000
0000
0100
0000
,  // measure 48
0001
0000
0000
0000
,  // measure 49
1000
0000
0100
0000
,  // measure 50
0001
0000
0000
0000
,  // measure 51
1000
0000
0100
0000
,  // measure 52
0001
0000
0000
0000
,  // measure 53
1000
0000
0100
0000
,  // measure 54
0001
0000
0000
0000
,  // measure 55
1000
0000
1000
0000
,  // measure 56
0001
0000
0001
0000
,  // measure 57
0010
0000
0010
0000
,  // measure 58
0100
0000
0100
0000
,  // measure 59
1000
0000
0000
0000
,  // measure 60
0000
0000
0000
0000
,  // measure 61
1001
0000
0000
0000
,  // measure 62
0110
0000
1001
0000
,  // measure 63
0110
0000
0000
0000
,  // measure 64
1001
0000
0000
0000
,  // measure 65
0000
1001
0000
0000
,  // measure 66
1000
0000
0000
0000
,  // measure 67
0001
0000
0000
0000
,  // measure 68
0100
0000
0000
0000
,  // measure 69
0001
0000
0000
0000
,  // measure 70
1000
0000
0000
0000
,  // measure 71
0100
0000
0100
0000
,  // measure 72
0100
0000
0000
0000
,  // measure 73
0000
1001
0000
0000
,  // measure 74
0001
0000
0100
0000
,  // measure 75
0010
0000
1000
0000
,  // measure 76
0100
0000
0000
0000
,  // measure 77
1001
0000
1000
0000
,  // measure 78
0010
0000
0000
0000
,  // measure 79
1001
0000
0001
0000
,  // measure 80
0100
0000
0000
0000
,  // measure 81
1001
0000
1000
0000
,  // measure 82
0010
0000
0000
0000
,  // measure 83
0001
0000
0001
0000
,  // measure 84
1000
0001
0100
0100
;
