#TITLE:HAPPY ANGEL;
#SUBTITLE:;
#ARTIST:jun with TAHIRIH;
#TITLETRANSLIT:;
#SUBTITLETRANSLIT:;
#ARTISTTRANSLIT:;
#CREDIT:;
#BANNER:;
#BACKGROUND:;
#LYRICSPATH:;
#CDTITLE:;
#MUSIC:HAPPY ANGEL.mp3;
#OFFSET:0.000;
#SAMPLESTART:73.840;
#SAMPLELENGTH:12.000;
#SELECTABLE:YES;
#BPMS:0.000=180.001;
#STOPS:;
#BGCHANGES:;

//---------------dance-single - ----------------
#NOTES:
     dance-single:
     :
     Hard:
     8:
     0.578,0.688,0.407,0.265,0.097:
0000
0000
0000
0000
,
0000
0000
0000
0000
,
0000
0000
0010
0000
1000
0000
0001
0000
0100
0010
0000
0100
0010
0000
0100
0000
,
0001
0000
1000
0000
0100
0000
0010
0000
0001
0010
0000
0001
0010
0000
0001
0000
,
0100
0000
0010
0000
1000
0000
0010
0000
0100
0010
0000
0100
0010
0000
0100
0000
,
0010
0100
0000
0001
0000
0010
0000
0100
,
0000
1020
0000
0130
0000
0201
0000
0310
,
0000
0001
0000
0010
0000
0100
0000
1000
,
0000
0210
0000
0301
0000
0120
0000
1030
,
0000
0100
0000
0010
0000
0001
0000
1000
,
0000
0012
0000
1003
0000
2100
0000
3001
,
0000
0010
0000
0100
0000
1000
0000
0001
,
0000
0210
0000
0301
0000
0120
0000
1030
,
0000
1000
0000
0100
0000
0010
0000
0001
,
0000
1002
0000
0103
0000
2001
0000
3010
,
0000
0001
0010
0001
0010
0010
0000
0001
,
0000
0102
0000
1003
0000
2010
0000
3001
,
0000
1000
0100
1000
0100
0100
0000
1000
,
0000
0120
0000
1030
0000
0210
0000
0301
,
0000
0010
0001
0010
0001
0001
0000
0010
,
0000
0001
0000
1000
0000
0010
0000
0100
,
0000
0001
0000
0010
0000
0100
0000
1000
,
0000
1002
0000
0000
1003
0000
0001
1000
,
0001
1000
0000
0000
1000
0000
0001
0100
,
1000
0100
0000
0000
0001
0010
0000
0000
,
0000
0120
0000
0000
0130
0000
0010
0100
,
0010
0100
0000
0100
0010
0000
0000
1000
,
0100
0001
0000
0000
0001
0000
0001
0100
,
0001
0100
0000
0001
0000
0010
0000
0100
,
0000
1010
0000
0000
0000
0101
0000
0000
,
0000
0000
0110
0000
0000
0000
0000
0000
0000
0000
0001
0000
0000
0010
0000
0000
,
0100
2100
0000
0000
3100
0000
1000
0100
,
1000
0100
0000
0000
0100
1000
0000
0000
,
0000
0102
0000
0000
0103
0000
0001
0100
,
0001
0100
0000
0100
0001
0000
0000
0010
,
0100
0010
0000
0000
0100
0000
1000
0010
,
0100
0010
0000
0010
0000
0010
0000
0010
,
0000
0010
0000
0000
0100
0010
0000
0000
,
0100
0000
0001
0010
0100
0010
0000
0001
,
0000
0001
0000
0001
0010
0100
0000
0010
,
0100
1000
0000
0100
1000
0100
0000
0100
,
0000
0100
0000
0100
0000
0000
0000
0100
,
1000
0100
0000
0100
0000
0100
0000
0100
,
0000
1000
0000
1000
0010
0100
0000
0010
,
0100
0001
0000
0001
0100
0001
0000
0001
,
0000
0001
0000
0001
0000
0000
0000
0001
,
0100
0001
0000
0001
0000
0000
0000
0000
,
0000
2020
0000
0000
0000
3030
0000
0102
,
0000
0200
0000
0003
0000
0020
0000
0330
,
0000
2010
0000
0000
0000
0000
0000
3001
,
0000
0100
0000
0010
0000
1000
0000
0100
,
0000
1100
0000
0000
0000
0010
0000
0100
,
0000
0001
0000
0010
0000
0100
0000
1000
,
0000
1100
0000
0000
0000
0101
0000
0000
,
0000
1010
0000
1001
0000
0110
0000
0101
,
0000
1020
0000
0000
1030
0000
0010
1000
,
0010
1000
0000
0000
1000
0010
0000
0000
,
0000
0102
0000
0000
0103
0000
0001
0100
,
0001
0100
0000
0100
0001
0000
0000
0001
,
0100
0001
0000
0000
0010
0000
0001
0010
,
1000
0010
0000
0001
0000
0001
0000
0001
,
0000
1010
0000
0000
0000
0101
0000
0000
,
0000
0011
0000
1100
0000
1010
0000
0101
,
0000
0000
0010
0000
1000
0000
0001
0000
0010
0100
0000
0010
0100
0000
0010
0000
,
0001
0000
1000
0000
0010
0000
0100
0000
0010
0100
0000
0010
0100
0000
0010
0000
,
1000
0000
0001
0000
0010
0000
0100
0000
1000
0001
0000
1000
0001
0000
1000
0000
,
0001
1000
0000
0010
0000
0100
0000
0001
,
0000
0000
0001
0000
0010
0000
0100
0000
1000
0100
0000
1000
0100
0000
1000
0000
,
0001
0000
0100
0000
0010
0000
1000
0000
0001
0010
0000
0001
0010
0000
0100
0000
,
0010
0000
0001
0000
1000
0000
0010
0000
0100
0010
0000
0100
0010
0000
0100
0000
,
0001
0100
1000
0100
0001
0000
0001
0000
,
0000
1001
0000
0000
0000
0000
0000
0000
;

//---------------dance-single - ----------------
#NOTES:
     dance-single:
     :
     Easy:
     4:
     0.288,0.362,0.092,0.031,0.000:
0000
0000
0000
0000
,
0000
0000
0000
0000
,
0000
0010
0000
0000
0000
0010
0000
0000
,
0000
1000
0000
0000
0000
1000
0000
0000
,
0000
0001
0000
0000
0000
0001
0000
0000
,
0000
0100
0000
0000
0000
0100
0000
0000
,
0000
0010
0000
0000
0000
0010
0000
0000
,
0000
0010
0000
0000
0000
0000
0000
0000
,
0000
0100
0000
0000
0000
0100
0000
0000
,
0000
0100
0000
0000
0000
0000
0000
0000
,
0000
1000
0000
0000
0000
1000
0000
0000
,
0000
1000
0000
0000
0000
0000
0000
0000
,
0000
0001
0000
0000
0000
0001
0000
0000
,
0000
0001
0000
0000
0000
0000
0000
0000
,
0000
0100
0000
0000
0000
0100
0000
0000
,
0000
0100
0000
0100
0000
0100
0000
0000
,
0000
0010
0000
0000
0000
0010
0000
0000
,
0000
0010
0000
0010
0000
0010
0000
0000
,
0000
0100
0000
0000
0000
0100
0000
0000
,
0000
0100
0000
0100
0000
0100
0000
0000
,
0000
0001
0000
0001
0000
1000
0000
1000
,
0000
0010
0000
0010
0000
0100
0000
0100
,
0000
0001
0000
0001
0000
0000
0000
0000
,
0000
0010
0000
0010
0000
0010
0000
1000
,
0000
0001
0000
1000
0000
0001
0000
0000
,
0000
0100
0000
0100
0000
0100
0000
0001
,
0000
1000
0000
0001
0000
1000
0000
0000
,
0000
0001
0000
0001
0000
1000
0000
1000
,
0000
0001
0000
0001
0000
0100
0000
0100
,
0000
0020
0000
0000
0000
0200
0030
0000
,
0000
0002
0000
0303
0000
1001
0000
1001
,
0000
0010
0000
0010
0000
0100
0000
0100
,
0000
0001
0000
1000
0000
0100
0000
0000
,
0000
1000
0000
1000
0000
0010
0000
0010
,
0000
0100
0000
1000
0000
0001
0000
0000
,
0000
1000
0000
1000
0000
0010
0000
0010
,
0000
0100
0000
1000
0000
0010
0000
0100
,
0000
0101
0000
0000
0000
1010
0000
0000
,
0000
0101
0000
1010
0000
1001
0000
0110
,
0000
0010
0000
0000
0000
1000
0000
0000
,
0000
0001
0000
0000
0000
0100
0000
0000
,
0000
0001
0000
0000
0000
0000
0000
0100
,
0000
0100
0000
0100
0000
0100
0000
0100
,
0000
0010
0000
0000
0000
1000
0000
0000
,
0000
0001
0000
0000
0000
0100
0000
0000
,
0000
0001
0000
0000
0000
0000
0000
0010
,
0000
0010
0000
0010
0000
0010
0000
0010
,
0000
0001
0000
0000
0000
0000
0000
1000
,
0000
0010
0000
0000
0000
0001
0000
0000
,
0000
0100
0000
0000
0000
0000
0000
0010
,
0000
1000
0000
0001
0000
0100
0000
0010
,
0000
1000
0000
0000
0000
1000
0000
0001
,
0000
0010
0000
0100
0000
1000
0000
0001
,
0000
0100
0000
0000
0000
0010
0000
0000
,
0000
0010
0000
0100
0000
0010
0000
0100
,
0000
0010
0000
0000
0000
0010
0000
0000
,
0000
0100
0000
0000
0000
0100
0000
0000
,
0000
1000
0000
0000
0000
1000
0000
0000
,
0000
0001
0000
0000
0000
0001
0000
0000
,
0000
0010
0000
0000
0000
0100
0000
0000
,
0000
0010
0000
0000
0000
0100
0000
0000
,
0000
0001
0000
0000
0000
0001
0000
0000
,
0000
1000
0000
0000
0000
1000
0000
0000
,
0000
0010
0000
0010
0000
0010
0000
0000
,
0000
0100
0000
0100
0000
0100
0000
0000
,
0000
0001
0000
0001
0000
0001
0000
0000
,
0000
0001
0000
0010
0000
0100
0000
1000
,
0000
0010
0000
0010
0000
0010
0000
0000
,
0000
0100
0000
0100
0000
0100
0000
0000
,
0000
0001
0000
0001
0000
0001
0000
0000
,
0000
1000
0000
1000
0000
0001
0000
0001
,
0000
1001
0000
0000
0000
0000
0000
0000
;

//---------------dance-single - ----------------
#NOTES:
     dance-single:
     :
     Medium:
     6:
     0.400,0.471,0.204,0.081,0.000: // measure 1
0000
0000
0000
0000
,  // measure 2
0000
0000
0000
0000
,  // measure 3
0000
0100
0000
0100
0000
0100
1000
0100
,  // measure 4
0000
1000
0000
1000
0000
1000
0100
1000
,  // measure 5
0000
0100
0000
0100
0000
0100
0010
0100
,  // measure 6
0000
0010
0000
0010
0000
0010
0001
0010
,  // measure 7
0000
0001
0000
0000
0000
0100
0000
0000
,  // measure 8
0000
1000
0000
0000
0000
0000
0000
0000
,  // measure 9
0000
1000
0000
0000
0000
0100
0000
0000
,  // measure 10
0000
0010
0000
0000
0000
0000
0000
0000
,  // measure 11
0000
0001
0000
0000
0000
0010
0000
0000
,  // measure 12
0000
0100
0000
0000
0000
0000
0000
0000
,  // measure 13
0000
1000
0000
0000
0000
0010
0000
0000
,  // measure 14
0000
0001
0000
0000
0000
0000
0000
0000
,  // measure 15
0000
0010
0000
0000
0000
0010
0000
0000
,  // measure 16
0000
0010
0100
0010
0100
0010
0000
0000
,  // measure 17
0000
0100
0000
0000
0000
0100
0000
0000
,  // measure 18
0000
0100
0010
0100
0010
0100
0000
0000
,  // measure 19
0000
0001
0000
0000
0000
0001
0000
0000
,  // measure 20
0000
0001
1000
0001
1000
0001
0000
0000
,  // measure 21
0000
1000
0000
0000
0000
1000
0000
0000
,  // measure 22
0000
0001
0000
0000
0000
0001
0000
0000
,  // measure 23
0000
0110
0000
0110
0000
0110
0000
0000
,  // measure 24
0000
0001
0000
0001
0000
0001
0000
0001
,  // measure 25
0000
1000
0000
1000
0000
1000
0000
0000
,  // measure 26
0000
0010
0000
0010
0000
0010
0000
0010
,  // measure 27
0000
0100
0000
0100
0000
0100
0000
0000
,  // measure 28
0000
0010
0000
0000
0000
0100
0000
0000
,  // measure 29
0000
0010
0000
0000
0000
0100
0000
0000
,  // measure 30
0000
0010
0100
0010
0000
0100
0010
0100
,  // measure 31
0000
0001
0000
1000
0000
0100
0000
0010
,  // measure 32
0000
0001
0000
0001
0000
0001
0000
0001
,  // measure 33
0000
0001
0010
0001
0010
0001
0000
0010
,  // measure 34
0000
0010
0000
0010
0000
0010
0000
0010
,  // measure 35
0000
0010
0100
0010
0100
0010
0000
0100
,  // measure 36
0000
0100
0000
0100
0000
0100
0000
0100
,  // measure 37
0000
0100
1000
0100
1000
0100
0000
1000
,  // measure 38
0000
1000
0000
1000
0000
0010
0000
0010
,  // measure 39
0000
0100
0000
0100
0000
0001
0000
0001
,  // measure 40
0000
0210
0000
0000
0000
0001
0000
0000
,  // measure 41
0000
0010
0000
0000
0000
0001
0000
0000
,  // measure 42
0000
0010
0000
0000
0000
0000
0000
0010
,  // measure 43
0000
0010
0000
0010
0000
0010
0000
0310
,  // measure 44
0000
1002
0000
0000
0000
0100
0000
0000
,  // measure 45
0000
1000
0000
0000
0000
0100
0000
0000
,  // measure 46
0000
1000
0000
0000
0000
0000
0000
0100
,  // measure 47
0000
0100
0000
0100
0000
0100
0000
0103
,  // measure 48
0000
0220
0000
0000
0000
0330
0000
0002
,  // measure 49
0000
2000
0000
0003
0000
0020
0000
3030
,  // measure 50
0000
0201
0000
0000
0000
0000
0000
0301
,  // measure 51
0000
0010
0000
0100
0000
1000
0000
0001
,  // measure 52
0000
0100
0000
0000
0000
0100
0000
0010
,  // measure 53
0000
0100
0000
0010
0000
0100
0000
0010
,  // measure 54
0000
0110
0000
0000
0000
1001
0000
0000
,  // measure 55
0000
1010
0000
0101
0000
0011
0000
1100
,  // measure 56
0000
0001
0000
0010
0000
1000
0000
0100
,  // measure 57
0000
1000
0100
1000
0100
1000
0100
1000
,  // measure 58
0000
0001
0000
0010
0000
0100
0000
1000
,  // measure 59
0000
0010
0100
0010
0100
0010
0100
0010
,  // measure 60
0000
1000
0000
0010
0000
0100
0000
0001
,  // measure 61
0000
0010
1000
0010
1000
0010
1000
0010
,  // measure 62
0000
1001
0000
0000
0000
0110
0000
0000
,  // measure 63
0000
0110
0000
1010
0000
0101
0000
0110
,  // measure 64
0000
0010
0000
0010
0000
0010
0100
0010
,  // measure 65
0000
0100
0000
0100
0000
0100
0010
0100
,  // measure 66
0000
0001
0000
0001
0000
0001
1000
0001
,  // measure 67
0000
1000
0000
0010
0000
0100
0000
0001
,  // measure 68
0000
1000
0000
1000
0000
1000
0100
1000
,  // measure 69
0000
0010
0000
0010
0000
0010
0100
0010
,  // measure 70
0000
0100
0000
0100
0000
0100
0001
0100
,  // measure 71
0000
0010
0000
1000
0000
0100
0000
0001
,  // measure 72
0000
0110
0000
0000
0000
0000
0000
0000
;
